#TITLE:chrono diver -fragment-;
#SUBTITLE:;
#ARTIST:猫叉Master feat.三澤秋;
#TITLETRANSLIT:;
#SUBTITLETRANSLIT:;
#ARTISTTRANSLIT:;
#GENRE:;
#CREDIT:;
#BANNER:;
#BACKGROUND:;
#LYRICSPATH:;
#CDTITLE:;
#MUSIC:01.chrono diver -fragment-.mp3;
#OFFSET:-0.763000;
#SAMPLESTART:68.106476;
#SAMPLELENGTH:10.378380;
#SELECTABLE:YES;
#BPMS:0.000000=185.000000
;
#STOPS:
;
#BGCHANGES:;
#KEYSOUNDS:;
#ATTACKS:;

//---------------dance-single - ----------------
#NOTES:
     dance-single:
     :
     Hard:
     7:
     0.421554,0.545690,0.048641,0.064855,0.000000,350.000000,6.000000,8.000000,0.000000,0.000000,0.000000,0.421554,0.545690,0.048641,0.064855,0.000000,350.000000,6.000000,8.000000,0.000000,0.000000,0.000000:
0000
0000
0000
0000
,
0000
0000
0000
0000
,
0000
0000
0000
0000
,
0000
0000
0000
0000
,
0001
0000
0000
1000
0000
0000
1000
0000
,
0000
1000
0000
0000
0000
0000
0000
0000
,
0001
0000
0000
0100
0000
0000
0000
0010
,
1000
0000
0000
0100
0000
0000
1000
0001
,
1000
0000
0000
0010
0000
0000
0010
0000
,
0000
0010
0000
0000
0000
0000
0000
0000
,
0100
0000
0000
0001
0000
0000
0000
1000
,
0001
0000
1000
0001
0010
0001
1000
0001
,
0100
0000
0001
0000
,
0010
0000
0001
0000
,
1000
0000
0100
0000
,
1000
0000
0010
0000
,
0100
0010
1000
0010
,
0100
0001
0100
0001
,
1000
0100
1000
0001
,
0100
0000
0002
0000
1003
0010
1000
0100
,
0010
0001
0010
0001
,
1000
0001
0100
0001
,
0010
0000
0000
0100
0000
0000
0010
0000
,
0001
0000
1000
0100
1000
0010
0100
0000
,
0001
0100
0010
1000
,
0100
0010
0100
1000
,
0001
0000
0000
1000
0000
0000
0100
0000
,
1000
0000
0010
0100
0001
1000
0001
0000
,
1000
0100
0001
0100
,
0010
0001
0100
0001
,
1000
0000
0000
0001
0000
0000
0100
0000
,
0010
0000
1000
0100
1000
0001
0100
0000
,
0001
0000
1000
0020
0000
0000
0000
0000
,
0000
0000
0030
0000
,
1000
0000
0000
0100
0000
0000
1000
0010
,
0100
0000
0010
0100
0001
0010
0001
0000
,
1000
1000
0001
1000
,
0001
0001
1000
0001
,
0100
0010
0100
0010
0100
0010
0100
0010
,
1000
0001
1000
0001
1000
0001
0010
0000
,
1001
0000
1000
0000
0100
0000
1000
0001
,
0100
0000
0001
0010
0100
0010
0001
0000
,
1000
0000
0001
0000
0010
0000
0001
1000
,
0010
0000
0100
0010
1000
0001
1000
0000
,
1001
0000
0001
0000
0100
0000
0010
0100
,
0001
0010
0100
1000
,
0001
1000
0100
1000
,
0001
0000
0100
0000
0001
0100
0001
0000
,
0100
0010
1000
0100
,
1000
0000
0010
0000
1000
0001
1000
0000
,
0001
0000
0100
0000
0001
1000
0001
0000
,
0110
0000
0000
0000
,
2001
0000
3000
0001
,
1000
0100
0001
0100
,
1000
0000
0000
0001
0100
0000
0000
0001
,
1000
0001
0010
0000
0000
0000
0100
0000
,
1000
0100
0001
0100
,
0000
0010
0100
1000
,
0001
0000
0000
1000
0010
0000
0100
0010
,
1000
0001
0010
0100
0010
0001
1000
0000
,
0200
0000
0300
0010
,
0001
1000
0001
0100
,
0010
0000
0000
0100
0001
0000
0010
0100
,
1000
0001
0100
0002
,
0000
0000
0003
0000
0000
0000
1000
0100
,
0010
0100
1000
0001
0010
0001
0100
0000
,
0020
0000
0030
1000
,
0010
0001
0010
0100
,
0001
0000
0000
1000
0010
0000
0000
1000
,
0010
0100
0010
0000
0000
0000
0010
0000
,
1000
0001
0000
0001
1000
0001
0010
0000
,
0000
0100
0010
0001
,
1000
0000
0000
0100
0010
0000
0010
0100
,
1000
0001
0010
0001
1000
0100
1000
0000
,
0002
0000
0003
0100
,
0010
1000
0100
1000
,
0001
0000
0000
1000
0010
0000
1000
0001
,
0010
0000
0100
0000
0010
0001
2000
0000
,
0100
3100
0010
0001
,
1000
1000
0010
0100
,
0001
0010
0100
1000
0100
0010
0001
1000
,
0010
0000
0000
0000
,
1001
1000
1000
1000
,
1000
1000
1000
1000
,
0010
0010
0010
0010
,
0010
0010
0010
0010
,
0110
0100
0100
0100
,
0100
0100
0100
0100
,
0001
0001
0001
0001
,
0001
0001
0001
0001
;

//---------------dance-single - ----------------
#NOTES:
     dance-single:
     :
     Medium:
     5:
     0.354384,0.400173,0.016214,0.121602,0.000000,289.000000,2.000000,15.000000,0.000000,0.000000,0.000000,0.354384,0.400173,0.016214,0.121602,0.000000,289.000000,2.000000,15.000000,0.000000,0.000000,0.000000:
0000
0000
0000
0000
,
0000
0000
0000
0000
,
0000
0000
0000
0000
,
0000
0000
0000
0000
,
1000
0000
0000
0001
0000
0000
0001
0000
,
0000
0001
0000
0000
0000
0000
0000
0000
,
1000
0000
0000
0010
0000
0000
0000
0000
,
0100
0000
0000
0010
0000
0000
1000
0000
,
0001
0000
0000
1000
0000
0000
1000
0000
,
0000
1000
0000
0000
0000
0000
0000
0000
,
0010
0000
0000
0100
0000
0000
0000
0000
,
0010
1000
0100
0010
,
0002
0000
0010
0000
,
0010
0000
0013
0000
,
2000
0000
3001
0000
,
0002
0000
1003
0000
,
0001
0000
0010
0000
,
0100
0000
1000
0000
,
0001
1000
0010
1000
,
0100
0000
1000
0000
0001
0000
1000
0010
,
1000
0000
0001
0000
0000
0010
0001
0000
,
0100
0000
0010
0000
0000
0100
0010
0000
,
1000
0000
0001
0000
0000
0010
0001
0000
,
0100
0000
0010
0000
0100
0001
0100
0000
,
0010
0000
1000
0000
0000
0001
1000
0000
,
0100
0000
1000
0000
0000
0100
0010
0000
,
0001
0000
0010
0000
0000
0001
0100
0000
,
0010
0000
0100
0000
0001
1000
0001
0000
,
1000
0000
0010
0000
0000
1000
0100
0000
,
0010
0000
0100
0000
0000
0010
0001
0000
,
0100
0000
0010
0000
0000
1000
0001
0000
,
1000
0000
0010
0000
0100
0001
0100
0000
,
0001
0000
1000
0020
0000
0000
0000
0000
,
0030
0000
0000
0000
,
0100
0000
0000
0001
0000
0000
1000
0001
,
0010
0000
0100
0000
1000
0001
1000
0000
,
0001
1000
0100
1000
,
0001
0100
0001
1000
,
0001
0010
0100
1000
,
0001
1000
0001
0100
,
0020
0000
0000
0000
0000
0000
1030
0010
,
0000
0000
0000
0000
0100
0010
0100
0000
,
0002
0000
0000
0000
0000
0000
1003
0001
,
0000
0000
0000
0010
0100
1000
0001
0000
,
0200
0000
0000
0000
0000
0000
0310
0100
,
0000
0010
1000
0001
,
1000
0100
0100
1000
,
0010
0000
0001
0000
0010
0100
0001
0000
,
1000
0100
1000
0010
,
0100
0000
0001
0000
1000
0010
0100
0000
,
0010
0000
1000
0000
0001
0010
0100
0000
,
1000
0000
0000
0000
,
1002
0000
0000
1003
,
0100
0001
0100
1000
,
0010
0000
0000
0100
0001
0000
0000
0100
,
0001
1000
0001
0000
0000
0000
1000
0000
,
0100
1000
0010
0100
,
0000
0010
0100
0001
,
1000
0000
0000
0001
1000
0000
1000
0001
,
0100
0010
1000
0010
,
0200
0000
0300
0001
,
1000
0010
1000
0100
,
0010
0000
0000
0001
1000
0000
1000
0001
,
0010
0100
1000
0002
,
0000
0000
0003
0000
0000
0000
0010
0100
,
1000
0010
0100
0001
,
2001
0000
0000
3001
,
0010
1000
0010
0001
,
0100
0000
0000
0010
1000
0000
0000
0010
,
1000
0001
1000
0000
0000
0000
0001
0000
,
0010
0001
0100
0010
,
0000
0100
0010
1000
,
0001
0000
0000
1000
0001
0000
0001
1000
,
0010
0100
0001
0100
,
0020
0000
0030
1000
,
0001
0100
0001
0010
,
0100
0000
0000
1000
0001
0000
0001
1000
,
0100
0000
0010
0000
0001
1000
0020
0000
,
0100
0000
1030
0000
,
0001
0000
0100
0000
,
0010
0000
0100
0000
0001
0000
0010
0100
,
1000
0000
0001
0000
0100
0010
0200
0000
,
0001
0000
0000
0000
,
0310
0000
0000
0000
,
1000
0000
0000
0000
,
0100
0000
0000
0000
,
1000
0000
0000
0001
0000
0000
0001
0000
,
0000
0002
0000
0000
0000
0000
0000
0000
,
0103
0100
0100
0100
,
0100
0100
0100
0100
;

//---------------dance-single - ----------------
#NOTES:
     dance-single:
     :
     Easy:
     3:
     0.267525,0.291035,0.032427,0.121602,0.000000,212.000000,4.000000,15.000000,0.000000,0.000000,0.000000,0.267525,0.291035,0.032427,0.121602,0.000000,212.000000,4.000000,15.000000,0.000000,0.000000,0.000000:
// measure 0
0000
0000
0000
0000
,  // measure 1
0000
0000
0000
0000
,  // measure 2
0000
0000
0000
0000
,  // measure 3
0000
0000
0000
0000
,  // measure 4
0002
0000
0000
0000
,  // measure 5
0000
0003
0000
0000
0000
0000
0000
0000
,  // measure 6
1000
0000
0000
0000
,  // measure 7
0010
0000
0000
0000
,  // measure 8
0200
0000
0000
0000
,  // measure 9
0000
0300
0000
0000
,  // measure 10
0010
0000
0000
0000
,  // measure 11
1000
0000
0001
0000
,  // measure 12
0100
0000
0100
0000
,  // measure 13
0100
0000
0001
0000
,  // measure 14
1000
0000
0010
0000
,  // measure 15
0100
0000
0100
0000
,  // measure 16
0001
1000
0001
1000
,  // measure 17
0001
1000
0001
1000
,  // measure 18
0010
0100
0010
0100
,  // measure 19
0010
0000
0000
0000
,  // measure 20
1000
0010
0100
0010
,  // measure 21
1000
0001
0010
0001
,  // measure 22
1000
0000
0001
0000
,  // measure 23
0100
0001
0100
0100
,  // measure 24
0000
0001
0000
1000
,  // measure 25
0000
0100
0000
1000
,  // measure 26
0010
0000
1000
0000
,  // measure 27
0001
0010
0001
0001
,  // measure 28
1000
0001
0000
0100
,  // measure 29
0001
0010
0000
0100
,  // measure 30
1000
0000
0100
0000
,  // measure 31
1000
0010
0100
0001
,  // measure 32
1000
0001
0200
0000
,  // measure 33
0000
0000
0300
0001
,  // measure 34
1000
0000
0001
0000
,  // measure 35
0100
0100
0010
0010
,  // measure 36
1001
0000
1000
0000
,  // measure 37
0001
0000
0100
0000
,  // measure 38
0001
0100
0001
0100
,  // measure 39
0001
0100
0010
1000
,  // measure 40
0002
0000
0000
0000
,  // measure 41
0103
0000
0001
0010
,  // measure 42
0200
0000
0000
0000
,  // measure 43
0310
0000
0001
1000
,  // measure 44
0020
0000
0000
0000
,  // measure 45
0130
0010
1000
0001
,  // measure 46
1000
0000
0001
0000
,  // measure 47
1000
0100
0010
0001
,  // measure 48
2000
3000
0000
0001
,  // measure 49
0100
0001
0010
0020
,  // measure 50
0130
0100
0200
0310
,  // measure 51
1001
0000
0000
0000
,  // measure 52
2000
0000
0000
3001
,  // measure 53
0100
0001
1000
0100
,  // measure 54
1000
0000
0010
0000
,  // measure 55
0100
0001
0000
0100
,  // measure 56
0010
1000
0010
0100
,  // measure 57
0000
0010
0100
0001
,  // measure 58
1000
0000
0001
0000
,  // measure 59
1000
0100
0010
0001
,  // measure 60
2000
0000
0000
3001
,  // measure 61
0100
0001
0010
0001
,  // measure 62
1000
0000
0100
0000
,  // measure 63
1000
0010
0100
0001
,  // measure 64
0000
0000
0000
0010
,  // measure 65
0100
0010
0001
1000
,  // measure 66
0002
0000
0003
1000
,  // measure 67
0010
1000
0100
0010
,  // measure 68
0001
0000
0010
0000
,  // measure 69
0001
0100
0000
0010
,  // measure 70
0100
0001
0100
0010
,  // measure 71
0000
0100
0010
1000
,  // measure 72
0001
0000
1000
0000
,  // measure 73
0100
1000
0010
1000
,  // measure 74
0002
0000
0003
1000
,  // measure 75
0100
0100
1000
0010
,  // measure 76
0100
0000
0001
0000
,  // measure 77
0010
0010
0001
0200
,  // measure 78
0000
0000
0300
0000
,  // measure 79
0010
0000
1000
0000
,  // measure 80
0001
0000
0010
0100
,  // measure 81
0100
0000
0000
0000
,  // measure 82
1001
0000
0000
0000
,  // measure 83
0001
0000
0000
0000
,  // measure 84
1000
0000
0000
0000
,  // measure 85
0001
0000
0000
0000
,  // measure 86
1002
0000
0000
0000
,  // measure 87
0000
0000
0000
0000
,  // measure 88
1003
0001
1000
0001
,  // measure 89
1000
0001
1000
0001
;
