#TITLE:Venus;
#SUBTITLE:;
#ARTIST:A_Rival;
#TITLETRANSLIT:;
#SUBTITLETRANSLIT:;
#ARTISTTRANSLIT:;
#GENRE:;
#CREDIT:;
#BANNER:banner.jpg;
#BACKGROUND:bg.jpg;
#LYRICSPATH:;
#CDTITLE:;
#MUSIC:A_Rival - TRUTHCANNON - 04 Venus.mp3;
#OFFSET:-0.165000;
#SAMPLESTART:98.416512;
#SAMPLELENGTH:11.338585;
#SELECTABLE:YES;
#BPMS:0.000000=126.999992
;
#STOPS:167.000000=0.236000,
174.500000=0.236000,
198.000000=0.236000,
205.500000=0.236000
;
#BGCHANGES:;
#KEYSOUNDS:;
#ATTACKS:;

//---------------dance-single - ----------------
#NOTES:
     dance-single:
     :
     Hard:
     8:
     0.630285,0.730489,0.466738,0.528383,0.123289,388.000000,53.000000,60.000000,0.000000,0.000000,0.000000,0.630285,0.730489,0.466738,0.528383,0.123289,388.000000,53.000000,60.000000,0.000000,0.000000,0.000000:
// measure 0
0000
0000
0000
0000
,  // measure 1
0000
0000
0000
0000
,  // measure 2
0000
0000
0000
0000
,  // measure 3
0000
0000
0000
0000
,  // measure 4
1000
0001
1000
0001
0200
0301
1000
0001
,  // measure 5
1000
0100
1000
0100
0010
0001
0020
0031
,  // measure 6
1000
0010
0100
0001
2000
3001
0010
0100
,  // measure 7
1000
0010
0100
0010
1000
0001
0010
0001
,  // measure 8
2000
0010
0010
3010
0020
0130
0100
0001
,  // measure 9
2000
0100
0100
3100
0100
0010
0002
1003
,  // measure 10
0020
0100
0100
0130
0200
0301
1000
0100
,  // measure 11
0010
0001
0010
0100
1000
0100
0010
0001
,  // measure 12
0201
0000
0310
0000
0010
1000
0100
0000
,  // measure 13
1000
0100
0010
0001
1000
0010
0001
0010
,  // measure 14
1200
0000
0310
0000
0001
0100
0010
0000
,  // measure 15
1000
0000
0010
0000
0100
0000
0001
0000
1000
0100
0000
0000
0001
0000
0100
0000
,  // measure 16
2100
0000
3001
1000
0001
0100
0001
0010
,  // measure 17
0102
0000
1003
0001
1000
0100
1000
0010
,  // measure 18
1000
0000
0001
0100
0001
0100
0010
1000
0010
1000
0100
1000
0100
1000
0100
0010
,  // measure 19
0001
1000
0001
1000
0010
0100
0010
0100
0002
0000
0000
0000
1003
0000
0000
0000
,  // measure 20
1100
0000
0100
1000
0020
0000
0130
0000
,  // measure 21
0001
0000
0000
0100
0001
0000
0000
0000
1000
0000
0000
0000
0010
0000
0000
0000
0100
0000
0000
0000
0001
0000
0000
0000
1001
0000
0000
0000
0000
0000
0000
0000
,  // measure 22
1000
0100
0001
0100
0010
0001
1000
0000
,  // measure 23
0001
0000
0000
0100
0000
0000
1000
0000
0000
0100
0000
0000
0010
0000
0000
1000
0000
0000
0001
0000
1000
0000
0100
0000
,  // measure 24
0011
0000
0010
0001
0200
0000
0310
0000
,  // measure 25
1000
0010
1000
0000
0001
0000
0010
0100
2000
0000
3020
0000
0130
0000
0000
0000
,  // measure 26
0001
0100
1000
0100
0010
1000
0001
0000
,  // measure 27
1000
0100
0001
0100
0010
0001
1000
0010
,  // measure 28
0110
0000
0100
0001
2000
0000
3100
0000
,  // measure 29
0010
0000
0000
0100
0010
0000
0000
0000
0001
0000
0000
0000
0100
0000
0000
0000
1000
0000
0000
0000
0100
0000
0000
0000
0001
0000
0000
0000
0000
0000
0000
0000
,  // measure 30
1000
0100
0010
1000
0001
1000
0010
0000
,  // measure 31
0001
0000
0000
0100
0000
0000
0010
0000
0000
0001
0000
0000
1000
0000
0000
0001
0000
0000
0010
0000
1000
0000
0100
0000
,  // measure 32
0110
0000
0010
0001
2000
0000
3010
0000
,  // measure 33
0010
0100
0010
0000
1000
0001
1000
0000
1000
0000
0100
0000
0010
0000
0000
0000
,  // measure 34
0001
0010
0100
0001
1000
0001
0100
0000
,  // measure 35
1000
0010
0100
0001
2000
0000
0200
3300
,  // measure 36
1000
1000
0100
0001
0100
0100
1000
0010
,  // measure 37
0100
0100
0001
0010
1000
0000
0000
0000
,  // measure 38
0101
1100
0011
1010
,  // measure 39
0101
0110
1100
1001
,  // measure 40
0001
0100
1000
1000
0100
0010
1000
1000
,  // measure 41
0100
0001
0100
1000
0010
0100
0001
1100
,  // measure 42
0000
0001
0100
0000
0001
0000
1100
0000
0000
0001
0100
0000
0010
0000
1010
0000
,  // measure 43
0000
0001
0010
0000
0100
0000
1000
0000
0001
0000
1001
0000
0001
0000
0100
0000
,  // measure 44
0010
0010
1000
0100
0001
0001
0100
1000
,  // measure 45
0010
0001
1000
0000
0000
0000
0011
0000
,  // measure 46
1100
1010
0101
0011
,  // measure 47
0110
0000
1100
0000
1001
0000
1000
0010
,  // measure 48
0001
0001
0010
0100
0001
0001
0010
0100
,  // measure 49
1000
0000
0100
0000
0010
0000
0001
0000
1000
0000
0101
0000
0000
1000
0100
0000
,  // measure 50
1000
0000
0101
0000
0000
1000
0100
0000
0010
0000
0011
0000
0000
0001
0100
0000
,  // measure 51
0010
1000
0001
1001
2200
3300
0100
0010
,  // measure 52
0022
0033
0001
1000
2002
3003
0220
0330
,  // measure 53
2200
3300
0202
0303
2200
3300
0010
0001
,  // measure 54
0202
0303
0010
1000
2002
3003
0022
0033
,  // measure 55
2020
3030
0220
0330
2002
3003
0001
0010
,  // measure 56
0220
0330
0100
1000
2020
3030
0022
0033
,  // measure 57
0202
0303
2200
3300
2001
0000
0100
3100
,  // measure 58
1002
0000
0100
0103
0001
0010
0100
1000
,  // measure 59
0010
0100
0001
0000
0000
0000
0000
0000
;

//---------------dance-single - ----------------
#NOTES:
     dance-single:
     :
     Easy:
     3:
     0.283062,0.260889,0.176128,0.123289,0.000000,191.000000,20.000000,14.000000,0.000000,0.000000,0.000000,0.283062,0.260889,0.176128,0.123289,0.000000,191.000000,20.000000,14.000000,0.000000,0.000000,0.000000:
// measure 0
0000
0000
0000
0000
,  // measure 1
0000
0000
0000
0000
,  // measure 2
0000
0000
0000
0000
,  // measure 3
0000
0000
0000
0000
,  // measure 4
1000
1000
0010
0000
,  // measure 5
0100
0000
0010
0000
,  // measure 6
1000
1000
0100
0000
,  // measure 7
0010
0000
0100
0000
,  // measure 8
1000
0001
0100
0000
,  // measure 9
0010
0000
0100
0000
,  // measure 10
0001
1000
0100
0000
,  // measure 11
0010
0000
0100
0000
,  // measure 12
1001
0001
0100
0000
,  // measure 13
0010
1000
0100
0000
,  // measure 14
1001
1000
0100
0000
,  // measure 15
0010
0001
0100
0000
,  // measure 16
0101
0001
0010
0000
,  // measure 17
1100
1000
0010
0000
,  // measure 18
0101
0000
1100
0000
,  // measure 19
1000
0100
0010
0001
,  // measure 20
2000
3001
0200
0300
,  // measure 21
0010
0010
0010
1001
,  // measure 22
1000
0100
0010
0001
,  // measure 23
1000
0010
0100
0002
,  // measure 24
1003
0001
0020
0030
,  // measure 25
0100
0100
2000
3001
,  // measure 26
1000
0010
0100
0001
,  // measure 27
1000
0100
0010
0001
,  // measure 28
2000
3100
0020
0030
,  // measure 29
0100
0100
0100
1001
,  // measure 30
0001
0100
0010
1000
,  // measure 31
0001
0010
0100
2000
,  // measure 32
3001
0100
0020
0030
,  // measure 33
0100
0100
0001
1000
,  // measure 34
0001
0010
0100
1000
,  // measure 35
0001
0100
0020
1030
,  // measure 36
1000
1000
0001
0001
,  // measure 37
0100
0010
0100
0000
,  // measure 38
1001
0000
1100
0000
,  // measure 39
1001
0101
1100
0000
,  // measure 40
1000
1000
0100
0100
,  // measure 41
0010
0000
0001
0000
1000
0000
0010
0200
,  // measure 42
0000
0300
0000
0020
0000
0030
0000
0100
,  // measure 43
0000
0001
0000
1000
0000
1001
0001
0000
,  // measure 44
0001
1000
1000
0001
,  // measure 45
0010
0100
0000
1001
,  // measure 46
0000
1010
0000
1001
,  // measure 47
0011
1010
0000
0001
,  // measure 48
0001
0100
0100
0010
,  // measure 49
1000
0000
0001
0000
1000
0200
0000
0300
,  // measure 50
0000
0020
0000
0030
0000
0100
0000
1000
,  // measure 51
0000
0001
0000
1001
0001
0000
1000
0000
,  // measure 52
0001
1000
0010
1000
,  // measure 53
0010
0100
0001
1000
,  // measure 54
0100
1000
0001
0100
,  // measure 55
0010
1000
0001
0010
,  // measure 56
0100
0010
0001
0100
,  // measure 57
1000
0100
0001
1000
,  // measure 58
0100
0000
1000
0000
0010
0100
0010
0100
,  // measure 59
0010
0100
0010
0000
0000
0000
0000
0000
;

//---------------dance-single - ----------------
#NOTES:
     dance-single:
     :
     Medium:
     6:
     0.464222,0.417423,0.343449,0.308223,0.000000,295.000000,39.000000,35.000000,0.000000,0.000000,0.000000,0.464222,0.417423,0.343449,0.308223,0.000000,295.000000,39.000000,35.000000,0.000000,0.000000,0.000000:
// measure 0
0000
0000
0000
0000
,  // measure 1
0000
0000
0000
0000
,  // measure 2
0000
0000
0000
0000
,  // measure 3
0000
0000
0000
0000
,  // measure 4
1000
0000
1000
0000
0100
0010
0001
0000
,  // measure 5
1000
0001
0100
0010
,  // measure 6
1000
0000
1000
0000
0010
0100
0001
0000
,  // measure 7
1000
0000
0010
0000
0100
0001
1000
0100
,  // measure 8
0010
0000
0010
0000
1000
0001
1000
0000
,  // measure 9
0001
0100
1000
0100
,  // measure 10
0010
0000
0010
0000
1000
0001
1000
0000
,  // measure 11
0100
0001
0100
1000
,  // measure 12
1002
0100
0100
0100
,  // measure 13
0013
0100
1000
0001
,  // measure 14
2001
0100
0100
0100
,  // measure 15
3010
0000
0100
0000
0001
1000
0100
1000
,  // measure 16
1002
0100
0010
0103
,  // measure 17
2001
0100
0010
3100
,  // measure 18
0202
0303
2200
3300
,  // measure 19
0011
1010
2002
3003
,  // measure 20
1000
0000
0001
1000
0020
0000
0130
0000
,  // measure 21
0100
0001
1000
0001
0100
0010
1000
0000
,  // measure 22
1000
0100
1000
0100
0010
0001
1000
0000
,  // measure 23
0001
0100
0001
0100
0010
1000
0002
0000
,  // measure 24
1003
0000
0001
1000
0200
0000
0310
0000
,  // measure 25
0010
0001
0010
0100
1000
0000
1001
0000
,  // measure 26
0001
0100
0001
0100
0010
1000
0001
0000
,  // measure 27
1000
0100
1000
0100
0010
0001
1000
0001
,  // measure 28
1001
1100
0002
0103
,  // measure 29
0001
0100
0010
0100
1000
0100
0001
0000
,  // measure 30
1000
0100
1000
0100
0010
0001
1000
0000
,  // measure 31
0001
0100
0001
0100
0010
1000
0001
0000
,  // measure 32
1001
0101
2000
3100
,  // measure 33
1000
0100
0001
0100
1000
0001
1000
0000
,  // measure 34
0001
0100
0001
0010
0100
1000
0001
0000
,  // measure 35
1000
0010
0100
0001
2000
0000
3000
0000
,  // measure 36
0002
0013
2000
3010
,  // measure 37
0002
0000
0000
0023
0000
0000
0230
0000
0300
0000
0000
0000
,  // measure 38
2100
3001
0102
1003
,  // measure 39
2000
3200
0320
0031
,  // measure 40
1000
0000
0100
0100
0010
0000
0001
0000
,  // measure 41
0101
0000
0110
0000
1010
0000
1001
0101
,  // measure 42
0000
1100
0000
0101
0000
1100
0000
0001
,  // measure 43
0000
1000
0000
0001
0000
1001
0002
0000
,  // measure 44
0013
0020
0130
0200
,  // measure 45
2300
0000
0000
3002
0000
0003
0000
0000
0000
0201
0000
0000
,  // measure 46
0310
0120
1030
1100
,  // measure 47
0101
2002
3003
1000
,  // measure 48
0010
0100
0001
1010
,  // measure 49
0100
0001
0101
0000
1001
0011
0000
1010
,  // measure 50
0000
0011
0000
1010
0000
0001
0000
1000
,  // measure 51
0000
0001
0000
1001
1000
0100
1000
0100
,  // measure 52
0010
0100
0010
0100
1000
0010
1000
0010
,  // measure 53
0100
0010
0100
0010
1000
0100
0010
0100
,  // measure 54
1000
0001
0100
0001
1000
0010
0100
0010
,  // measure 55
1000
0001
0010
0001
1000
0010
0100
0100
,  // measure 56
0001
0010
0100
0100
1000
0010
0100
0010
,  // measure 57
1000
0100
0010
0100
1000
0010
0001
0010
,  // measure 58
1000
0100
0001
0100
1000
0010
0100
0001
,  // measure 59
1000
0001
1001
0000
0000
0000
0000
0000
;

//---------------dance-single - ----------------
#NOTES:
     dance-single:
     :
     Beginner:
     2:
     0.133354,0.182622,0.088064,0.000000,0.000000,96.000000,10.000000,0.000000,0.000000,0.000000,0.000000,0.133354,0.182622,0.088064,0.000000,0.000000,96.000000,10.000000,0.000000,0.000000,0.000000,0.000000:
// measure 0
0000
0000
0000
0000
,  // measure 1
0000
0000
0000
0000
,  // measure 2
0000
0000
0000
0000
,  // measure 3
0000
0000
0000
0000
,  // measure 4
1000
0000
0000
0000
,  // measure 5
1000
0000
0000
0000
,  // measure 6
0001
0000
0000
0000
,  // measure 7
0001
0000
0000
0000
,  // measure 8
0100
0000
0000
0000
,  // measure 9
0100
0000
0000
0000
,  // measure 10
0010
0000
0000
0000
,  // measure 11
0010
0000
0000
0000
,  // measure 12
1001
0000
0000
0000
,  // measure 13
1000
0000
0000
0000
,  // measure 14
0110
0000
0000
0000
,  // measure 15
0010
0000
0000
0000
,  // measure 16
1001
0000
0000
0000
,  // measure 17
0110
0000
0000
0000
,  // measure 18
1000
0000
0100
0000
,  // measure 19
0010
0000
0001
0000
,  // measure 20
1000
0000
0000
0000
,  // measure 21
0001
0000
0000
0000
,  // measure 22
0100
0000
0100
0000
,  // measure 23
0010
0000
0010
0000
,  // measure 24
1000
0000
0000
0000
,  // measure 25
0001
0000
0000
0000
,  // measure 26
0010
0000
0010
0000
,  // measure 27
0100
0000
0100
0000
,  // measure 28
1001
0000
0000
0000
,  // measure 29
1000
0000
0000
0000
,  // measure 30
0001
0000
0100
0000
,  // measure 31
0010
0000
1000
0000
,  // measure 32
1001
0000
0000
0000
,  // measure 33
0001
0000
0000
0000
,  // measure 34
1000
0000
0100
0000
,  // measure 35
0010
0000
0001
0000
,  // measure 36
1000
0000
1000
0000
,  // measure 37
0001
0000
0001
0000
,  // measure 38
0100
0000
0100
0000
,  // measure 39
0100
0100
0100
0000
,  // measure 40
0001
0000
0001
0000
,  // measure 41
1000
0000
1000
0000
,  // measure 42
0000
1001
0000
0000
0000
1001
0000
0000
,  // measure 43
0000
0001
0000
0001
0000
0000
0001
0000
,  // measure 44
0000
0001
0000
1000
,  // measure 45
0000
1000
0000
0100
,  // measure 46
0000
0100
0000
0100
,  // measure 47
0100
0100
0000
0010
,  // measure 48
0000
0001
0000
1000
,  // measure 49
0000
0000
0010
0000
0000
0000
0000
1001
,  // measure 50
0000
0000
0000
1001
0000
0000
0000
1000
,  // measure 51
0000
1000
0000
0000
0001
0000
0000
0000
,  // measure 52
0001
0000
1000
1000
,  // measure 53
1000
0000
0010
0000
,  // measure 54
0100
0000
0010
0010
,  // measure 55
0010
0000
1000
0000
,  // measure 56
0100
0000
0010
0010
,  // measure 57
0010
0000
0001
0000
,  // measure 58
0100
0000
0010
0000
,  // measure 59
1000
1000
0000
0000
;
