#VERSION:0.81;
#TITLE:Tongues;
#SUBTITLE:;
#ARTIST:Joywave;
#TITLETRANSLIT:;
#SUBTITLETRANSLIT:;
#ARTISTTRANSLIT:;
#GENRE:;
#ORIGIN:;
#CREDIT:;
#BANNER:Tongues - Joywavebn.png;
#BACKGROUND:Tongues - Joywavebg.png;
#PREVIEWVID:;
#JACKET:Tongues - Joywavejacket.png;
#CDIMAGE:;
#DISCIMAGE:;
#LYRICSPATH:Tongues - Joywave.lrc;
#CDTITLE:encorerebirth.png;
#MUSIC:Tongues - Joywave.ogg;
#OFFSET:0.004;
#SAMPLESTART:36.511;
#SAMPLELENGTH:16.251;
#SELECTABLE:YES;
#BPMS:0.000=118.000,
68.000=59.000,
70.000=118.000,
134.000=59.000,
142.000=88.500,
151.000=118.000;
#STOPS:151.000=1.525;
#DELAYS:;
#WARPS:;
#TIMESIGNATURES:0.000=4=4;
#TICKCOUNTS:0.000=4;
#COMBOS:0.000=1;
#SPEEDS:0.000=1.000=0.000=0;
#SCROLLS:0.000=1.000;
#FAKES:;
#LABELS:0.000=Song Start;
#BGCHANGES:;
#KEYSOUNDS:;
#ATTACKS:
;

//---------------dance-single - Spork!----------------
#NOTEDATA:;
#CHARTNAME:;
#STEPSTYPE:dance-single;
#DESCRIPTION:Spork!;
#CHARTSTYLE:;
#DIFFICULTY:Beginner;
#METER:1;
#RADARVALUES:0.083,0.109,0.000,0.070,0.000,65.000,0.000,9.000,0.000,0.000,0.000,0.000,0.000,0.083,0.109,0.000,0.070,0.000,65.000,0.000,9.000,0.000,0.000,0.000,0.000,0.000;
#CREDIT:Spork!;
#NOTES:
0000
0000
0000
0000
,
0000
0000
0000
0000
,
0000
0000
0000
0000
,
0000
0000
0000
0000
,
0000
0000
0000
0000
,
0000
0000
0000
0000
,
1000
0000
0000
0000
,
0100
0000
0000
0000
,
0010
0000
0000
0000
,
0001
0000
0000
0000
,
1000
0000
0100
0000
,
1000
0000
1000
0000
,
0001
0000
0100
0000
,
0001
0000
0001
0000
,
0010
0000
0100
0000
,
0010
0000
0010
0000
,
0100
0000
0010
0000
,
0200
0300
1000
0000
,
0000
0000
1000
0000
,
0001
0000
0100
0000
,
0000
0000
0100
0000
,
0001
0000
0010
0000
,
0000
0000
0010
0000
,
0100
0000
0010
0000
,
0000
0000
0000
0010
,
0010
0000
0002
0000
,
0000
0000
0003
0000
,
0001
0000
2000
0000
,
0000
0000
3000
0000
,
1000
0000
2000
0000
,
0000
0000
3000
0000
,
0001
0000
0002
0000
,
0000
0000
0003
0000
,
1000
0000
0200
0000
,
0000
0300
0020
0000
,
0000
0030
0200
0000
,
0000
0000
0300
0000
,
0020
0000
0000
0030
,
0001
0000
0000
0000
,
0100
0000
0000
0000
,
0010
0000
0000
0000
,
1000
0000
0000
0000
,
0001
0000
0000
0000
,
0001
0000
1000
0000
,
0010
0000
0000
0000
,
0010
0000
1000
0000
,
0100
0000
0000
0000
,
0100
0000
0010
0000
,
0100
0000
0000
0000
,
0000
0100
0100
0000
,
1000
0000
0000
0000
,
1000
0000
0000
0000
,
0001
0000
0000
0000
,
0001
0000
0000
0000
,
0100
0000
0000
0000
,
0000
0000
0000
0000
,
0100
0000
0000
0000
;

//---------------dance-single - Spork!----------------
#NOTEDATA:;
#CHARTNAME:;
#STEPSTYPE:dance-single;
#DESCRIPTION:Spork!;
#CHARTSTYLE:;
#DIFFICULTY:Easy;
#METER:4;
#RADARVALUES:0.222,0.224,0.242,0.125,0.000,152.000,31.000,16.000,0.000,0.000,0.000,0.000,0.000,0.222,0.224,0.242,0.125,0.000,152.000,31.000,16.000,0.000,0.000,0.000,0.000,0.000;
#CREDIT:Spork!;
#NOTES:
0000
0000
0000
0000
,
0000
0000
0000
0000
,
0000
0000
0000
0000
,
0000
0000
0000
0000
,
0000
0000
0000
0000
,
0000
0000
0000
0000
,
0010
0001
0100
0100
,
0010
1000
0100
0010
,
0100
1000
0010
0010
,
0100
0001
0010
0010
,
0011
0000
1001
0000
,
0101
0000
0110
0000
,
1010
0000
1001
0000
,
1100
0000
0110
0001
,
0110
0000
1001
0000
,
0101
0000
1100
0000
,
0110
0000
1001
0000
,
1010
0011
0002
0000
,
2003
0000
3010
1000
,
0100
1001
2000
0000
,
3002
0000
0013
0001
,
0100
0010
2000
0000
,
3002
0000
0013
0001
,
0100
1001
0002
0000
,
2003
0000
3100
1000
,
0001
0001
0020
0000
,
0100
0000
1000
0000
,
0031
0100
0020
0100
,
0100
1000
1000
0000
,
1030
0100
0200
0000
,
0010
0000
0001
0000
,
1300
0010
0200
0010
,
0010
0001
0001
0000
,
0310
1000
0002
0000
,
0000
0010
0023
0000
,
0000
0100
0230
0000
,
0000
0000
0000
0000
0000
1000
0000
0000
,
2300
0000
0000
3000
,
0010
1000
0100
0100
,
0010
0001
0100
0010
,
0100
0001
0010
0010
,
0100
1000
0010
0010
,
1010
0000
0101
0000
,
0011
0010
1000
0010
,
0011
0000
1100
0000
,
1010
0010
0001
0010
,
1010
0000
0101
0000
,
1100
0100
0001
0100
,
1100
0000
0011
0000
,
1001
0100
0010
1001
,
0001
0100
0010
0010
,
1000
0001
0010
0010
,
0001
1000
0010
0010
,
0100
0001
0010
0100
,
1000
0000
1000
0000
,
1000
0000
1000
0000
,
0001
0000
0001
0000
,
0001
0000
0100
0000
;

//---------------dance-single - Spork!----------------
#NOTEDATA:;
#CHARTNAME:;
#STEPSTYPE:dance-single;
#DESCRIPTION:Spork!;
#CHARTSTYLE:;
#DIFFICULTY:Hard;
#METER:8;
#RADARVALUES:0.465,0.474,0.234,0.344,0.215,343.000,30.000,44.000,0.000,0.000,0.000,0.000,0.000,0.465,0.474,0.234,0.344,0.215,343.000,30.000,44.000,0.000,0.000,0.000,0.000,0.000;
#CREDIT:Spork!;
#NOTES:
0000
0000
0000
0000
,
0000
0000
0000
0000
,
0000
0000
0000
0000
,
0000
0000
0000
0000
,
0000
0000
0000
0000
,
0000
0000
0000
0000
,
0010
0000
1000
0000
0100
0000
0010
0000
0001
0000
0000
0001
0000
0000
0001
0000
,
0000
0000
0100
0001
0100
0000
0010
0000
1000
0000
0000
0001
0000
0000
0100
0000
,
0000
0000
0010
0000
0100
0000
0001
0000
1000
0000
0000
1000
0000
0000
1000
0000
,
0000
0000
0100
1000
0100
0000
0010
0000
0001
0000
0100
0000
0010
0000
1000
0000
,
0100
1000
1010
0000
0100
0001
0011
0000
,
0010
0000
0001
0000
0101
0000
0000
0100
0010
0000
1000
0000
1100
0000
0000
0000
,
0010
0001
0101
0000
0010
1000
1100
0000
,
0100
0000
1000
0000
0010
0000
1000
0001
1000
0000
0001
0000
0011
0000
0010
0000
,
0001
0000
0100
0000
1100
0000
0000
1000
0100
0000
0001
0000
0011
0000
0000
0000
,
0001
0000
0010
0000
1010
0000
0000
1000
0010
0000
0001
0000
0101
0000
0000
0000
,
1000
0010
0011
0000
0010
1000
1100
0000
,
1000
0000
0100
0000
0010
0000
0001
1000
0001
0000
0010
0000
0100
0000
1000
0000
0002
0000
0000
0000
0000
0000
0000
0000
0103
0000
0000
0000
0001
0000
0000
0000
,
0020
0000
0130
1000
0010
0001
0010
1000
,
0100
0000
0000
0010
0000
0000
0001
0000
2000
0000
0000
0000
3010
0000
1000
0000
,
0200
0000
1300
0001
0100
1000
0100
0001
,
0010
0000
1001
0001
2000
0000
3100
1000
,
0020
0000
0130
0001
0010
1000
0010
0001
,
1000
0000
0000
0010
0000
0000
0100
0000
0002
0000
0000
0000
0103
0000
0001
0000
,
0020
0000
0031
1000
0100
1000
0010
0001
,
1000
0000
0100
0000
0001
0000
0001
0000
2000
0000
0000
0000
3100
0000
0000
0100
,
0010
0000
0000
0000
0100
0000
1000
0000
0001
0000
0000
0000
0100
0000
0000
0100
,
0010
0000
0000
1000
0000
0000
0100
0000
0020
0000
0000
0000
0032
0000
0203
0000
,
0020
0000
0300
0000
2030
0000
0002
0000
3000
0000
0003
0000
0100
0000
0000
0010
,
0100
0000
0000
0002
0000
0000
2003
0000
0002
0000
3000
0000
0013
0000
0000
0020
,
0100
0000
0030
0000
1000
0000
0001
0000
0100
0000
0000
0000
0010
0000
0000
0010
,
0100
0000
0000
0001
0000
0000
1000
0000
0200
0000
0000
0000
2300
0000
3020
0000
,
0200
0000
0030
0000
0302
0000
2000
0000
0003
0000
3000
0000
0100
0000
0000
0010
,
0100
0000
0000
0000
0000
0000
1000
0000
0000
0000
0000
0000
0001
0000
0000
0000
0000
0000
0000
0010
0000
0000
0000
0000
0000
0000
0000
0000
0000
0000
0000
0000
,
0000
0000
0000
0000
0000
0000
0000
0000
0010
0000
0000
0001
0000
0000
0100
0000
0010
0000
0000
0000
1000
0000
0001
0000
0000
0000
0000
0000
0000
0000
0000
0000
,
0000
0000
0000
0000
0001
0000
0010
0000
0001
0000
0000
0100
0000
0000
0010
0000
2000
0000
0000
0000
0000
0000
3200
0000
0000
0000
0000
0000
0320
0000
0000
0000
,
0000
0032
0000
0000
0203
0000
0000
0302
0000
0000
0023
0000
0000
0230
0000
0000
,
1300
0000
0000
1000
0000
0000
0010
0000
0000
0010
0000
0000
0001
0000
0000
0001
0000
0000
0010
0000
0000
0010
0000
0000
1000
0000
0000
0000
0001
0000
0000
0000
,
0000
0000
0010
0000
0001
0000
0100
0000
0010
0000
2000
0010
0000
3000
0010
0000
,
0000
0000
0100
0000
0001
0000
1000
0000
0100
0000
0020
0100
0000
0030
0100
0000
,
0000
0000
0100
0000
1000
0000
0010
0000
0100
0000
0002
0100
0000
0003
0100
0000
,
0000
0000
0001
1000
0001
0000
0010
0000
0100
0000
1000
0000
0010
0000
0010
0000
,
2010
0000
3010
1000
1200
0000
0310
0001
,
0100
0000
1000
0000
0100
0000
0001
0000
0010
0000
0000
0100
0000
0000
1000
0000
,
1002
0000
0103
0001
0021
0000
0031
1000
,
0010
0001
0010
1000
0100
0000
1001
0001
,
0012
0000
0013
0001
0201
0000
0310
1000
,
0100
0000
0001
0000
0100
0000
1000
0000
0001
0000
0000
0100
0000
0000
0010
0000
,
2010
0000
3010
1000
1200
0000
1300
0001
,
0010
0001
0100
1000
0001
0010
1000
1000
,
0000
0000
0001
0000
0100
0000
0001
0000
1000
0000
0000
1000
0000
0000
1000
0000
,
0000
0000
0100
1000
0100
0000
0010
0000
0001
0000
1000
0000
0100
0000
0010
0000
,
0000
0000
0100
0000
1000
0000
0001
0000
0100
0000
0000
0100
0000
0000
0100
0000
,
0000
0000
0010
0100
0010
0000
1000
0000
0001
0000
0010
0000
0001
0000
0001
0000
,
0100
1001
0010
0101
,
0010
1100
0001
0110
,
0010
1001
0100
1010
,
0100
0000
0000
0000
0011
0000
0000
0000
0001
0100
0000
0001
0010
0000
0100
0000
;

//---------------dance-single - Spork!----------------
#NOTEDATA:;
#CHARTNAME:;
#STEPSTYPE:dance-single;
#DESCRIPTION:Spork!;
#CHARTSTYLE:;
#DIFFICULTY:Medium;
#METER:6;
#RADARVALUES:0.293,0.294,0.219,0.226,0.039,206.000,28.000,29.000,0.000,0.000,0.000,0.000,0.000,0.293,0.294,0.219,0.226,0.039,206.000,28.000,29.000,0.000,0.000,0.000,0.000,0.000;
#CREDIT:Spork!;
#NOTES:
0000
0000
0000
0000
,
0000
0000
0000
0000
,
0000
0000
0000
0000
,
0000
0000
0000
0000
,
0000
0000
0000
0000
,
0000
0000
0000
0000
,
1000
0010
0101
0110
,
0001
0010
1100
1001
,
0001
0100
1010
0110
,
1000
0100
0011
1001
,
0002
0103
0020
0130
,
0002
0013
0200
1300
,
2000
3010
0200
0310
,
2000
0000
3100
0000
0020
0000
0031
1000
,
0002
0013
2000
3010
,
0002
0103
0020
1030
,
2000
3100
0002
0103
,
1000
1000
0001
0001
0100
0000
0000
0100
,
0010
0000
0000
0010
1000
0000
0001
0000
,
1001
0000
0000
1000
0100
0000
0000
0100
,
0010
0000
0000
0010
0001
0000
1000
0000
,
0001
0000
0100
0001
1000
0000
0000
1000
,
0010
0000
0100
0001
,
1001
0000
0000
1000
0001
0000
0000
0001
,
0100
0000
0010
0100
,
0010
0100
0110
0000
2000
0000
0000
0000
,
0001
0000
0100
3000
,
1000
0000
0100
0000
0010
0000
0001
0001
,
0002
0000
1000
2000
0000
0000
3003
0000
,
1001
0110
0002
0000
,
0020
0003
1000
0000
,
0031
0000
0100
0000
0010
0000
0010
0010
,
0020
0000
0100
0200
0000
0000
0330
0000
,
0100
0001
1000
0000
,
0000
0000
0010
1000
0001
0000
0000
0000
,
0000
0000
0000
0000
0010
0000
0001
0000
1000
0000
0000
1000
0000
0000
0001
0000
,
0000
0001
0000
0000
0010
0000
0000
0010
0000
0000
0100
0000
0000
0100
0000
0000
,
1000
0000
0000
0100
0000
0000
0010
0000
0000
0001
0000
0000
1001
0000
0000
0000
,
0001
0100
1010
0110
,
1000
0001
0011
1001
,
1000
0010
0101
0110
,
0001
1000
1100
1001
,
1002
0000
0003
0010
0002
0000
0003
0000
,
0001
0100
0001
0100
0001
0000
0010
0000
,
2001
0000
3000
0100
2000
0000
3000
0000
,
1000
0001
1000
0001
0100
0000
0010
0100
,
0120
0000
0030
1000
0200
0000
0300
0000
,
0100
0010
0100
0010
0100
0000
1000
0000
,
0210
0000
0300
0001
0020
0000
0030
0000
,
0001
0100
0110
1001
,
1000
0000
0000
0000
0010
0000
0000
0000
0100
0000
0000
0100
0000
0000
0100
0000
,
0001
0000
0000
0000
1000
0000
0000
0000
0010
0000
0000
0010
0000
0000
0010
0000
,
1000
0000
0000
0000
0010
0000
0000
0000
0100
0000
0000
0100
0000
0000
0100
0000
,
0001
1000
0100
1000
,
1000
0000
1000
0000
,
0100
0000
0100
0000
,
0010
0000
0010
0000
,
0001
0000
0000
0000
0000
0000
0000
0000
0001
0000
0000
0100
0000
0000
1000
0000
;

//---------------dance-single - Spork!----------------
#NOTEDATA:;
#CHARTNAME:;
#STEPSTYPE:dance-single;
#DESCRIPTION:Spork!;
#CHARTSTYLE:;
#DIFFICULTY:Challenge;
#METER:13;
#RADARVALUES:0.913,1.000,0.515,0.242,1.000,722.000,66.000,31.000,17.000,0.000,0.000,0.000,0.000,0.913,1.000,0.515,0.242,1.000,722.000,66.000,31.000,17.000,0.000,0.000,0.000,0.000;
#CREDIT:Spork!;
#NOTES:
// measure 0
0000
0000
0000
0000
,  // measure 1
0000
0000
0000
0000
,  // measure 2
0000
0000
0000
0000
0000
000M
0000
0000
,  // measure 3
0000
0000
0000
0000
0000
M000
0000
0000
,  // measure 4
0000
0000
0000
0000
0000
000M
0000
0000
,  // measure 5
0000
0000
0000
0000
,  // measure 6
1001
0000
0000
0000
0000
0000
1000
0000
0000
0000
0100
0000
1000
0000
0000
0000
0000
0000
1010
0000
0000
0000
0000
0000
0010
0000
0000
0000
0000
0000
M000
0000
0000
0100
0000
0000
0000
0000
0000
0000
0000
0000
1001
0000
0000
0000
0000
0000
,  // measure 7
0011
0000
0000
0000
0000
0000
1000
0000
0000
0001
0000
0000
0100
0000
0000
0000
0000
0000
0001
0000
0000
0000
0000
0000
1000
0000
0000
0000
0010
0000
100M
0000
0000
0000
1000
0000
0100
0000
0000
0000
0000
0000
0011
0000
0000
0000
0000
0000
,  // measure 8
1001
0000
0000
0000
0000
0000
0001
0000
0000
0000
0100
0000
0001
0000
0000
0000
0000
0000
0011
0000
0000
0000
0000
0000
0001
0000
0000
0000
0000
0000
M100
0000
0000
0010
0000
0000
0000
0000
0000
0000
0000
0000
1001
0000
0000
0000
0000
0000
,  // measure 9
1010
0000
0000
0000
0000
0000
0001
0000
0000
1000
0000
0000
0100
0000
0000
0000
0000
0000
1000
0000
0000
0000
0000
0000
0010
0000
0000
0000
0100
0000
0001
0000
0000
0000
1000
0000
0001
0000
0000
0000
0000
0000
0010
0000
0000
0000
0000
0000
,  // measure 10
0100
0000
1000
0000
0100
0000
1000
0000
0001
0000
1000
0000
0020
0000
0000
0000
0000
0000
0000
0000
0000
0100
0000
0000
0130
0000
0001
0000
0100
0000
0001
0000
1000
0000
0001
0000
0020
0000
0000
0000
0000
0000
0100
0000
0000
0000
0000
0000
,  // measure 11
0130
0000
0010
0000
0100
0000
0010
0000
0001
0000
1000
0000
0200
0000
0000
0000
0000
0000
0000
0000
0000
0010
0000
0000
0310
0000
0100
0000
0010
0000
0100
0000
1000
0000
0001
0000
0020
0000
0000
0000
0000
0000
0001
0000
0000
0000
0000
0000
,  // measure 12
0031
0000
0100
0000
0010
0000
0100
0000
0001
0000
1000
0000
0020
0000
0000
0000
0000
0000
0000
0000
0000
1000
0000
0000
1030
0000
0100
0000
0010
0000
0001
0000
0010
0000
0100
0000
2000
0000
0000
0000
0000
0000
0001
0000
0000
0000
0000
0000
,  // measure 13
3001
0100
0010
0100
0001
1000
0010
0000
0000
0010
1000
0001
0010
0100
0010
0001
0100
0010
1000
0000
0000
1M01
0000
0000
,  // measure 14
0001
0000
0010
0000
0001
0000
0100
0000
0010
0000
1000
0000
0100
0000
0000
0000
0100
0000
1000
0000
0000
0001
0000
0000
1000
0000
0100
0000
1000
0000
0010
0000
0100
0000
0001
0000
0010
0000
0000
0000
0010
0000
0001
0000
0000
0000
0000
0000
,  // measure 15
1000
0000
0010
0000
1000
0000
0100
0000
0010
0000
0001
0000
0100
0000
0000
0000
0100
0000
0001
0000
0000
1000
0000
0000
0001
0000
0100
0000
0001
0000
0010
0000
0100
0000
1000
0000
0010
0000
0000
0000
0000
0000
1000
0000
0000
0000
0000
0000
,  // measure 16
0001
0000
0010
0000
0100
0000
0010
0000
0001
0000
1000
0000
0100
0000
0000
0000
0100
0000
0010
0000
0000
0100
0000
0000
1000
0000
0010
0000
0100
0000
0010
0000
1000
0000
0001
0000
0100
0000
0000
0000
0000
0000
0101
0000
0000
0100
0000
0000
,  // measure 17
0101
0000
0000
0000
0000
0000
0000
0000
0000
0000
0000
0000
1001
0000
0000
0000
0000
0000
0000
0000
0000
0000
0000
0000
1010
0000
0000
0000
0000
0000
0000
0000
0000
0000
0000
0000
1100
0000
0000
0000
0000
0000
0100
0000
0000
0000
0000
0000
1100
0000
0000
0000
0000
0000
0000
0000
0000
0000
0000
0000
1001
0000
0000
0000
0000
0000
0000
0000
0000
0000
0000
0000
0011
0000
0000
0000
0000
0000
0000
0000
0000
0000
0000
0000
0110
0000
0000
0000
0000
0000
0000
0000
0000
0000
0000
0000
1001
0000
0000
0000
0000
0000
0000
0000
0000
0000
0000
0000
0000
0000
0000
0000
1000
0000
0000
0000
0000
0000
0000
0000
0010
0000
0000
0000
0000
0000
0000
0000
0000
0000
0000
0000
0100
0000
0000
0000
0000
0000
0000
0000
0000
0000
0000
0000
0001
0000
0000
0000
0000
0000
0000
0000
0000
0000
0000
0000
0000
0000
0000
0000
0010
0000
0000
0000
0000
0000
0000
0000
1000
0000
0000
0000
0000
0000
0000
0000
0000
0000
0000
0000
0010
0000
0000
0000
0000
0000
0000
0000
0000
0000
0000
0000
,  // measure 18
0001
0000
0000
0000
0100
0000
1000
0000
0000
0100
0000
0000
0010
0000
0000
0000
0100
0000
0001
0000
0000
1000
0000
0000
0010
0000
0000
0000
0001
0000
0010
0000
0000
1000
0000
0000
0100
0000
0000
0000
0001
0000
0100
0000
0000
0010
0000
0000
,  // measure 19
0100
0000
0000
0000
1000
0000
0001
0000
0000
0000
0001
0000
0100
0000
0000
0000
0000
0000
0110
0000
0000
0000
0000
0000
1001
0000
0000
0000
0001
0000
0010
0000
0000
0100
0000
0000
1000
0000
0000
0000
0010
0000
0001
0000
0000
0010
0000
0000
,  // measure 20
1000
0000
0000
0000
0100
0000
0001
0000
0000
0100
0000
0000
0010
0000
0000
0000
0100
0000
1000
0000
0000
0001
0000
0000
0010
0000
0000
0000
1000
0000
0010
0000
0000
0001
0000
0000
0100
0000
0000
0000
1000
0000
0100
0000
0000
0010
0000
0000
,  // measure 21
0100
0000
0000
0000
0001
0000
1000
0000
0000
0000
1000
0000
0010
0000
0000
0000
0000
0000
0110
0000
0000
0000
0000
0000
0101
0000
0000
0000
0001
0000
0010
0000
0000
0100
0000
0000
0001
0000
0000
0000
0100
0000
0010
0000
0000
0001
0000
0000
,  // measure 22
0100
0000
0000
0000
0010
0000
0001
0000
0000
0010
0000
0000
1000
0000
0000
0000
0100
0000
0010
0000
0000
1000
0000
0000
0010
0000
0000
0000
0100
0000
1000
0000
0000
0010
0000
0000
0100
0000
0000
0000
1000
0000
0100
0000
0000
0010
0000
0000
,  // measure 23
1000
0000
0000
0000
0001
0000
1000
0000
0000
0000
1000
0000
0100
0000
0000
0000
0000
0000
0110
0000
0000
0000
0000
0000
1100
0000
0000
0000
1000
0000
0010
0000
0000
0100
0000
0000
1000
0000
0000
0000
0100
0000
0010
0000
0000
1000
0000
0000
,  // measure 24
0100
0000
0000
0000
0010
0000
1000
0000
0000
0010
0000
0000
0001
0000
0000
0000
0010
0000
0100
0000
0000
0001
0000
0000
0100
0000
0000
0000
0010
0000
0001
0000
0000
0100
0000
0000
0010
0000
0000
0000
0001
0000
0010
0000
0000
0100
0000
0000
,  // measure 25
0001
0000
0000
0000
0000
0000
0000
0000
0000
0000
0000
0000
0000
0000
0000
0000
1000
0000
0000
0000
0000
0000
0000
0000
0001
0000
0000
0000
0000
0000
0000
0000
0000
0000
0000
0000
0000
0000
0000
0000
0001
0000
0000
0000
0000
0000
0000
0000
1000
0000
0000
0000
0000
0000
0000
0000
0000
0000
0000
0000
0000
0000
0000
0000
0000
0000
0000
0000
0000
0000
0000
0000
0010
0000
0000
0000
0000
0000
0000
0000
0000
0000
0000
0000
0000
0000
0000
0000
0000
0000
0000
0000
0000
0000
0000
0000
1000
0000
0000
0000
0000
0000
0000
0000
0000
0000
0000
0000
0100
0000
0000
0000
0000
0000
0000
0000
0000
0000
0000
0000
0010
0000
0000
0000
0000
0000
0000
0000
0000
0000
0000
0000
0001
0000
0000
0000
0000
0000
0000
0000
0000
0000
0000
0000
0100
0000
0000
0000
0000
0000
0000
0000
0000
0000
0000
0000
0010
0000
0000
0000
0000
0000
0000
0000
0000
0000
0000
0000
1000
0000
0000
0000
0000
0000
0000
0000
0000
0000
0000
0000
0100
0000
0000
0000
0000
0000
00M0
0000
0000
0000
0000
0000
,  // measure 26
0100
0000
0001
0000
1000
0000
0010
0000
1000
0000
0100
0000
0001
0000
0100
0000
1000
0000
0010
0000
0100
0000
0001
0000
0010
0000
0100
0000
1000
0000
0010
0M00
,  // measure 27
0010
0000
0000
0001
0000
0000
0100
0000
0000
0001
0000
0000
1000
0000
0000
0010
0000
0000
0001
0000
0000
0010
0000
0000
2000
0000
0000
0000
0000
0000
0000
0000
0000
0000
0000
0000
3010
0100
0000
0000
0000
0000
0100
0001
0000
0000
0000
0000
,  // measure 28
0001
1000
0000
0000
0000
0000
0000
0000
0000
0000
0000
0000
1000
0100
0000
0000
0000
0000
0100
0001
0000
0000
0000
0000
0101
0000
0000
0000
0100
0000
0010
0000
0000
0000
0000
0000
0001
0000
0000
0000
0001
0000
0100
0000
0000
0000
0000
0000
,  // measure 29
0010
0000
0000
0000
0000
0000
0000
0000
0000
0000
0000
0000
0000
0000
0000
0000
1000
0000
0000
0000
0000
0000
0000
0000
0010
0000
0000
0000
0000
0000
0000
0000
0000
0000
0000
0000
0000
0000
0000
0000
1000
0000
0000
0000
0000
0000
0000
0000
0001
0000
0000
0000
0000
0000
0000
0000
0000
0000
0000
0000
0000
0000
0000
0000
0000
0000
0000
0000
0000
0000
0000
0000
0010
0000
0000
0000
0000
0000
0000
0000
0000
0000
0000
0000
0000
0000
0000
0000
0000
0000
0000
0000
0000
0000
0000
0000
0001
0000
0000
0000
0000
0000
0000
0000
0000
0000
0000
0000
0100
0000
0000
0000
0000
0000
0000
0000
0000
0000
0000
0000
0010
0000
0000
0000
0000
0000
0000
0000
0000
0000
0000
0000
1000
0000
0000
0000
0000
0000
0000
0000
0000
0000
0000
0000
0100
0000
0000
0000
0000
0000
0000
0000
0000
0000
0000
0000
0010
0000
0000
0000
0000
0000
0000
0000
0000
0000
0000
0000
0001
0000
0000
0000
0000
0000
0000
0000
0000
0000
0000
0000
0100
0000
0000
0000
0000
0000
00M0
0000
0000
0000
0000
0000
,  // measure 30
0100
0000
1000
0000
0001
0000
0010
0000
0001
0000
0100
0000
1000
0000
0100
0000
0001
0000
0010
0000
0100
0000
1000
0000
0010
0000
0100
0000
0001
0000
0010
0M00
,  // measure 31
0010
0000
0000
1000
0000
0000
0100
0000
0000
1000
0000
0000
0001
0000
0000
0010
0000
0000
1000
0000
0000
0010
0000
0000
0002
0000
0000
0000
0000
0000
0000
0000
0000
0000
0000
0000
0103
0010
0000
0000
0000
0000
0010
1000
0000
0000
0000
0000
,  // measure 32
1000
0001
0000
0000
0000
0000
0000
0000
0000
0000
0000
0000
0001
0100
0000
0000
0000
0000
0100
1000
0000
0000
0000
0000
1100
0000
0000
0000
0100
0000
0010
0000
0000
0000
0000
0000
1000
0000
0000
0000
1000
0000
0100
0000
0000
0000
0000
0000
,  // measure 33
0010
0000
0000
0000
0000
0000
0000
0000
0000
0000
0000
0000
0000
0000
0000
0000
0001
0000
0000
0000
0000
0000
0000
0000
0010
0000
0000
0000
0000
0000
0000
0000
0000
0000
0000
0000
0000
0000
0000
0000
0001
0000
0000
0000
0000
0000
0000
0000
1000
0000
0000
0000
0000
0000
0000
0000
0000
0000
0000
0000
0000
0000
0000
0000
0000
0000
0000
0000
0000
0000
0000
0000
0010
0000
0000
0000
0000
0000
0000
0000
0000
0000
0000
0000
0000
0000
0000
0000
0000
0000
0000
0000
0000
0000
0000
0000
0200
0000
0000
0000
0000
0000
0000
0000
0000
0000
0000
0000
0000
0000
0000
0000
0000
0000
0001
0000
0000
0000
0000
0000
0000
0000
0000
0000
0000
0000
0000
0000
0000
0000
0000
0000
0000
0000
0000
0000
0000
0000
0000
0000
0000
0000
0000
0000
0000
0000
0000
0000
0000
0000
0000
0000
0000
0000
0000
0000
0000
0000
0000
0000
0000
0000
0000
0000
0000
0000
0000
0000
0000
0000
0000
0000
0000
0000
0000
0000
0000
0000
0000
0000
0000
0000
0000
0000
0000
0000
0000
0000
0000
0000
0000
0000
,  // measure 34
0000
0000
0000
0000
0000
0000
0000
0000
0000
0000
0000
0000
0000
0000
0000
0000
0000
0000
0000
0000
0000
0000
0000
0000
0300
0000
0000
0000
0000
0000
0000
0000
0000
0000
0000
0000
0000
0000
0000
0000
0000
0000
0000
0000
0000
0000
0000
0000
0001
0000
0000
0000
0000
0000
0000
0000
0000
0000
0000
0000
1000
0000
0100
0000
0000
0000
0000
0000
0000
0000
0000
0000
0100
0000
0010
0000
0000
0000
0000
0000
0000
0000
0000
0000
0010
0000
0001
0000
0000
0000
0000
0000
0000
0000
0000
0000
0001
0000
1000
0000
0000
0000
0000
0000
0000
0000
0000
0000
0000
0000
0000
0000
0000
0000
0000
0000
0000
0000
0000
0000
0100
0000
0000
0000
0000
0000
0000
0000
0000
0000
0000
0000
1000
0000
0001
0000
0000
0000
0000
0000
0000
0000
0000
0000
0000
0000
0000
0000
0000
0000
0000
0000
0000
0000
0000
0000
1000
0000
0000
0000
0000
0000
0000
0000
0000
0000
0000
0000
0001
0000
0010
0000
0000
0000
0000
0000
0000
0000
0000
0000
0000
0000
0000
0000
0000
0000
0000
0000
0000
0000
0000
0000
,  // measure 35
0000
0000
0000
0000
0000
0000
0000
0000
0010
0000
0000
0000
0100
0000
0000
0000
0010
0000
0000
0000
0000
0000
0001
0000
0000
0000
0000
0000
1000
0000
0000
0000
2010
0000
0000
0000
0000
0000
0200
0000
0000
3000
0000
0000
0002
0000
0000
0300
0000
0000
0020
0000
0000
0003
0000
0000
0002
0000
0000
0030
0000
0000
0200
0000
,  // measure 36
0000
0003
0000
0000
1000
0000
0000
0300
0000
0000
2000
0000
0000
0000
0000
0000
0002
0000
0000
3000
0000
0000
0200
0000
0000
0003
0000
0000
2000
0000
0000
0300
0000
0000
0020
0000
0000
3000
0000
0000
2000
0000
0000
0030
0000
0000
0200
0000
0000
3000
0000
0000
0001
0000
0000
0300
0000
0000
0002
0000
0000
0000
0000
0000
,  // measure 37
2000
0000
0000
0003
0000
0000
0020
0000
0000
3000
0000
0000
0002
0000
0000
0030
0000
0000
0200
0000
0000
0003
0000
0000
0002
0000
0000
0300
0000
0000
0020
0000
0000
0003
0000
0000
1000
0000
0000
0030
0000
0000
1000
0000
0000
0000
0000
0000
0001
0000
0000
0000
0000
0000
0000
0000
0011
0000
0000
0000
0000
0000
0000
0000
,  // measure 38
1001
0000
0000
0000
0000
0000
0001
0000
0000
0000
0100
0000
0010
0000
0000
0000
0000
0000
0110
0000
0000
0000
0000
0000
0100
0000
0000
0000
0000
0000
000M
0000
0000
0010
0000
0000
0000
0000
0000
0000
0000
0000
1001
0000
0000
0000
0000
0000
,  // measure 39
1100
0000
0000
0000
0000
0000
0001
0000
0000
1000
0000
0000
0010
0000
0000
0000
0000
0000
1010
0000
0000
0000
0000
0000
0001
0000
0000
0000
0100
0000
M010
0000
0000
0000
0010
0000
0100
0000
0000
0000
0000
0000
0101
0000
0000
0000
0000
0000
,  // measure 40
1001
0000
0000
0000
0000
0000
1000
0000
0000
0000
0100
0000
1000
0000
0000
0000
0000
0000
1010
0000
0000
0000
0000
0000
1000
0000
0000
0000
0000
0000
010M
0000
0000
0010
0000
0000
0000
0000
0000
0000
0000
0000
1001
0000
0000
0000
0000
0000
,  // measure 41
0101
0000
0000
0000
0000
0000
1000
0000
0000
0001
0000
0000
0010
0000
0000
0000
0000
0000
0011
0000
0000
0000
0000
0000
0010
0000
0001
0000
0100
0000
0010
0000
1000
0000
0100
0000
1000
0000
0010
0000
0100
0000
0001
0000
0010
0000
0100
0000
,  // measure 42
1000
0000
0001
0000
1000
0000
0001
0000
1000
0000
0001
0000
1000
0000
0000
0010
0000
0000
0100
0000
0000
0001
0000
0000
0010
0000
0100
0000
0010
0000
0100
0000
0010
0000
0100
0000
0010
0000
0000
0001
0000
0000
1000
0000
0000
0010
0000
0000
,  // measure 43
1000
0000
0100
0000
1000
0000
0001
0000
1000
0000
0010
0000
0100
0000
0000
0001
0000
0000
1000
0000
0000
0001
0000
0000
1000
0000
0010
0000
1000
0000
0001
0000
1000
0000
0100
0000
0010
0000
0000
0100
0000
0000
1000
0000
0000
0001
0000
0000
,  // measure 44
0010
0000
0100
0000
0010
0000
0100
0000
0010
0000
0100
0000
0010
0000
0000
0001
0000
0000
1000
0000
0000
0100
0000
0000
1000
0000
0001
0000
1000
0000
0001
0000
1000
0000
0001
0000
1000
0000
0000
0010
0000
0000
1000
0000
0000
0001
0000
0000
,  // measure 45
0010
0000
0001
0000
0010
0000
0100
0000
0010
0000
0001
0000
1000
0000
0000
0001
0000
0000
1000
0000
0000
1000
0000
0000
0001
0000
0000
0010
0000
0000
1000
0000
0000
0010
0000
0000
0001
0000
0000
0000
0000
0000
1001
0000
0000
0000
0000
0000
,  // measure 46
0001
0000
1000
0000
0001
0000
1000
0000
0001
0000
1000
0000
0001
0000
0000
0010
0000
0000
0100
0000
0000
1000
0000
0000
0010
0000
0100
0000
0010
0000
0100
0000
0010
0000
0100
0000
0010
0000
0000
1000
0000
0000
0001
0000
0000
0010
0000
0000
,  // measure 47
0001
0000
0100
0000
0010
0000
1000
0000
0001
0000
0010
0000
0100
0000
0000
1000
0000
0000
0010
0000
0000
1000
0000
0000
0001
0000
0010
0000
0100
0000
1000
0000
0001
0000
0100
0000
0010
0000
0000
1000
0000
0000
0100
0000
0000
1000
0000
0000
,  // measure 48
0010
0000
0100
0000
0010
0000
0100
0000
0010
0000
0100
0000
0010
0000
0000
1000
0000
0000
0001
0000
0000
0010
0000
0000
0001
0000
1000
0000
0001
0000
1000
0000
0001
0000
1000
0000
0001
0000
0000
0100
0000
0000
0001
0000
0000
1000
0000
0000
,  // measure 49
0100
1000
0010
0100
0001
0010
0100
0010
0001
0100
0000
0001
1000
0000
1001
1000
,  // measure 50
0001
0000
0000
0010
0000
0000
0011
0000
0000
0001
0000
0000
0100
0000
0001
M010
0000
0000
0100
0000
1000
0010
0000
0000
,  // measure 51
1000
1010
1010
1001
0011
101M
0110
0010
,  // measure 52
0000
0000
0000
0000
0000
0000
0012
0000
0000
0000
0000
0000
0100
0000
0000
0000
0000
0000
1003
0000
0000
0000
0000
0000
1010
0000
0000
0000
1000
0000
0M01
0000
0000
0010
0000
0000
0001
0000
0000
0000
0001
0000
1000
0000
0000
0010
0000
0000
,  // measure 53
0100
0101
0101
1001
1100
0101
0210
0000
,  // measure 54
1300
0000
0010
1000
1100
0000
0100
0000
0010
0000
0001
0100
0110
0000
0100
0000
,  // measure 55
0001
0000
0010
0100
0011
0000
0001
0000
1000
0000
0010
0100
1010
0000
1000
0000
,  // measure 56
0001
0010
0100
1000
1010
0000
1000
0000
0010
1000
0100
0010
0011
0000
0001
0000
,  // measure 57
0100
0001
1000
0100
0110
0000
0010
0000
0001
0100
0000
0001
1000
0000
1100
0000
;
