#VERSION:0.81;
#TITLE:So Sorry;
#SUBTITLE:;
#ARTIST:Orange Caramel;
#TITLETRANSLIT:;
#SUBTITLETRANSLIT:;
#ARTISTTRANSLIT:;
#GENRE:;
#ORIGIN:;
#CREDIT:;
#BANNER:[Drop the Zero] - So Sorry.png;
#BACKGROUND:[Drop the Zero] - So Sorry-bg.png;
#PREVIEWVID:;
#JACKET:[Drop the Zero] - So Sorry-jacket.png;
#CDIMAGE:;
#DISCIMAGE:;
#LYRICSPATH:;
#CDTITLE:;
#MUSIC:[Drop the Zero] - So Sorry.ogg;
#OFFSET:-2.347;
#SAMPLESTART:53.832;
#SAMPLELENGTH:16.875;
#SELECTABLE:YES;
#BPMS:0.000=128.000,
176.000=64.000,
178.000=128.000;
#STOPS:;
#DELAYS:;
#WARPS:;
#TIMESIGNATURES:0.000=4=4,
176.000=2=4,
178.000=4=4;
#TICKCOUNTS:0.000=4;
#COMBOS:0.000=1;
#SPEEDS:0.000=1.000=0.000=0;
#SCROLLS:0.000=1.000;
#FAKES:;
#LABELS:0.000=Song Start;
#BGCHANGES:;
#KEYSOUNDS:;
#ATTACKS:
;

//---------------dance-single - ----------------
#NOTEDATA:;
#CHARTNAME:;
#STEPSTYPE:dance-single;
#DESCRIPTION:;
#CHARTSTYLE:;
#DIFFICULTY:Hard;
#METER:9;
#RADARVALUES:0.588,0.617,0.570,0.344,0.134,382.000,68.000,41.000,0.000,0.000,0.000,0.000,0.000,0.588,0.617,0.570,0.344,0.134,382.000,68.000,41.000,0.000,0.000,0.000,0.000,0.000;
#CREDIT:;
#NOTES:
// measure 0
0000
0000
0000
0000
,  // measure 1
0000
0000
0000
0000
,  // measure 2
0000
0000
0000
0000
,  // measure 3
0000
0000
0000
0000
,  // measure 4
0001
0100
1000
0100
0001
0010
1000
0010
,  // measure 5
0001
1000
0010
0100
0001
1000
1001
0000
,  // measure 6
0001
0010
0100
0010
0100
1000
0001
0100
,  // measure 7
0010
0000
0000
0000
0110
0000
0000
0000
1000
0001
1000
0001
1000
0000
1000
0000
,  // measure 8
0100
0010
0001
1000
0010
0010
0010
0000
,  // measure 9
1000
0010
1000
0001
0010
0010
0010
0000
,  // measure 10
0100
0010
0100
1000
0001
1000
0001
0100
,  // measure 11
0010
0000
0000
0000
0000
0000
0000
0000
0100
0010
0100
0010
0100
0000
0100
0000
,  // measure 12
0002
0010
2003
0100
3002
0100
2003
0010
,  // measure 13
3002
0010
0023
0100
0230
1000
2300
0001
,  // measure 14
3001
0100
0001
1000
0100
1000
0001
1000
,  // measure 15
0001
0100
0010
1000
0001
1000
1001
0000
,  // measure 16
2000
0010
3002
0010
2003
0100
3002
0100
,  // measure 17
2003
0100
3200
0010
0320
0001
0032
1000
,  // measure 18
1003
0010
0100
0010
1000
0001
0010
0100
,  // measure 19
0010
0001
0100
0010
1000
0001
1001
0000
,  // measure 20
1100
0000
0110
0010
0100
0010
0001
1000
,  // measure 21
0001
0100
0101
0110
,  // measure 22
1010
0000
1001
0001
0010
0001
1000
0010
,  // measure 23
1000
0010
0110
0101
,  // measure 24
1001
0000
1100
1000
0100
0010
0100
0010
,  // measure 25
0001
1000
1001
1010
,  // measure 26
0110
0000
1001
0000
1000
0100
0010
0001
,  // measure 27
2000
3001
2002
3003
,  // measure 28
2001
0000
0000
3100
0000
0000
2001
0000
0000
3100
0000
0000
2001
0000
0000
3100
,  // measure 29
0000
0000
2001
0000
0000
3100
0000
0000
1000
0001
0100
0010
1000
0000
0001
0000
,  // measure 30
1002
0000
0000
0103
0000
0000
1002
0000
0000
0103
0000
0000
1002
0000
0000
0103
,  // measure 31
0000
0000
1002
0000
0000
0103
0000
0000
0001
0010
0100
1000
0001
0000
1000
0000
,  // measure 32
0010
0000
0110
0100
0001
1000
0001
1000
,  // measure 33
0100
0010
0110
0011
,  // measure 34
1001
0000
1010
0010
0100
0000
0110
0100
,  // measure 35
0001
0100
0001
1000
0100
0001
1000
0010
,  // measure 36
0001
0100
1000
0100
0001
0010
1000
0010
,  // measure 37
0001
0000
0100
0000
0010
0000
1000
0000
0001
1000
0001
1000
0001
0000
0001
0000
,  // measure 38
1000
0100
0001
0100
1000
0010
0001
0010
,  // measure 39
1000
0000
0100
0000
0010
0000
0001
0000
1000
0001
1000
0001
1000
0000
1000
0000
,  // measure 40
0010
0100
0001
1000
0100
0100
1100
1100
,  // measure 41
1000
0100
0010
0100
0010
0001
1000
0010
,  // measure 42
0100
0001
0010
0200
0000
0310
0001
1000
,  // measure 43
0020
0000
0130
0001
2000
0000
3001
0000
,  // measure 44
1001
0000
0000
0000
1001
0000
0101
0001
,  // measure 45
0100
0010
0100
0010
1000
0000
0001
0000
,  // measure 46
1001
0000
0011
0000
0110
0000
1100
1000
,  // measure 47
0100
1000
0001
0100
0001
0000
0100
0000
,  // measure 48
0110
0000
1010
0000
1001
0000
0011
0010
,  // measure 49
0001
0010
0100
1000
0010
0000
1000
0000
,  // measure 50
1001
0101
1001
1100
,  // measure 51
1000
0001
0010
0100
2000
0000
3010
0000
,  // measure 52
0220
0000
0000
0000
0330
0000
0000
0000
2010
0000
0000
3001
0000
0000
2010
0000
,  // measure 53
0000
3001
0000
0000
2010
0000
0000
3001
0000
0000
2010
0000
0000
3001
0000
0000
,  // measure 54
0001
0100
0010
1000
0001
0000
0010
0000
0012
0000
0000
1003
0000
0000
0012
0000
,  // measure 55
0000
1003
0000
0000
0012
0000
0000
1003
0000
0000
0012
0000
0000
1003
0000
0000
,  // measure 56
1000
0100
0010
0001
1000
0000
0001
0000
1000
0000
0000
0000
1001
0000
1000
0000
,  // measure 57
0100
0010
0100
0010
0001
0000
1000
0000
,  // measure 58
1001
0000
1010
0000
0110
0000
0101
0100
,  // measure 59
0001
0000
0101
0001
1000
1000
1001
1001
,  // measure 60
0001
0010
1000
0001
0100
0000
1000
0000
,  // measure 61
0001
0001
0000
1001
0000
0000
0000
0000
;

//---------------dance-single - ----------------
#NOTEDATA:;
#CHARTNAME:;
#STEPSTYPE:dance-single;
#DESCRIPTION:;
#CHARTSTYLE:;
#DIFFICULTY:Medium;
#METER:6;
#RADARVALUES:0.378,0.355,0.134,0.335,0.067,260.000,16.000,40.000,0.000,0.000,0.000,0.000,0.000,0.378,0.355,0.134,0.335,0.067,260.000,16.000,40.000,0.000,0.000,0.000,0.000,0.000;
#CREDIT:;
#NOTES:
0000
0000
0000
0000
,
0000
0000
0000
0000
,
0000
0000
0000
0000
,
0000
0000
0000
0000
,
1000
0000
0010
0000
1000
0001
1000
0001
,
0010
0000
0001
0000
1000
0001
1000
0000
,
0100
0000
0010
0000
0100
0010
0100
0010
,
0001
0000
1000
0000
0010
0100
0010
0010
,
1000
0000
0001
0000
0010
0001
0010
0000
,
0100
0000
1000
0000
0010
1000
0010
0000
,
0100
0001
1000
0001
,
2002
0000
0000
3003
,
1000
0100
0010
0011
,
0001
1000
0010
1010
,
0010
0100
0001
0100
,
0001
0000
1000
0000
0100
0010
0001
0000
,
0100
0001
1000
1010
,
0010
1000
0001
1001
,
1000
0100
0010
0001
,
1000
0010
0100
0001
1000
0000
0001
0000
,
2002
0000
3003
0000
1000
0001
0010
0100
,
0020
0030
0100
1000
,
2002
0000
3003
0000
0001
0100
0010
0100
,
0020
0030
1000
0001
,
0022
0000
0033
0001
0010
0000
0001
0000
,
2002
3003
1000
0010
,
2020
0000
3030
0000
1000
0010
0100
0010
,
0200
0302
2000
3003
,
1000
0000
0000
0010
0000
0000
0001
0000
0000
0010
0000
0000
1000
0000
0000
0010
,
0000
0000
0001
0000
0000
0010
0000
0000
1000
0000
0001
0000
0010
0000
0100
0000
,
1000
0000
0000
0100
0000
0000
0001
0000
0000
0100
0000
0000
1000
0000
0000
0100
,
0000
0000
0001
0000
0000
0100
0000
0000
1000
0000
0001
0000
0100
0000
0010
0000
,
2000
3100
0200
0310
,
0020
0031
0001
1000
,
0010
0000
0000
0100
0010
0000
0000
0100
,
0001
0000
1000
0000
0001
0010
0100
0010
,
0100
0000
1000
0000
0010
1000
0010
0000
,
1000
0000
0001
0000
0010
0001
0010
0010
,
0100
0000
0010
0000
0100
0010
0100
0000
,
1000
0000
0001
0000
1000
0001
1000
1000
,
0010
0000
0100
0000
0001
0100
0001
1000
,
0001
1000
0100
0010
,
0002
0000
2003
0000
,
3010
0000
0100
0001
1000
0000
0001
0000
,
1001
0000
2002
3003
,
0001
0100
0010
0100
0020
0000
0030
0000
,
1000
0001
2002
3003
,
1000
0001
0010
0100
0020
0000
0030
0000
,
0100
0000
1000
0000
2200
0000
3300
0100
,
1000
0001
2002
3003
,
1000
0001
0202
0303
,
0001
0100
0010
1000
0002
0000
2003
0000
,
0002
0000
0000
0000
3003
0000
0000
0000
1000
0000
0000
0100
0000
0000
0001
0000
,
0000
0100
0000
0000
1000
0000
0000
0100
0000
0000
0001
0000
0000
0100
0000
0000
,
1000
0000
0001
0000
0100
0000
0010
0000
1000
0000
0000
0010
0000
0000
0001
0000
,
0000
0010
0000
0000
1000
0000
0000
0010
0000
0000
0001
0000
0000
0010
0000
0000
,
1000
0001
0010
0100
2000
0000
3010
0000
,
0020
0130
0200
0301
,
0001
0000
1000
0000
0001
0000
0000
1000
,
0001
0000
0000
1000
0001
0000
0010
0000
,
0100
0010
0100
1000
0001
0000
0000
0000
;

//---------------dance-single - ----------------
#NOTEDATA:;
#CHARTNAME:;
#STEPSTYPE:dance-single;
#DESCRIPTION:;
#CHARTSTYLE:;
#DIFFICULTY:Easy;
#METER:4;
#RADARVALUES:0.254,0.203,0.126,0.193,0.000,174.000,15.000,23.000,0.000,0.000,0.000,0.000,0.000,0.254,0.203,0.126,0.193,0.000,174.000,15.000,23.000,0.000,0.000,0.000,0.000,0.000;
#CREDIT:;
#NOTES:
0000
0000
0000
0000
,
0000
0000
0000
0000
,
0000
0000
0000
0000
,
0000
0000
0000
0000
,
1000
0010
0100
0010
,
0100
0001
2000
0000
,
3001
0010
0100
0010
,
0200
0000
1300
1000
,
0001
0100
0002
0000
,
1003
0010
2000
0000
,
3001
0000
1000
0000
,
2002
0000
0000
3003
,
0001
0010
0001
1000
,
0010
1000
0001
1000
,
0100
0100
0010
0010
,
0001
1000
0020
0000
,
0130
0001
1000
0001
,
1000
1000
0100
0100
,
0010
0100
1000
0001
,
0100
0010
0100
0000
,
0110
0000
0100
0010
,
1001
0000
1000
0001
,
1001
0000
1000
0100
,
0110
0000
0010
0100
,
0020
0000
0032
0000
,
2003
0000
3010
1000
,
1010
0000
0000
0010
,
0110
0000
1001
0000
,
0001
0010
0001
0100
,
0001
0010
0001
0001
,
1000
0010
1000
0001
,
1000
0100
1000
1000
,
0020
0000
0230
0000
,
0302
0000
1003
0001
,
1000
0000
0100
0000
,
0010
0010
0001
0001
,
1000
0000
0010
0010
,
0100
0000
0001
0100
,
0001
0000
1000
1000
,
0001
0000
0010
0100
,
1000
1000
0001
0001
,
1000
0010
0100
0001
,
2000
0000
3200
0000
,
0320
0000
0032
0000
,
1003
0000
1001
0000
,
0001
0010
0110
0000
,
0100
1000
1100
0000
,
1000
0001
0101
0000
,
0100
0010
2000
0000
,
3002
0000
0023
0000
,
0130
0000
1001
0000
,
0000
0001
1001
0000
,
0110
0000
1000
0010
,
0001
0010
1000
0001
,
1000
1000
0001
0010
,
1000
0010
0001
1000
,
0001
0001
0200
0000
,
0320
0000
2030
0000
,
3001
1000
0001
0000
,
0010
0000
0100
0100
,
1000
1000
0001
0000
;

//---------------dance-single - ----------------
#NOTEDATA:;
#CHARTNAME:;
#STEPSTYPE:dance-single;
#DESCRIPTION:;
#CHARTSTYLE:;
#DIFFICULTY:Beginner;
#METER:1;
#RADARVALUES:0.092,0.101,0.008,0.000,0.000,76.000,1.000,0.000,0.000,0.000,0.000,0.000,0.000,0.092,0.101,0.008,0.000,0.000,76.000,1.000,0.000,0.000,0.000,0.000,0.000,0.000;
#CREDIT:;
#NOTES:
0000
0000
0000
0000
,
0000
0000
0000
0000
,
0000
0000
0000
0000
,
0000
0000
0000
0000
,
1000
0000
0000
0000
,
0010
0000
0010
0000
,
0010
0000
0000
0000
,
0100
0000
0000
0000
,
0001
0000
0000
0000
,
1000
0000
0000
0000
,
0001
0000
0000
0000
,
0000
0000
0000
0000
,
0010
0000
0000
0000
,
0100
0000
0100
0000
,
0100
0000
0000
0000
,
1000
0000
0000
0000
,
0001
0000
0000
0000
,
0100
0000
0000
0000
,
0010
0000
0000
0000
,
0000
0000
0000
0000
,
1000
0000
0000
0000
,
0001
0000
0000
0000
,
0010
0000
0000
0000
,
0100
0000
0000
0000
,
0010
0000
0000
0000
,
0001
0000
0000
0000
,
1000
0000
0000
0000
,
0001
0000
1000
0000
,
0001
0000
0001
0000
,
0001
0000
0001
0000
,
1000
0000
1000
0000
,
1000
0000
1000
0000
,
0010
0000
0000
0000
,
0100
0000
0000
0000
,
0001
0000
0001
0000
,
1000
0000
1000
0000
,
0001
0000
0000
0000
,
0010
0000
0010
0000
,
0010
0000
0000
0000
,
0100
0000
0100
0000
,
0100
0000
0000
0000
,
1000
0000
0000
0000
,
0001
0000
0001
0000
,
1000
0000
1000
0000
,
0001
0000
1000
0000
,
0000
0000
0010
0000
,
0000
0000
1000
0000
,
0000
0000
0001
0000
,
0000
0000
0010
0000
,
0000
0000
0100
0000
,
0000
0000
1000
0000
,
0000
0000
0001
0000
,
1000
0000
0001
0000
,
0001
0000
0001
0000
,
0001
0000
1000
0000
,
1000
0000
1000
0000
,
1000
0000
0010
0000
,
0000
0000
0100
0000
,
0000
0000
0010
0000
,
0010
0000
0100
0000
,
0100
0000
1001
0000
;
