#TITLE:白露の風;
#SUBTITLE:;
#ARTIST:Qrispy Joybox feat. 常盤ゆう;
#TITLETRANSLIT:Shiratsuyu no kaze;
#SUBTITLETRANSLIT:;
#ARTISTTRANSLIT:Qrispy Joybox feat. Yuu Tokiwa;
#GENRE:;
#CREDIT:;
#MENUCOLOR:;
#METERTYPE:DDR;
#BANNER:[Drop the Zero] - Shiratsuyu no kaze.png;
#BACKGROUND:[Drop the Zero] - Shiratsuyu no kaze-bg.png;
#LYRICSPATH:;
#CDTITLE:./CDTITLES/BEATMANIA IIDX.PNG;
#MUSIC:[Drop the Zero] - Shiratsuyu no kaze.ogg;
#OFFSET:-1.446;
#SAMPLESTART:58.520;
#SAMPLELENGTH:15.000;
#SELECTABLE:YES;
#LISTSORT:;
#BPMS:0.000=166.000,64.000=83.000,71.000=166.000,135.000=83.000,141.000=166.000;
#STOPS:71.000=0.361446
,102.500=0.361446
,141.000=1.084337
,172.000=0.361446
,203.000=0.361446
,234.000=0.361446
,265.000=0.361446
,288.000=0.361446
;
#BGCHANGES:;
#ATTACKS:;

//---------------dance-single - ----------------
#NOTES:
     dance-single:
     :
     Beginner:
     1:
     0.115,0.123,0.017,0.000,0.000:
0000
0000
0000
0000
,
0000
0000
0000
0000
,
0000
0000
0000
0000
,
0000
0000
0000
0000
,
0001
0000
0000
0000
,
1000
0000
0000
0000
,
0010
0000
0000
0000
,
0100
0000
0000
0000
,
0000
0010
0000
0010
,
0010
0000
0000
0000
,
0000
0100
0000
0100
,
0100
0000
0000
0000
,
0000
0001
0000
0001
,
0001
0000
0000
0000
,
0000
1000
0000
1000
,
1000
0000
0000
0000
,
0010
0000
0000
0000
,
0100
0000
0000
0000
,
0000
0000
0001
0000
,
0000
0000
0001
0000
,
0000
0000
1000
0000
,
0000
0000
1000
0000
,
0000
0000
0010
0000
,
0000
0000
0010
0000
,
0100
0000
0100
0000
,
0100
0000
0100
0000
,
0000
0001
0000
0000
,
0000
0001
0000
0000
,
0000
1000
0000
0000
,
0000
1000
0000
0000
,
0000
0010
0000
0000
,
0000
0010
0000
0100
,
0000
0100
0000
0100
,
0000
0000
0000
1001
,
0000
0000
0000
0001
,
0000
0000
0000
1000
,
0000
1000
1000
0000
,
0000
0000
0000
0010
,
0000
0010
0010
0000
,
0000
0000
0000
0100
,
0000
0100
0000
0100
,
0000
0000
0000
0001
,
0000
0001
0001
0000
,
0000
0000
1000
0000
,
0001
0000
1000
0000
,
0000
0000
0001
0000
,
1000
0000
0001
0000
,
0000
0000
0100
0000
,
0010
0000
0100
0000
,
0000
0000
0010
0000
,
0100
0000
0010
0000
,
0000
0001
0000
0000
,
1000
0000
0000
0000
,
0000
1000
0000
0001
,
0000
0000
0000
0000
,
0010
0000
0010
0000
,
0010
0000
0010
0000
,
0010
0000
0000
0000
,
0100
0000
0000
0000
,
0001
0000
1000
1000
,
0000
0000
0000
0000
,
1000
0000
0001
0001
,
0000
0000
0000
0100
,
0000
0010
0000
0100
,
0000
0010
0000
0100
,
0000
0000
0000
0001
,
0000
0000
1000
0000
,
0000
0000
0001
0000
,
0000
0000
0010
0000
,
0000
0000
0100
0000
,
0000
0000
1001
0000
,
0000
0000
1000
0000
,
0000
0000
0000
0001
,
0000
1000
1000
1000
;

//---------------dance-single - ----------------
#NOTES:
     dance-single:
     :
     Easy:
     4:
     0.282,0.337,0.233,0.083,0.000:
0000
0000
0000
0000
,
0000
0000
0000
0000
,
0000
0000
0000
0000
,
0000
0000
0000
0000
,
0020
0000
0000
0030
,
0200
0000
0000
0300
,
0002
0000
1003
0001
,
2000
0000
0002
3003
,
0110
0000
0000
0000
,
1001
0000
1000
0001
,
1001
0000
0000
0000
,
0110
0000
0010
0100
,
0110
0000
0000
0000
,
1010
0000
0001
0100
,
0101
0000
0000
0000
,
1001
0000
1000
0100
,
2100
0000
0000
3001
,
0102
0000
0000
1003
,
0010
0000
0100
0000
,
0010
0010
0100
0010
,
1000
0000
0001
0000
,
1000
1000
0001
1000
,
0100
0000
0010
0000
,
0100
0100
0010
0100
,
1000
0000
0001
0000
,
0100
0000
0110
1000
,
0000
0001
0000
1000
,
0001
0100
0100
0010
,
0000
0100
0000
0001
,
0010
0100
0100
1000
,
0000
0100
0000
1000
,
0100
0010
0010
0001
,
0000
1000
0000
0001
,
0000
0100
0000
0220
,
0000
0000
0330
2000
,
0000
3000
0001
1000
,
0001
1000
0010
0010
,
0010
0000
1000
0001
,
1000
0001
0100
0100
,
0100
0000
0001
1001
,
1000
1001
0001
1001
,
1000
1001
0010
0000
,
0010
0000
0100
0100
,
0100
0000
0010
0010
,
1000
1000
0001
0001
,
0100
0100
0001
0001
,
0010
0010
0100
0100
,
0000
0000
1000
1000
,
0100
0100
0010
0010
,
0001
0001
0000
1000
,
0000
0001
0000
1001
,
0000
0010
0000
0010
,
0010
0100
0100
0100
,
0000
0001
0000
1000
,
1000
0001
0001
0000
,
0010
0110
0100
0110
,
0010
0110
0100
0110
,
0010
0010
1000
1000
,
0001
0001
1000
0000
,
0001
0010
0100
0100
,
1000
0100
0000
0000
,
1000
0010
0100
0100
,
0001
1000
0000
0001
,
1001
0010
0110
1000
,
1001
0100
0110
0001
,
0001
1000
0010
0100
,
0100
0010
1000
0000
,
1000
0000
0100
0100
,
1000
0000
0001
0000
,
0001
0000
0100
0100
,
0001
0100
0010
0000
,
0010
0000
0100
0100
,
0010
1000
0000
0001
,
0000
1001
1001
1001
;

//---------------dance-single - ----------------
#NOTES:
     dance-single:
     :
     Medium:
     5:
     0.384,0.430,0.291,0.108,0.000:
0000
0000
0000
0000
,
0000
0000
0000
0000
,
0000
0000
0000
0000
,
0000
0000
0000
0000
,
0020
0000
0000
0030
,
0200
0000
0000
0300
,
0002
0000
1003
0001
,
2000
0000
0002
3003
,
0100
0100
0100
0100
,
0110
0000
0001
1000
,
1001
1000
1000
1000
,
1001
0000
1000
0001
,
0110
0100
0100
0100
,
0110
0000
0100
0110
,
1001
0000
1100
0000
,
0001
1000
0010
0100
,
0002
0000
0000
0000
2000
0000
3003
1000
,
2000
0000
0002
3003
,
0100
0100
0010
0100
,
0100
0000
0001
0100
0001
0000
1000
0000
,
0001
0001
1000
0001
,
1000
0000
0100
1000
0100
0000
0010
0000
,
0100
0100
1000
0001
,
1000
0000
0010
1000
0001
0000
1000
0000
,
0110
0000
1001
0000
,
1100
0000
0101
0010
,
0010
0100
0001
1000
,
0001
0010
0100
0000
1000
0000
0100
0000
,
0100
1000
0010
0100
,
0001
1000
0010
0000
0100
0000
0010
0000
,
0010
1000
0001
0010
,
0001
0100
0001
0000
1000
0000
0110
0000
,
0001
0110
1000
0200
,
0000
0320
0000
0032
,
0000
0000
0003
2000
,
0000
0000
3000
0000
0010
0000
0010
1000
,
0000
0000
0010
0000
0100
0000
0100
0001
,
0100
0000
0001
0000
1000
0000
1000
0001
,
0000
0000
1000
0000
0100
0000
1000
0100
,
1000
0010
0110
0001
,
0110
1000
0110
0001
,
0110
0000
0100
0000
1000
0000
0001
0100
,
0000
0000
0010
0000
0100
0000
0100
0001
,
1000
0000
0000
0001
0010
0000
0010
0000
,
0100
1000
0000
1000
0010
0000
0010
0000
,
0100
0001
0000
0001
1000
0000
1000
0000
,
0001
0010
0100
0000
0100
0010
0100
0000
,
0100
0000
0010
0010
,
0001
1000
0001
0000
1000
0000
1000
0000
,
0010
1000
0100
0000
0010
0000
0001
1000
,
0100
0010
0100
0110
,
1100
0000
0001
0000
0000
1000
0001
0000
,
0100
0000
0100
0001
1000
0000
0010
0000
,
0000
1000
0100
0000
0000
0000
1000
0000
,
0001
0000
0010
0001
1000
0000
0000
0000
,
1001
0100
1001
0010
,
1001
0100
1001
0001
,
1000
1000
0001
0001
,
1000
0001
1000
0001
0010
0000
0000
0001
,
0010
0100
0000
0100
1000
0000
1000
0001
,
1000
0000
0010
0000
0000
1000
0100
0010
,
0000
0100
1000
0000
0001
1000
0001
0000
,
0100
0110
0001
1001
,
0100
0110
1000
1001
,
0110
1001
0110
1000
,
1000
0000
0001
0000
0001
0000
1000
0100
,
1000
0000
0001
0000
0100
0100
0000
0000
,
0010
0000
0000
0000
1000
0001
1000
0000
,
0001
0000
0000
0000
1000
1000
0000
0000
,
0001
0000
0000
0000
0100
0010
0100
0000
,
0010
0000
0100
0000
0110
0100
0000
0000
,
0010
1000
0000
0000
0001
1000
0001
0000
,
1000
0000
0001
0001
0000
0000
1000
0100
,
0000
0110
0110
1001
;

//---------------dance-single - ----------------
#NOTES:
     dance-single:
     :
     Hard:
     7:
     0.485,0.522,0.341,0.141,0.000: // measure 1
0000
0000
0000
0000
,  // measure 2
0000
0000
0000
0000
,  // measure 3
0000
0000
0000
0000
,  // measure 4
0000
0000
0000
0000
,  // measure 5
0020
0000
0000
0030
,  // measure 6
0200
0000
0000
0300
,  // measure 7
0002
0000
1003
0001
,  // measure 8
2000
0000
0002
3003
,  // measure 9
1001
0010
0010
0010
,  // measure 10
0110
0000
0001
1001
,  // measure 11
1100
1000
1000
1000
,  // measure 12
1010
0000
0110
1001
,  // measure 13
0110
0001
0001
0001
,  // measure 14
0011
0000
0010
0110
,  // measure 15
1001
0000
0110
0000
,  // measure 16
1001
1100
1001
0101
,  // measure 17
2000
0000
0000
0000
0020
0000
3030
0001
,  // measure 18
0002
0000
0200
0303
,  // measure 19
0001
0000
1000
0100
1000
0000
0001
0000
,  // measure 20
1000
0100
1000
0100
1000
0000
0001
0000
,  // measure 21
1000
0000
0001
0010
0001
0000
1000
0000
,  // measure 22
0001
0010
0001
0010
0001
0000
1000
0000
,  // measure 23
0010
0000
0100
0010
0100
0000
0001
0000
,  // measure 24
0100
0010
0100
0010
0100
0000
0001
0000
,  // measure 25
1001
0000
0110
0000
,  // measure 26
1100
0000
0101
0010
,  // measure 27
0010
1000
0010
0000
1100
0000
0001
0010
,  // measure 28
0100
1000
0001
0000
1000
0000
0100
0000
,  // measure 29
0100
1000
0100
0000
1100
0000
1000
0100
,  // measure 30
0010
0001
0100
0000
0010
0000
0100
0000
,  // measure 31
0010
1000
0001
0000
1000
0000
0001
0010
,  // measure 32
0100
1000
0001
0000
1000
0000
0110
0000
,  // measure 33
0001
0110
1000
0100
,  // measure 34
0000
0010
0000
2001
,  // measure 35
0000
0000
0000
3020
,  // measure 36
0000
0000
0030
0000
0100
0000
0001
0100
,  // measure 37
0000
0001
0010
0000
0100
0010
0010
0010
,  // measure 38
0001
1000
0001
0000
1000
0000
0100
1000
,  // measure 39
0000
0001
0100
0000
0010
0100
0100
0100
,  // measure 40
0001
0000
1000
0001
0100
0000
1001
0000
,  // measure 41
0010
1001
1000
1001
,  // measure 42
0001
0000
0100
0000
0001
0000
0010
0001
,  // measure 43
0000
1000
0100
0000
1000
1000
1000
1000
,  // measure 44
0020
0000
1030
0010
0010
0010
0100
0001
,  // measure 45
0001
0001
0000
0001
0010
0010
0100
0100
,  // measure 46
0100
1000
0000
0001
1000
1000
1000
0001
,  // measure 47
0001
0100
0010
0000
0010
0000
0100
0000
,  // measure 48
0100
0000
0001
0010
0001
0000
1000
0010
,  // measure 49
1000
0000
0001
0100
0001
0000
1000
0100
,  // measure 50
1000
0110
0001
0110
,  // measure 51
1000
0000
0001
1000
0100
0000
1002
0000
,  // measure 52
0013
0001
1000
0010
0000
1000
0000
0010
,  // measure 53
0100
0001
0001
0001
1000
0100
1000
0000
,  // measure 54
0010
1000
0001
0010
0000
0100
1000
0001
,  // measure 55
0100
0100
0010
0100
0001
0000
1000
0000
,  // measure 56
0110
0001
0110
1000
,  // measure 57
0001
1000
0100
1000
0001
0000
1000
0000
,  // measure 58
0001
0010
0100
1000
0001
0010
0100
1000
,  // measure 59
0001
0010
0010
0010
0210
0000
0301
0100
,  // measure 60
1000
0100
0000
1000
0010
1000
0100
1000
,  // measure 61
0001
0010
0100
0000
0110
0000
1000
0100
,  // measure 62
0001
0100
0000
1000
0001
1000
0100
0010
,  // measure 63
0001
0100
1000
0000
0100
0000
0101
0000
,  // measure 64
1000
0000
1100
0000
0001
0000
1000
0100
,  // measure 65
0010
0001
1000
0010
0001
0010
1000
0100
,  // measure 66
1000
0100
0001
0100
0001
0100
1000
0010
,  // measure 67
0020
0000
0130
0000
0010
1000
0010
0000
,  // measure 68
0100
0001
0100
0000
0001
0010
0100
1000
,  // measure 69
0001
0000
0100
0000
0001
0010
0001
0000
,  // measure 70
1000
0100
1000
0000
0100
1000
0001
0100
,  // measure 71
0020
0000
0130
0000
0110
0001
0100
0000
,  // measure 72
0010
1000
0100
0000
1000
0100
0010
0001
,  // measure 73
2000
0000
3001
1000
0001
0000
1000
0001
,  // measure 74
1000
0000
0110
0001
0110
1000
0110
0000
;

//---------------dance-single - ----------------
#NOTES:
     dance-single:
     :
     Challenge:
     9:
     0.698,0.890,0.491,0.166,0.241: // measure 1
0000
0000
0000
0000
,  // measure 2
0000
0000
0000
0000
,  // measure 3
0000
0000
0000
0000
,  // measure 4
0000
0000
0000
0000
,  // measure 5
0120
0000
0000
1030
,  // measure 6
1002
0203
0320
2030
,  // measure 7
3100
0000
0000
1100
0000
0000
1001
0000
0000
0001
0010
0100
,  // measure 8
2000
0000
0002
3003
,  // measure 9
1010
0001
0100
0001
0010
0100
0010
0001
,  // measure 10
1100
0001
0010
0100
0011
0000
1100
0000
,  // measure 11
0101
0010
1000
0010
0100
0001
1000
0001
,  // measure 12
0110
0000
1000
0100
0011
0000
1001
0000
,  // measure 13
0110
0001
0100
1000
0100
0001
0010
1000
,  // measure 14
0011
1000
0100
0001
1100
0000
0101
0000
,  // measure 15
1010
0001
0100
0001
1100
0001
0010
0100
,  // measure 16
0110
0000
0000
0000
1001
0000
0000
0000
0110
0000
0000
0000
0010
1000
0010
1000
,  // measure 17
0001
0001
0001
0001
1000
1000
1000
0000
0100
0100
0100
0100
0010
0000
0110
0000
,  // measure 18
1001
0001
0001
0001
1000
1000
1000
0000
0010
0010
0010
0010
0200
0000
0000
0000
,  // measure 19
0310
0000
0000
0000
1000
0000
0100
0010
0001
0000
0000
0000
1000
0000
0100
0000
,  // measure 20
0001
0000
0100
0000
1000
0000
0010
0100
0010
0000
0100
0000
1010
0000
0000
0000
,  // measure 21
0101
0000
0000
0000
1000
0000
0001
1000
0100
0000
0000
0000
1000
0000
0001
0000
,  // measure 22
0010
0000
1000
0000
0010
0000
0001
1000
0100
0000
0010
0000
0110
0000
0000
0000
,  // measure 23
1001
0000
0000
0000
0001
0000
0100
0001
1000
0000
0000
0000
0010
0000
1000
0000
,  // measure 24
0100
0000
1000
0000
0010
0000
0100
0001
0100
0000
0010
0000
0101
0000
0000
0000
,  // measure 25
1001
0000
0000
0000
0001
0000
0100
0000
0000
0001
0000
0000
1010
0000
0000
0000
1000
0000
0100
0000
0000
1000
0000
0000
,  // measure 26
0011
0000
0000
0000
0000
0000
0000
0000
0100
0000
0000
0000
1000
0000
0000
0000
0000
0000
0001
0000
0000
0100
0000
0000
0010
0000
0000
0000
0000
0000
0100
0000
0000
0000
0000
0000
1001
0000
0000
0000
0000
0000
0000
0000
0000
0000
0000
0000
,  // measure 27
0001
0000
0100
0010
1000
0000
0000
0000
0010
0000
0100
0000
0001
0000
0100
0000
,  // measure 28
1000
0000
0100
0001
1000
0000
0000
0000
0110
0000
0000
0000
1100
0000
0000
0000
,  // measure 29
0001
0000
1000
0001
0100
0000
0000
0000
0010
0000
1000
0000
0100
0000
0001
0000
,  // measure 30
0100
0000
1000
0001
0010
0000
0001
0000
0100
0000
0000
0000
1001
0000
0000
0000
,  // measure 31
0001
0010
0100
0000
0010
0001
0100
1000
,  // measure 32
0100
0000
0001
1000
0010
0000
0000
0000
0110
0000
0000
0000
1001
0000
0000
0000
,  // measure 33
0100
1001
0010
0110
,  // measure 34
0000
0000
0100
0010
0100
0000
0010
0000
0100
0000
0100
0000
0002
0000
1000
0000
,  // measure 35
0010
0000
0000
0103
0000
0000
2000
0000
0000
0001
0000
0000
0010
0000
0000
3100
0000
0000
0001
0010
0001
1000
0100
1000
,  // measure 36
0001
0000
0100
0000
0001
0000
1000
0000
0010
0000
1000
0000
0002
0000
0000
0000
0000
0000
0000
0000
0000
0000
0000
0000
1003
0000
0000
0000
0000
0000
0100
0000
0000
1000
0000
0000
0000
0000
0000
0000
0000
0000
0100
0000
0000
0000
0000
0000
,  // measure 37
0000
1000
0100
0010
0001
0001
0001
0001
,  // measure 38
1000
0000
0010
0000
1000
0000
0000
0000
0001
0000
0100
0001
0000
0000
0100
0000
,  // measure 39
0000
0010
0100
0001
1000
1000
1000
0001
,  // measure 40
1000
0000
0001
0100
0110
0000
1000
0100
,  // measure 41
0011
0000
0001
0100
1010
0100
0001
1000
,  // measure 42
1001
0000
0000
0000
0010
0000
0000
0000
1000
0000
0001
1000
0000
0000
0001
0000
,  // measure 43
0000
1000
0010
0001
0010
1000
1000
1000
,  // measure 44
0200
0000
0000
0000
0000
0000
1300
0010
1000
0000
0001
0000
0100
0000
0001
0000
,  // measure 45
0001
0000
1000
0000
0000
0000
0001
0010
0001
0000
1000
0000
1000
0000
0100
0000
,  // measure 46
0100
0000
1000
0000
0000
0000
0010
1000
0010
0000
0100
0000
0100
0000
0001
0000
,  // measure 47
1000
0000
0001
0000
0010
0001
0010
0001
1000
0100
1000
0100
2000
0000
0000
0000
,  // measure 48
3001
0000
1001
0100
0010
1000
0010
0001
,  // measure 49
0010
1000
0100
0001
0100
1000
0100
0010
,  // measure 50
0100
1000
0020
0000
0130
0000
0002
0000
,  // measure 51
1003
0000
0001
0010
0100
1000
0002
0000
,  // measure 52
0000
0000
1003
0100
1000
0000
0001
0000
0000
0000
1000
0000
1000
0000
0001
0000
,  // measure 53
1000
0010
0010
0010
0100
0001
1000
0001
,  // measure 54
1000
0000
0001
0010
0001
0000
1000
0000
0000
0000
0001
0000
0001
0000
1000
0000
,  // measure 55
0001
0100
0100
0010
2000
0000
3001
0000
,  // measure 56
0110
0000
0001
0100
1010
0000
1000
0100
,  // measure 57
0011
0100
1000
0010
0101
0010
1000
0001
,  // measure 58
1000
0000
0001
0000
0001
0000
0001
0000
1000
0000
0001
1000
0001
0000
1000
0100
,  // measure 59
1000
0010
1000
0010
1000
0001
1000
0001
2000
0000
0000
0000
0000
0000
3001
0010
,  // measure 60
0100
0010
0000
0001
0001
1000
0001
0010
,  // measure 61
0010
0000
0100
0000
1000
0000
0010
0000
0100
0000
0010
0000
1000
0000
0010
1000
,  // measure 62
0001
1000
0000
0100
0100
0010
0100
1000
,  // measure 63
0010
0100
0001
1000
0001
0010
1100
0000
,  // measure 64
0010
0001
0110
0000
0010
1000
0110
0001
,  // measure 65
0100
1000
0011
1000
0100
0001
1100
0100
,  // measure 66
0010
0100
1000
0001
0100
0010
1000
0001
,  // measure 67
0100
0010
0200
0000
0310
0010
0010
0000
,  // measure 68
1000
1000
1000
0000
0001
0100
1000
0100
,  // measure 69
0001
0000
1100
0000
0010
1000
0100
1000
,  // measure 70
0010
0001
0100
0001
1000
0010
0001
0100
,  // measure 71
1000
0000
0110
0000
1001
0001
0001
0000
,  // measure 72
1000
1000
1000
0000
0010
0100
0001
1000
,  // measure 73
0002
0000
1003
1000
1000
0000
0100
0100
,  // measure 74
0100
0000
0110
0001
0110
1000
1001
0000
;
