#TITLE:Second Heaven;
#SUBTITLE:(Risk Junk Remix);
#ARTIST:Ryu☆;
#TITLETRANSLIT:;
#SUBTITLETRANSLIT:;
#ARTISTTRANSLIT:;
#GENRE:;
#CREDIT:JunkoXXX;
#BANNER:Secon Heaven-bn.png;
#BACKGROUND:Secon Heaven-bg.png;
#LYRICSPATH:;
#CDTITLE:cdtitle.png;
#MUSIC:Ryu_ - Second Heaven (Risk Junk Remix).ogg;
#OFFSET:-0.149000;
#SAMPLESTART:80.141998;
#SAMPLELENGTH:29.999001;
#SELECTABLE:YES;
#DISPLAYBPM:183.000000;
#BPMS:0.000000=183.000000
;
#STOPS:
;
#BGCHANGES:;
#KEYSOUNDS:;
#ATTACKS:;

//---------------dance-single - ----------------
#NOTES:
     dance-single:
     :
     Easy:
     7:
     0.409294,0.609278,0.007253,0.166826,0.000000,371.000000,1.000000,23.000000,0.000000,0.000000,0.000000,0.409294,0.609278,0.007253,0.166826,0.000000,371.000000,1.000000,23.000000,0.000000,0.000000,0.000000:
0000
0000
0000
0000
,
1000
0000
0100
0000
,
0010
0000
0001
0000
,
0100
0000
0010
0000
,
1000
0000
0010
0000
,
0100
0000
0001
0000
,
0100
0000
0010
0000
,
1000
0000
0010
0000
,
0100
0000
0001
0000
,
1000
0100
0001
0100
,
1000
0100
0010
0001
,
0010
0100
0010
0100
,
0001
0010
0100
1000
,
0100
0100
0000
0000
0000
0000
0000
0000
,
0001
0001
0000
0000
0000
0000
0000
0000
,
0010
0100
0010
0001
,
0100
0010
0001
0010
0002
0023
0230
0300
,
1000
0100
0010
0001
,
0010
0100
0010
0100
,
1000
0100
0010
0100
,
0001
0100
0001
0010
,
0100
1000
0010
0100
,
0010
0001
0010
0001
,
0010
0100
1000
0100
,
1000
0100
1000
0100
,
0010
0100
0010
0001
,
0010
0001
0010
0100
,
1000
0010
0100
0010
,
1000
0100
1000
0001
,
0100
0100
0000
0000
0000
0000
0000
0000
,
1000
1000
0000
0000
0000
0000
0000
0000
,
0001
1000
0100
0010
,
0001
0010
0100
0010
0200
0320
0230
0300
,
2002
0000
0000
0000
0000
3000
0000
0000
,
1003
0100
0010
0001
,
1000
0000
0100
0000
,
0010
0000
0001
0000
,
0100
0000
0010
0000
,
0100
0000
0010
0000
,
0001
0000
0010
0000
,
0100
0000
1000
0000
,
0100
0000
1000
0000
,
0100
0000
1000
0000
,
0100
0000
0010
0000
,
0100
0000
0010
0000
,
0100
0000
0001
0000
,
0010
0000
0001
0000
,
0010
0000
0100
0000
,
1000
0000
0010
0000
,
0100
0000
0001
0000
,
0100
0000
0010
0000
,
1000
0100
0010
0001
,
0100
0010
0100
1000
,
0010
0100
0010
1000
,
0100
1000
0001
0010
,
1000
0001
1000
0001
1000
0001
1000
0001
,
1000
0001
0010
0100
1000
0100
1000
0100
,
2000
3000
0000
0000
0020
0030
0000
0000
,
0002
0003
0200
0300
2000
3000
0200
0000
,
0302
0023
0230
2300
0000
0000
0000
0000
,
3100
0100
0200
0000
0320
0000
0230
0000
,
0310
0010
0010
0001
,
0001
0001
0010
0010
,
0010
0100
0100
0100
,
1000
1000
1000
0010
,
1000
0010
1000
0010
,
0100
0010
0100
0010
,
0100
0010
0100
1000
,
0100
0000
0010
0000
0001
0000
0001
1000
,
0001
0010
0010
0010
,
0001
0001
0001
0010
,
0010
0010
0100
0100
,
0100
1000
1000
1000
,
0010
1000
0010
1000
,
0010
0100
0010
0100
,
0020
0030
0020
0030
,
1000
0100
0010
0001
,
0010
0010
0010
0001
,
0001
0001
0010
0010
,
0010
0100
0100
0100
,
1000
1000
1000
0010
,
1000
0010
1000
0010
,
0100
0010
0100
0010
,
0100
0010
0100
1000
,
0100
0000
0010
0000
0001
0000
0001
1000
,
0001
1000
1000
1000
,
0100
0100
0100
0010
,
0010
0010
0001
0001
,
0001
0010
0010
0010
,
0100
0100
0100
1000
,
1000
1000
0001
1000
,
0001
1000
0001
0010
,
0100
1000
0100
1000
,
0100
0010
0100
0010
,
0100
1000
0100
1000
,
0100
0010
0100
0010
,
0100
0010
0001
0010
,
0001
0010
0001
0010
,
0100
0010
0100
0010
,
0100
1000
0100
1000
,
0001
1000
0001
1000
,
0001
0010
0100
1000
,
0100
0010
0001
0010
,
0100
0010
0100
0010
,
0100
1000
0010
0100
,
0010
0000
0000
0000
;

//---------------dance-single - ----------------
#NOTES:
     dance-single:
     :
     Medium:
     9:
     0.627930,0.685438,0.007253,0.311893,0.058027,562.000000,1.000000,43.000000,0.000000,0.000000,0.000000,0.627930,0.685438,0.007253,0.311893,0.058027,562.000000,1.000000,43.000000,0.000000,0.000000,0.000000:
0000
0000
0000
0000
,
1000
0010
1000
0010
,
1000
0010
1000
0010
,
1000
0010
0001
0010
,
0001
0010
0001
0010
,
0001
0010
0100
1000
,
0100
1000
0100
1000
,
0100
1000
0100
0010
,
0100
0010
0100
0010
,
0100
0010
0001
0010
,
0100
1000
0010
0100
,
0010
1000
0100
1000
,
0010
0100
0010
0100
,
1000
0100
0000
0000
0000
0000
0000
0000
,
0001
1000
0000
0000
0000
0000
0000
0000
,
1000
0001
1000
0001
1000
0001
1000
0001
,
1000
0001
1000
0001
1000
0001
1000
0001
1000
0000
0200
0000
0320
0000
0032
0000
,
0003
1000
0100
0010
,
0100
0000
0001
0000
0100
0100
0100
0000
,
1000
0010
0100
0010
,
1000
0000
0100
0000
1000
1000
1000
0000
,
0100
0010
0001
0100
,
0001
0000
0010
0000
0100
0100
0100
0000
,
0010
0001
0100
1000
,
0100
0000
1000
0000
0001
1000
0001
0000
,
1000
0100
0010
0001
0010
0100
0010
0100
,
0010
0001
0010
0001
0010
0100
1000
0100
,
0010
0001
0010
0100
0010
1000
0001
1000
,
0001
0010
0100
1000
0010
0100
0010
0100
,
1000
0100
1000
0010
0100
0010
0001
0010
,
0100
1000
0010
0100
0010
0001
0010
0100
,
1000
0100
1000
0100
0010
0100
0010
0001
,
0010
0100
0010
0100
0010
0100
0010
0100
0020
0000
0230
0000
2300
0000
3000
0000
,
0200
0000
0000
0000
,
0310
0100
1000
0100
,
1000
0000
0100
0010
0001
0000
0010
0100
,
0000
0100
0000
0001
0100
0010
0100
0010
,
0100
1000
0100
0010
0000
0100
0001
0100
,
0001
0000
0000
0000
,
1000
0000
0100
0010
0001
0000
0010
0100
,
0000
0100
0000
0001
0100
0010
0100
0010
,
0100
1000
0100
0010
0000
0100
0001
0100
,
0000
0000
0000
0000
,
1000
0000
0100
0010
0001
0000
0010
0100
,
0000
0100
0000
0001
0100
0010
0100
0010
,
0100
1000
0100
0010
0000
0000
0001
0100
,
1000
0000
0000
0000
,
1000
0000
0100
0010
0001
0000
0010
0100
,
0000
0100
0000
0001
0100
0010
0100
0010
,
0100
1000
0100
0010
0000
0000
0001
0100
,
0001
0000
0000
0000
,
1000
0100
0010
0001
0100
0010
0100
1000
,
0100
0010
0100
0010
0001
0010
0100
0010
,
0100
0010
0100
1000
0100
0010
0100
0010
,
0001
0010
0100
1000
0100
0010
0100
0010
,
0002
0000
0000
0000
,
0023
0000
0000
0000
,
2030
0000
3200
0300
,
0020
0030
0002
0003
0200
0300
0020
0030
,
2000
3200
0320
0032
0000
0000
0000
0000
,
0013
0010
2000
0000
3200
0000
0320
0000
,
0031
0000
1000
0001
1000
0001
0001
0000
,
0010
0000
1000
0100
0010
0001
0010
0100
,
1000
0000
0010
0000
0100
0010
0100
0000
,
1000
0001
1000
0001
2000
0000
3000
0000
,
1000
0000
0001
0000
0001
1000
0001
0001
,
0010
0100
1000
0000
1000
0100
0001
0100
,
1000
0100
0001
1000
0100
1000
0100
0000
,
1000
1000
0100
0100
0020
0000
0031
1000
,
0001
0000
1000
0001
1000
0001
0001
0000
,
0010
0000
1000
0100
0010
0001
0010
0100
,
1000
0000
0010
0000
0100
0010
0100
0000
,
1000
0001
1000
0001
2000
0000
3000
0000
,
1000
0000
0001
0000
0001
1000
0001
0001
,
0010
0100
1000
0000
1000
0100
0001
0100
,
2000
3000
0200
0300
,
1000
1000
0100
0100
0020
0000
0030
0000
,
1000
0000
0100
0010
0001
0000
0010
0100
,
0000
0100
0000
0001
0100
0010
0100
0010
,
0100
1000
0100
0010
0100
0000
0001
0100
,
0001
0100
0000
0000
0000
0000
0000
0000
,
1000
0000
0100
0010
0001
0000
0010
0100
,
0000
0100
0000
0001
0100
0010
0100
0010
,
0100
1000
0100
0010
0100
0000
0001
0100
,
0001
0100
0000
0000
0000
0000
0000
0000
,
1000
0000
0100
0010
0001
0000
0010
0100
,
0000
0100
0000
0001
0100
0010
0100
0010
,
0100
1000
0100
0010
0100
0000
0001
0100
,
0001
0100
0000
0000
0000
0000
0000
0000
,
1000
0000
0100
0010
0001
0000
0010
0100
,
0000
0100
0000
0001
0100
0010
0100
0010
,
0100
1000
0100
0010
0100
0000
0001
0100
,
0001
0100
1000
0000
0010
0000
0200
0000
,
0301
0010
0100
1000
0001
0010
0100
1000
,
0001
0010
0100
1000
0100
0010
0001
0010
,
0100
1000
0001
0010
0100
1000
0001
0010
,
0200
2300
3002
0203
0320
0030
0000
0000
,
1000
0100
0010
0001
1000
0100
0010
0001
,
1000
0100
0010
0001
0010
0100
1000
0100
,
0020
0000
0000
0000
,
1030
0100
0010
0001
0020
0000
0030
0000
,
1010
0000
0000
0000
1000
0100
1000
0100
1000
0000
0000
0000
0001
0010
0100
1000
,
0000
0000
0000
0000
1000
0001
1000
0001
1000
0000
0000
0000
1000
0100
1000
0100
,
2000
0000
0000
0000
,
3002
0023
2030
3200
0320
0032
0000
0000
,
0003
0000
0000
0000
;

//---------------dance-single - ----------------
#NOTES:
     dance-single:
     :
     Hard:
     12:
     0.854855,1.000000,0.014507,0.384426,0.409812,770.000000,2.000000,53.000000,0.000000,2.000000,0.000000,0.854855,1.000000,0.014507,0.384426,0.409812,770.000000,2.000000,53.000000,0.000000,2.000000,0.000000:
// measure 0
0000
0000
0000
0000
,  // measure 1
1000
0100
0010
0100
,  // measure 2
0010
0100
0010
1000
,  // measure 3
0100
1000
0010
0100
,  // measure 4
0010
0001
0010
0100
,  // measure 5
1000
0010
0100
0010
,  // measure 6
1000
0100
1000
0010
,  // measure 7
0100
0010
0001
0100
,  // measure 8
0010
0000
0000
0000
0100
0000
0000
0000
1000
0000
0000
0000
0010
0100
0010
0100
,  // measure 9
0010
0010
1000
0100
,  // measure 10
0010
0001
0010
0100
,  // measure 11
1000
0010
0100
0010
,  // measure 12
1000
0100
1000
0010
,  // measure 13
0100
0100
0000
0000
0000
0000
0000
0000
,  // measure 14
0010
0010
0000
0000
0000
0000
0000
0000
,  // measure 15
1000
0100
0010
0001
0010
0100
1000
0100
,  // measure 16
0010
0100
0010
0100
0010
0100
0010
0100
0020
0000
0230
0000
0320
0000
0030
0000
,  // measure 17
1000
0001
1000
0001
,  // measure 18
1000
0200
0310
0001
,  // measure 19
0010
0100
1000
0010
,  // measure 20
0100
0010
1000
0100
,  // measure 21
1000
0100
0010
0001
,  // measure 22
0010
0001
0010
0100
,  // measure 23
0010
1000
0010
0100
,  // measure 24
1000
0010
0100
0001
,  // measure 25
1000
0100
0010
0001
0010
0100
0010
0100
,  // measure 26
0010
0100
1000
0100
1000
0100
1000
0100
,  // measure 27
1000
0100
1000
0001
1000
0001
1000
0001
,  // measure 28
1000
0001
0010
0100
1000
0100
1000
0100
,  // measure 29
1000
0100
0010
0100
0010
0100
0010
0100
,  // measure 30
0010
0001
0010
0001
0010
0001
0010
0001
,  // measure 31
0010
0100
1000
0100
0010
0100
0010
0001
,  // measure 32
1000
0001
1000
0001
1000
0001
1000
0001
2000
0000
3200
0000
0320
0000
0032
0000
,  // measure 33
0003
0000
0000
0000
,  // measure 34
1000
0100
0010
0001
,  // measure 35
1000
0100
1000
0100
1000
0100
0010
0100
,  // measure 36
0010
0100
0010
0001
0010
0001
0010
0001
,  // measure 37
0010
0100
1000
0100
1000
0100
0010
0100
,  // measure 38
0010
0001
0010
0001
0010
0001
0100
1000
,  // measure 39
0100
1000
0100
0010
0100
0010
0100
0010
,  // measure 40
0001
0010
0001
0010
0001
0010
0100
1000
,  // measure 41
0100
1000
0100
0010
0100
0010
0001
0010
,  // measure 42
0001
0010
0001
0010
0100
1000
0100
1000
,  // measure 43
0100
1000
0100
0010
0100
0010
0100
0010
,  // measure 44
0001
0010
0001
0010
0001
0010
0100
1000
,  // measure 45
0100
1000
0100
0010
0100
0010
0001
0010
,  // measure 46
0001
0010
1000
0100
0010
0001
0010
0100
,  // measure 47
1000
0100
1000
0100
1000
0100
0010
0100
,  // measure 48
0010
0100
0010
0001
0010
0001
0010
0001
,  // measure 49
0010
0100
0010
0100
0010
0100
0010
0001
0010
0100
1000
0100
1000
0100
0010
0100
,  // measure 50
0010
0001
0000
0000
1000
0000
0000
0000
1100
0000
0000
0000
0000
0000
0000
0000
,  // measure 51
1000
0100
1000
0100
1000
0100
0010
0100
,  // measure 52
0010
0100
0010
0001
0010
0001
0010
0001
,  // measure 53
0010
0100
1000
0100
1000
0100
0010
0100
,  // measure 54
0010
0001
0010
0001
0010
0100
1000
0010
,  // measure 55
0100
0010
0100
0010
0100
0010
0100
0010
0100
0010
0100
0010
0100
0010
0100
0010
,  // measure 56
0100
1000
0100
1000
0100
1000
0100
1000
0100
1000
0100
1000
0100
1000
0100
1000
,  // measure 57
0100
0010
0100
0010
0100
0010
0100
0000
0000
0000
0000
0000
1000
0001
1000
0001
1000
0001
1000
0000
0000
0000
0000
0000
,  // measure 58
1000
0100
1000
0100
1000
0000
0010
0100
0010
0100
0010
0000
0001
0010
0001
0010
0001
0000
0100
0010
0100
0010
0100
0000
,  // measure 59
2000
3200
0320
0230
0302
0000
0000
0000
,  // measure 60
0103
0110
2000
0000
0200
0000
0020
0000
,  // measure 61
3331
0000
1000
0100
0010
0001
0001
0000
,  // measure 62
1000
0000
0001
0000
1000
0001
1000
0001
,  // measure 63
1000
0000
0001
0000
1000
0100
0100
0001
,  // measure 64
2000
3200
0320
0230
0320
0030
0000
0000
,  // measure 65
1000
0001
1000
0001
0010
0100
1000
0010
,  // measure 66
0100
0010
0100
0000
1000
0001
1000
0001
,  // measure 67
1000
0000
0001
0000
0100
0010
0100
0010
,  // measure 68
2000
0000
3200
0000
0320
0000
0032
0000
0203
0000
0300
0000
1000
0001
1000
0001
,  // measure 69
1000
0000
1000
0100
0010
0001
0001
0000
,  // measure 70
1000
0000
0001
0000
1000
0001
1000
0001
,  // measure 71
1000
0000
0001
0000
1000
0100
0100
0001
,  // measure 72
2000
3200
0320
0230
0320
0030
0000
0000
,  // measure 73
1000
0001
1000
0001
0010
0100
1000
0010
,  // measure 74
0100
0010
0100
0000
1000
0001
1000
0001
,  // measure 75
2000
3000
0200
0300
,  // measure 76
2000
3200
0320
0032
0203
0300
0000
0000
,  // measure 77
1000
0100
0010
0001
0000
1000
0100
0000
0010
0100
0010
0000
0001
0000
0100
0000
,  // measure 78
0010
0000
1000
0100
1000
0000
0010
0100
0010
0100
0010
0000
1000
0000
0001
0000
,  // measure 79
1000
0100
1000
0100
0010
0000
0000
0001
0100
0000
1000
0100
0001
0000
0100
0000
,  // measure 80
1000
0100
0001
0100
1000
0100
0001
0000
,  // measure 81
1000
0100
0010
0001
0000
1000
0100
0000
0010
0100
0010
0000
0001
0000
0100
0000
,  // measure 82
0010
0000
1000
0100
1000
0000
0010
0100
0010
0100
0010
0000
1000
0000
0001
0000
,  // measure 83
1000
0100
1000
0100
0010
0000
0000
0001
0100
0000
1000
0100
0001
0000
0100
0000
,  // measure 84
1000
0100
0001
0100
1000
0100
0001
0010
,  // measure 85
1000
0000
0001
0000
0100
0000
1000
0001
1000
0001
1000
0000
0100
0000
0010
0000
,  // measure 86
1000
0000
1000
0000
0100
0001
0100
0001
0200
0000
0300
0000
2000
0000
3000
0000
,  // measure 87
0200
0000
0300
0000
1000
0001
1000
0001
1000
0001
0000
0000
2000
0000
3200
0000
,  // measure 88
0320
0000
0032
0003
0200
0000
0320
0000
2030
0000
3010
0100
0010
0000
1000
0001
,  // measure 89
1000
0100
0010
0001
0100
0010
0100
0010
,  // measure 90
1000
0100
1000
0100
0010
0100
0010
0100
,  // measure 91
0010
0001
0010
0001
0010
0001
0010
0100
,  // measure 92
1000
0010
0100
0010
2000
0000
0200
0000
,  // measure 93
3300
0001
0010
0100
1000
0010
0100
0020
,  // measure 94
1030
0100
1000
0010
0100
0010
0001
0100
,  // measure 95
0001
0010
0100
1000
0010
0100
0010
1000
,  // measure 96
0100
1000
0010
0100
0010
0001
0100
0001
,  // measure 97
0010
0100
0010
0100
1000
0100
1000
0010
,  // measure 98
0100
0010
0001
0010
0001
0010
0100
0010
,  // measure 99
1000
0100
0010
0001
0010
0100
1000
0100
1000
0100
1000
0100
0010
0100
0010
0100
,  // measure 100
0010
1000
0100
0010
0002
0000
0003
0000
,  // measure 101
0000
0000
0000
0000
0001
0010
0100
1000
0000
0000
0000
0000
1000
0100
0010
0001
,  // measure 102
0000
0000
0000
0000
0010
0100
0010
0100
0000
0000
0000
0000
1000
0100
0010
0001
,  // measure 103
0010
0100
0010
0100
0010
0100
1000
0100
1000
0100
1000
0001
1000
0001
1000
0001
,  // measure 104
1000
0001
0010
0000
1000
0000
0100
0000
0020
0000
0000
0000
0030
0000
0000
0000
;
