#TITLE:Round and Round;
#SUBTITLE:;
#ARTIST:Masayoshi Minoshima feat. 綾倉盟;
#TITLETRANSLIT:;
#SUBTITLETRANSLIT:;
#ARTISTTRANSLIT:Masayoshi Minoshima feat. Mei Ayakura;
#GENRE:;
#CREDIT:;
#BANNER:Banner.png;
#BACKGROUND:BG.png;
#LYRICSPATH:;
#CDTITLE:;
#MUSIC:Round and Round.mp3;
#OFFSET:-0.385000;
#SAMPLESTART:81.435471;
#SAMPLELENGTH:12.000000;
#SELECTABLE:YES;
#BPMS:0.000000=145.000000
;
#STOPS:
;
#BGCHANGES:;
#KEYSOUNDS:;
#ATTACKS:;

//---------------dance-single - ----------------
#NOTES:
     dance-single:
     :
     Hard:
     9:
     0.558716,0.577943,0.079170,0.095004,0.158341,472.000000,10.000000,12.000000,0.000000,0.000000,0.000000,0.558716,0.577943,0.079170,0.095004,0.158341,472.000000,10.000000,12.000000,0.000000,0.000000,0.000000:
0000
0000
0000
0000
,
0000
0000
0000
0000
,
0000
0000
0000
0000
,
0000
0000
0000
0000
,
0001
0010
0100
1000
0001
0010
0100
1000
,
0001
0010
0100
1000
0001
0010
0100
1000
,
0001
0100
0000
0110
0000
0110
0000
0010
,
1000
1001
0110
1001
,
0001
1000
0000
0100
0010
0100
0000
1000
,
0010
0100
0000
0001
0010
1000
0000
0010
,
0001
1000
0000
0001
0100
1000
0000
1000
,
0010
0001
0000
1000
0001
1000
0001
0000
,
1000
0001
0000
0100
0010
0100
0000
0001
,
0010
0100
0000
1000
0010
0001
0000
0010
,
1000
0001
0000
1000
0100
0001
0000
0001
,
0010
1000
0000
0001
1000
0001
1000
0000
,
2001
0000
0100
0000
0001
0000
0010
0010
,
3010
0000
0100
0001
1000
0000
0100
0010
,
0100
0000
0010
0001
1000
0000
0001
0100
,
1000
0000
1000
0010
0001
0100
0010
0000
,
1002
0000
0100
0000
1000
0000
0010
0010
,
0013
0000
0100
1000
0001
0000
0100
0010
,
0100
0000
0010
1000
0001
0000
1000
0100
,
0001
0000
0001
0010
1000
0100
0010
0000
,
1002
0000
0100
0000
1000
0000
0013
0100
,
0000
0010
0001
1000
0000
0010
0100
0010
,
0000
1000
0100
0010
0000
0001
0100
1000
,
0000
0100
0001
1000
0100
0100
0100
0000
,
2001
0000
0100
0000
0001
0000
3010
0100
,
0000
0010
1000
0001
0000
0010
0100
0010
,
0000
0001
0100
0010
0000
1000
0100
0001
,
0000
0100
1000
0001
0100
0100
0100
0000
,
1001
0000
0001
0010
0000
0001
1000
0000
,
0001
0100
0000
0100
0010
0000
1000
0100
,
0000
0100
0001
0000
0001
0010
0000
0010
,
1000
0100
0010
1000
0001
0100
0010
0001
,
1000
0010
0000
1000
0001
0000
1000
0100
,
0000
0100
0010
0000
0001
0100
0000
0100
,
1000
0000
1000
0010
0000
0010
0001
0000
,
0001
0100
0010
0001
1000
0100
0010
1000
,
0001
0010
0100
1000
0010
0000
0100
1000
,
0100
0010
1000
0000
0100
0001
0100
0010
,
0001
0000
1000
1000
0001
0100
0010
0000
,
1000
0100
0001
0010
1000
0010
0001
0100
,
1000
0010
0100
0001
0010
0000
0100
0001
,
0100
0010
0001
0000
0100
1000
0100
0010
,
1000
0000
0001
0001
1000
0100
0010
0000
,
0001
0100
1000
0010
0001
0010
1000
0100
,
0001
0000
0000
1000
0000
0000
0001
0000
0000
1000
0000
0000
0001
0000
0010
0000
0100
0000
1000
0000
0100
0000
0010
0000
,
0001
0000
0100
0010
0000
0010
0100
0000
0001
0000
0010
0100
0000
0010
0100
0000
,
1000
0000
0001
0100
0000
0100
0001
0000
1000
0000
0100
0000
0001
0000
0010
0000
,
1000
0000
0100
0010
0000
0100
0010
0000
0001
0000
0100
0010
0000
0010
0100
0000
,
0001
0000
1000
0100
0000
0200
0000
0000
0001
0000
0001
0000
1000
0000
1300
0000
,
0001
0000
0100
1000
0000
1000
0100
0000
0001
0000
0010
0100
0000
0010
0100
0000
,
1000
0000
0001
0100
0000
0100
0001
0000
1000
0000
0100
0000
0001
0000
0010
0000
,
2000
0100
0001
3020
,
0001
0230
1000
0301
,
1000
0000
0100
0010
0000
0010
0100
0000
1000
0000
0010
0100
0000
0010
0100
0000
,
0001
0000
1000
0100
0000
0100
1000
0000
0001
0000
0100
0000
1000
0000
0010
0000
,
0001
0000
0100
0010
0000
0100
0010
0000
1000
0000
0100
0010
0000
0010
0100
0000
,
1000
0000
0001
0100
0000
0200
0000
0000
1000
0000
1000
0000
0001
0000
0301
0000
,
1000
0000
0100
0001
0000
0001
0100
0000
1000
0000
0010
0100
0000
0010
0100
0000
,
0001
0000
1000
0100
0000
0100
1000
0000
0001
0000
0100
0000
1000
0000
0010
0000
,
0002
0100
1000
0023
,
1000
0230
0001
1300
,
0001
0100
1000
0100
0001
0100
1000
0100
,
0001
0010
0100
0010
0001
0010
0100
1000
,
0010
0001
0010
1000
0100
0010
0001
1000
,
0010
0001
0010
1000
0100
0010
0001
1000
,
0001
0100
1000
0100
0001
0100
1000
0100
,
0001
0010
0100
0010
0001
0010
0100
1000
,
0010
0001
0010
1000
0100
0010
0001
1000
,
0010
0001
0010
1000
0100
0010
0001
1000
,
0001
0000
0000
0000
;

//---------------dance-single - ----------------
#NOTES:
     dance-single:
     :
     Medium:
     7:
     0.513476,0.520149,0.269179,0.166258,0.015834,399.000000,34.000000,21.000000,0.000000,0.000000,0.000000,0.513476,0.520149,0.269179,0.166258,0.015834,399.000000,34.000000,21.000000,0.000000,0.000000,0.000000:
0000
0000
0000
0000
,
0000
0000
0000
0000
,
0000
0000
0000
0000
,
0000
0000
0000
0000
,
1002
0000
0000
0000
,
0000
0000
0000
0000
,
1003
0100
0000
0110
0000
0110
0000
0010
,
0001
1001
0110
1001
,
1000
0100
0000
1000
0001
0100
0000
1000
,
0100
0001
0000
1000
0100
0010
0000
0001
,
0100
0010
0000
1000
0100
0001
0000
0001
,
0010
1000
0000
0001
1000
0001
1000
0000
,
0001
0100
0000
0001
1000
0100
0000
0001
,
0100
1000
0000
0001
0100
0010
0000
1000
,
0100
0010
0000
0001
0100
1000
0000
1000
,
0010
0001
0000
1000
0001
1000
0001
0000
,
1002
0100
1000
0023
,
1000
0032
0100
2003
,
0010
3200
0001
0320
,
1000
0000
0032
0000
0100
0100
0103
0000
,
2001
0100
0001
3020
,
0001
2030
0100
3002
,
0010
0203
1000
0320
,
0001
0000
2030
0000
0100
0100
3100
0000
,
1001
0000
0110
0000
1001
0000
0001
1000
,
0000
0100
0010
0100
0000
1000
0001
0100
,
0000
1000
0100
0001
0000
1000
0100
0001
,
0000
1000
0010
0001
0100
0100
0100
0000
,
1001
0000
0110
0000
1001
0000
1000
0001
,
0000
0100
0010
0100
0000
0001
1000
0100
,
0000
0001
0100
1000
0000
0001
0100
1000
,
0000
0001
0010
1000
0100
0100
0100
0000
,
1001
0000
1000
0100
0000
0100
1000
0000
,
0001
0100
0000
0100
0010
0000
1000
0100
,
0000
0100
0001
0000
0001
0010
0000
0010
,
1000
0000
0001
1000
0000
0001
1000
0000
,
0001
0100
0000
0100
0001
0000
1000
0100
,
0000
0100
0010
0000
0001
0100
0000
0100
,
1000
0000
1000
0010
0000
0010
0001
0000
,
1000
0001
0000
1000
0001
0000
1001
0000
,
1000
0010
0100
0001
0010
0000
0100
0010
,
0100
0010
0100
0000
0010
0001
0100
1000
,
0100
0000
0010
1000
1000
0100
0010
0000
,
0001
0100
1000
0010
0001
0010
1000
0100
,
0001
0010
0100
1000
0010
0000
0100
0010
,
0100
0010
0100
0000
0010
1000
0100
0001
,
0100
0000
0010
0001
0001
0100
0010
0000
,
1000
0100
0001
0010
1000
0010
0001
0100
,
1000
0000
0000
0001
0000
0000
1000
0000
0000
0001
0000
0000
1000
0000
0100
0000
0010
0000
0001
0000
0010
0000
0100
0000
,
1000
0001
0101
0000
0001
0010
0011
0000
,
1000
0010
1010
0000
1000
0100
0001
0010
,
1000
0100
1100
0000
0100
0010
0110
0000
,
0010
0001
0011
0000
0001
0100
1000
0100
,
0001
1000
1100
0000
1000
0010
1010
0000
,
0001
0010
0011
0000
0001
0100
1000
0010
,
0002
0100
1000
0023
,
1000
0230
0001
1300
,
0001
1000
1100
0000
1000
0010
1010
0000
,
0001
0010
0011
0000
0001
0100
1000
0010
,
0001
0100
0101
0000
0100
0010
0110
0000
,
0010
1000
1010
0000
1000
0100
0001
0100
,
1000
0001
0101
0000
0001
0010
0011
0000
,
1000
0010
1010
0000
1000
0100
0001
0010
,
2000
0100
0001
3020
,
0001
0230
1000
0301
,
1000
0100
0001
0000
0001
0010
1000
0000
,
0001
0010
0100
0000
0010
0100
1000
0001
,
0100
1000
0100
0001
0100
1000
0100
0001
,
0010
0100
1000
0100
0010
0100
1000
0001
,
1000
0100
0001
0000
0001
0010
1000
0000
,
0001
0010
0100
0000
0010
0100
1000
0001
,
0100
1000
0100
0001
0100
1000
0100
0001
,
0010
0100
1000
0100
0010
0100
1000
0001
,
1000
0000
0000
0000
;

//---------------dance-single - ----------------
#NOTES:
     dance-single:
     :
     Easy:
     5:
     0.417341,0.404560,0.182092,0.364183,0.000000,300.000000,23.000000,46.000000,0.000000,0.000000,0.000000,0.417341,0.404560,0.182092,0.364183,0.000000,300.000000,23.000000,46.000000,0.000000,0.000000,0.000000:
// measure 0
0000
0000
0000
0000
,  // measure 1
0000
0000
0000
0000
,  // measure 2
0000
0000
0000
0000
,  // measure 3
0000
0000
0000
0000
,  // measure 4
2001
0000
0000
0000
,  // measure 5
0000
0000
0000
0000
,  // measure 6
3001
0100
0000
0110
0000
0110
0000
0010
,  // measure 7
1000
1001
0110
1001
,  // measure 8
0001
1000
0000
0100
0000
0010
0000
0010
,  // measure 9
0000
0001
0000
0100
0000
1000
0000
0010
,  // measure 10
0000
0001
0000
0010
0000
1000
0000
0100
,  // measure 11
0000
0001
0000
1000
0001
1000
0001
0000
,  // measure 12
1000
0001
0000
0100
0000
0010
0000
0010
,  // measure 13
0000
1000
0000
0100
0000
0001
0000
0010
,  // measure 14
0000
1000
0000
0010
0000
0001
0000
0100
,  // measure 15
0000
1000
0000
0001
1000
0001
1000
0000
,  // measure 16
2001
0100
0001
3020
,  // measure 17
0000
0032
0000
0203
,  // measure 18
0000
2300
0000
3002
,  // measure 19
0000
0000
0203
0000
0010
0010
0310
0000
,  // measure 20
1002
0100
1000
0023
,  // measure 21
0000
2030
0000
3200
,  // measure 22
0000
0302
0000
2003
,  // measure 23
0000
0000
3200
0000
0010
0010
0310
0000
,  // measure 24
2001
0100
0001
3020
,  // measure 25
0001
2030
0100
3002
,  // measure 26
0010
0203
1000
0320
,  // measure 27
0001
0000
2030
0000
0100
0100
3100
0000
,  // measure 28
1002
0100
1000
0023
,  // measure 29
1000
0032
0100
2003
,  // measure 30
0010
3200
0001
0320
,  // measure 31
1000
0000
0032
0000
0100
0100
0103
0000
,  // measure 32
1002
0100
0100
0023
,  // measure 33
1000
1000
0230
0001
,  // measure 34
0010
2300
0001
0001
,  // measure 35
3020
0001
0100
1030
,  // measure 36
2001
0100
0100
3020
,  // measure 37
0001
0001
0230
1000
,  // measure 38
0010
0302
1000
1000
,  // measure 39
0023
1000
0100
0031
,  // measure 40
1000
0001
1000
0001
1000
0000
0001
1000
,  // measure 41
0001
1000
0001
0000
0100
0010
0100
0010
,  // measure 42
0100
0000
0001
1000
0001
1000
0001
0000
,  // measure 43
1000
0100
0010
0001
0010
0100
1000
0000
,  // measure 44
0001
0100
0001
0100
0001
0000
1000
0001
,  // measure 45
1000
0001
1000
0000
0100
0010
0100
0010
,  // measure 46
0100
0000
1000
0001
1000
0001
1000
0000
,  // measure 47
0001
0100
0010
1000
0010
0100
0001
0000
,  // measure 48
1002
0000
0000
0000
,  // measure 49
1003
0100
0001
0100
,  // measure 50
1000
0000
1001
0000
0001
1000
0001
1000
,  // measure 51
0001
0100
1000
0100
,  // measure 52
0001
0000
1001
0000
1000
0001
1000
0001
,  // measure 53
1000
0101
0010
1001
,  // measure 54
0100
0000
1001
0000
0001
1000
0001
1000
,  // measure 55
0002
0100
1000
0023
,  // measure 56
1000
0230
0001
1300
,  // measure 57
0001
0100
1000
0100
,  // measure 58
0001
0000
1001
0000
1000
0001
1000
0001
,  // measure 59
1000
0100
0001
0100
,  // measure 60
1000
0000
1001
0000
0001
1000
0001
1000
,  // measure 61
0001
1100
0010
1001
,  // measure 62
0100
0000
1001
0000
1000
0001
1000
0001
,  // measure 63
2000
0100
0001
3020
,  // measure 64
0001
0230
1000
0301
,  // measure 65
1000
0100
0010
0001
,  // measure 66
1000
0100
0010
0001
,  // measure 67
0100
1000
0100
0001
,  // measure 68
0100
1000
0100
0001
,  // measure 69
1000
0100
0010
0001
,  // measure 70
1000
0100
0010
0001
,  // measure 71
0100
1000
0100
0001
,  // measure 72
0100
1000
0100
0001
,  // measure 73
1000
0000
0000
0000
;
