#TITLE:Ra'am;
#SUBTITLE:;
#ARTIST:雷龍;
#TITLETRANSLIT:;
#SUBTITLETRANSLIT:;
#ARTISTTRANSLIT:Rairyu;
#GENRE:;
#CREDIT:;
#BANNER:[Drop the Zero] - Ra'am.png;
#BACKGROUND:[Drop the Zero] - Ra'am-bg.png;
#LYRICSPATH:;
#CDTITLE:;
#MUSIC:[Drop the Zero] ra'am.mp3;
#OFFSET:-3.878000;
#SAMPLESTART:31.964108;
#SAMPLELENGTH:8.901089;
#SELECTABLE:YES;
#BPMS:0.000000=111.000000
,16.000000=222.000000
,184.000000=111.000000
,198.000000=222.000000
,324.000000=111.000000
,326.000000=222.000000
;
#STOPS:250.500000=0.135000,
251.000000=0.135000,
251.500000=0.068000,
251.750000=0.203000
;
#BGCHANGES:;
#KEYSOUNDS:;
#ATTACKS:;

//---------------dance-single - ----------------
#NOTES:
     dance-single:
     :
     Hard:
     10:
     0.857770,1.000000,0.661826,0.374076,0.599480,518.000000,69.000000,39.000000,0.000000,0.000000,0.000000,0.857770,1.000000,0.661826,0.374076,0.599480,518.000000,69.000000,39.000000,0.000000,0.000000,0.000000:
1002
0000
0000
1003
2001
0000
0000
3001
,
1001
0000
0000
0100
0000
0000
0101
0000
0000
0000
1000
0010
0100
0000
0000
0000
,
0102
0000
0000
0010
0000
0000
1003
0000
2100
0000
0000
0010
0000
0000
3001
0000
,
1000
0010
1000
0100
0010
0001
0100
0000
0000
0000
0010
0100
1001
0000
0000
0000
,
2000
0000
0000
0000
,
3002
0000
0000
0023
0000
0000
0030
0000
,
0100
1000
0010
0100
0001
0100
0000
0010
,
0000
0100
0010
1000
0010
1000
0001
0010
,
0100
0010
0001
1000
0100
1000
0010
0100
,
0000
0000
0010
0100
1001
0000
0000
0000
,
1000
0100
0010
0100
1000
0001
0000
0010
,
0000
0100
0010
0001
1000
0100
1000
0010
,
0100
0001
0100
0010
1000
0001
1000
0000
,
0000
0000
0010
0100
1001
0000
0000
0000
,
0001
0000
0000
0001
0000
0000
0001
0000
0000
0000
1000
0000
0000
0000
1000
0000
,
0010
0000
0000
0010
0000
0000
0010
0000
0100
0000
0000
0100
0000
0000
0100
0000
,
0001
0000
0000
0001
0000
0000
0001
0000
0000
0000
1000
0000
0000
0000
0010
0000
,
1000
0000
0000
1000
0000
0000
0100
0000
0010
0000
0000
0010
0000
0000
0100
0000
,
1000
0000
0000
1000
0000
0000
1000
0000
0000
0000
0001
0000
0000
0000
0001
0000
,
0100
0000
0000
0010
0000
0000
1000
0000
0010
0000
0000
0100
0000
0000
0001
0000
,
1000
0000
0000
0010
0000
0000
1000
0000
0010
0000
0000
0100
0000
0000
0001
0000
,
1000
0001
1000
0000
0001
0000
1000
0001
0000
0000
0000
0000
0000
0000
0000
0000
,
0101
0000
0000
0001
0000
0000
0101
0000
0000
0100
0000
0000
0010
0000
1000
0000
,
1100
0000
0000
1000
0000
0000
0100
0000
0010
0001
0010
0000
0100
0000
1000
0000
,
1001
0000
0000
1000
0000
0000
1001
0000
0000
0001
0000
0000
0100
0000
0001
0000
,
0011
0000
0000
0010
0000
0000
0001
0000
1000
0000
0010
0000
0100
0001
0100
0000
,
0101
0000
0000
0100
0000
0000
0101
0000
0000
0001
0000
0000
0010
0000
0100
0000
,
1100
0000
0000
0010
0000
0000
0011
0000
0001
1000
0001
0000
1000
0000
1000
0000
,
1001
0000
0000
1100
0000
0000
1000
0000
1001
0000
0000
0011
0000
0000
0001
0000
,
1000
0001
1000
0000
0010
0000
1000
0000
0001
0000
0010
0000
0100
1000
0001
0000
,
0020
0000
0230
0000
1300
0010
0001
0000
,
0020
0000
0230
0000
1300
0100
0001
0000
,
2000
0000
3020
0000
1030
0010
0001
0000
,
0001
0000
0000
0100
0000
0000
1000
0000
0000
0100
0000
0000
0010
0000
1000
0000
,
0002
0000
0000
0000
0203
0000
0000
0000
0310
1000
0010
1000
0010
0000
0000
0000
,
2000
0000
0000
0000
3002
0000
0000
0000
0013
0001
0010
0001
0010
0000
0000
0000
,
0200
0000
0000
0000
2300
0000
0000
0000
3001
0100
0001
0100
0001
0000
0000
0000
,
0001
1000
0000
1000
0010
0100
0001
0000
,
0200
0000
0302
0000
0013
0100
0010
0001
,
0000
1000
0000
1000
0000
1000
1000
1000
,
0002
0000
0023
0000
0031
0010
0001
0100
,
0000
0001
0000
1000
0100
0001
0100
0010
,
0001
0010
0001
0100
0010
1000
0001
0010
,
0001
0100
0010
1000
0100
0010
0001
0100
,
0001
1000
0001
1000
0001
1000
0001
1000
0001
1000
0001
1000
0001
1000
0001
0000
,
0000
0000
1000
0000
0000
0000
0010
0000
0100
0001
0100
0000
1001
0000
0000
0000
,
1000
0010
0000
0100
0001
0000
0010
0100
0000
0100
0000
0010
0001
0000
1000
0000
,
0001
0100
0000
0001
1000
0000
0100
0010
0000
0100
0000
0010
0001
0000
0100
0000
,
0010
1000
0000
0100
0001
0000
0001
0010
0000
1000
0000
0010
0100
0000
1000
0001
,
0100
0010
0000
1000
0001
0000
0010
0001
0000
0000
0000
0000
0000
0000
0000
0000
,
0000
0000
0000
0000
0000
0000
0000
0000
2000
0000
0001
0000
0000
0001
0000
0000
,
0001
0000
0000
0001
0000
0000
3001
0000
0200
0000
0010
0000
0000
0010
0000
0000
,
0010
0000
0000
0010
0000
0000
0310
0000
1010
0000
0000
0000
0000
0000
0101
0000
,
0000
0000
0011
0000
0000
0000
0010
0100
,
1000
0000
0000
0000
0000
0000
0000
0000
0001
0000
0200
0000
0000
0010
0000
0000
,
0001
0000
0000
0301
0000
0000
0010
0000
0200
0000
0001
0000
0000
0001
0000
0000
,
0010
0000
0000
0010
0000
0000
0301
0000
1000
0000
0001
0000
0010
0000
0001
0000
,
1000
0100
0010
0001
0000
0000
0010
0100
,
1000
0001
1000
0001
1000
0000
0010
0000
1000
0001
1000
0001
1000
0000
0010
0000
,
1000
0010
0100
0001
0020
0000
0000
0000
,
0000
0000
0000
0230
0000
0000
0000
0000
,
2300
0002
0000
0000
,
0000
0000
0000
0000
0000
0000
0000
0000
3003
0000
0002
0003
0002
0003
0002
1003
,
1001
0000
0000
0001
0000
0000
1001
0000
0000
0000
1000
0000
0000
0000
0001
0000
,
0101
0000
0000
0001
0000
0000
0010
0000
0110
0000
0000
0100
0000
0000
1000
0000
,
1001
0000
0000
0001
0000
0000
0101
0000
0000
0000
0100
0000
0000
0000
0010
0000
,
1010
0000
0000
1000
0000
0000
0001
0000
0011
0000
0000
0010
0000
0000
0100
0000
,
1100
0000
0000
0100
0000
0000
1100
0000
0000
0000
1001
0000
0000
0000
0001
0000
,
0101
0000
0000
0100
0000
0000
0010
0000
1010
0000
0000
1000
0000
0000
0001
0000
,
1001
0000
0000
1001
0000
0000
1000
0000
1001
0000
0000
1001
0000
0000
0001
0000
,
1000
0001
1000
0000
0001
0000
1000
0001
0000
0000
0000
0000
0000
0000
0000
0000
,
1100
0000
0000
0110
0000
0000
0011
0000
0000
0101
0000
0000
0001
0000
1000
0000
,
1010
0000
0000
0101
0000
0000
0001
0000
0010
0000
0100
0000
1000
0100
1000
0000
,
1001
0000
0000
0101
0000
0000
0011
0000
0000
0110
0000
0000
0100
0000
1000
0000
,
1010
0000
0000
0101
0000
0000
1001
0000
0001
0000
0010
0000
0001
0100
0001
0000
,
0101
0000
0000
1010
0000
0000
1100
0000
0000
0011
0000
0000
0010
0000
0100
0000
,
1100
0000
0000
0011
0000
0000
0110
0000
0100
0000
1000
0000
0010
1000
0010
0000
,
1020
0000
0000
0130
0000
0000
0001
0000
0021
0000
0000
0130
0000
0000
1000
0000
,
1020
0000
0000
0130
0000
0000
0001
0000
0021
0000
0000
0130
0000
0000
1000
0000
,
0001
1000
0001
1000
0001
1000
0001
1000
0001
1000
0001
1000
0001
1000
0001
1000
,
0001
1000
0001
1000
0001
0000
1000
0000
0001
0000
0010
0000
0100
1000
0010
0000
,
1001
0000
0020
0000
,
0000
0030
0000
0000
;

//---------------dance-single - ----------------
#NOTES:
     dance-single:
     :
     Medium:
     9:
     0.635791,0.591687,0.028775,0.441217,0.287750,415.000000,3.000000,46.000000,0.000000,0.000000,0.000000,0.635791,0.591687,0.028775,0.441217,0.287750,415.000000,3.000000,46.000000,0.000000,0.000000,0.000000:
2000
0000
0000
3000
0002
0000
0000
0003
,
0001
0000
0000
1000
0000
0000
0100
0000
0000
0000
0010
0001
1000
0000
0000
0000
,
0002
0000
0000
1000
0000
0000
1003
0000
2000
0000
0000
0001
0000
0000
3001
0000
,
1000
0000
0000
0010
0000
0000
0100
0000
0000
0000
0010
0100
0001
0000
1000
0000
,
0002
0000
0000
0000
,
2003
0000
0000
3020
0000
0000
0230
0000
,
0301
0100
0010
1000
,
0010
0100
0001
1000
,
0100
1000
0000
0010
0100
0000
0001
1000
,
0000
0000
0001
0100
0010
0000
0100
0000
,
0010
1000
0010
0100
,
0001
0010
0001
0100
,
0010
1000
0010
1000
0001
1000
0001
0100
,
0000
0000
0010
1000
0001
0000
1000
0000
,
0010
0000
0000
1000
0000
0000
0010
0000
0000
0000
0100
0000
0000
0000
0100
0000
,
0001
0000
0000
0010
0000
0000
0001
0000
1000
0000
0000
0001
0000
0000
0100
0000
,
0010
0000
0000
1000
0000
0000
0010
0000
0000
0000
1000
0000
0000
0000
0001
0000
,
0010
0000
0000
0100
0000
0000
1000
0000
0010
0000
0000
0100
0000
0000
0001
0000
,
1000
0000
0000
0100
0000
0000
1000
0000
0000
0000
0100
0000
0000
0000
0010
0000
,
0001
0000
0000
0100
0000
0000
0001
0000
1000
0000
0000
0010
0000
0000
1000
0000
,
0001
0000
0000
0010
0000
0000
0001
0000
0100
0000
0000
0010
0000
0000
0100
0000
,
0010
1000
0010
1000
0000
0000
0000
0000
,
0001
0000
0000
0010
0000
0000
0001
0000
0000
0100
0000
0000
0010
0000
1000
0000
,
0100
0000
0000
1000
0000
0000
0010
0000
0100
0000
0001
0000
0010
0000
0100
0000
,
1000
0000
0000
0100
0000
0000
1000
0000
0000
0010
0000
0000
0100
0000
0001
0000
,
0010
0000
0000
0001
0000
0000
1000
0000
0001
0000
0010
0000
0001
0000
0100
0000
,
0010
0000
0000
1000
0000
0000
0010
0000
0000
0100
0000
0000
0010
0000
1000
0000
,
0100
0000
0000
0010
0000
0000
0100
0000
1000
0000
0001
0000
0010
0000
0001
0000
,
1000
0000
0000
1000
0000
0000
1000
0000
0010
0000
0000
0010
0000
0000
0010
0000
,
0100
0001
0100
0001
1000
0100
0010
0001
,
2000
0000
3020
0000
0130
0001
0100
0000
,
0002
0000
0023
0000
0130
1000
0100
0000
,
2000
0000
3200
0000
0310
0001
0010
0000
,
0002
0000
0023
0000
0130
1000
0100
0000
,
2000
0000
3002
0000
0103
0010
1000
0000
,
0002
0000
2003
0000
3100
0010
0001
0000
,
0200
0000
0320
0000
1030
0001
0100
0000
,
0001
1000
0000
0001
1000
0001
1000
0000
,
0020
0000
2030
0000
3100
1000
0100
0000
,
0000
0010
0000
0001
0000
0010
0001
1000
,
0020
0000
0230
0000
0301
0100
0001
0000
,
0000
1000
0000
0001
1000
0010
1000
0100
,
2000
0000
3020
0000
0130
0001
1000
0000
,
0002
0000
0023
0000
0130
0010
0001
0000
,
2000
0000
3002
0000
0103
0001
0010
0000
,
0000
0100
0000
0100
0010
0001
1000
0000
,
0001
0100
0000
0000
0010
0000
0000
0100
0000
0100
0000
0000
0001
0000
0100
0000
,
0010
0000
0000
0000
1000
0000
0000
0001
0000
0001
0000
0000
0010
0000
0001
0000
,
1000
0000
0000
0000
0100
0000
0000
0010
0000
0010
0000
0000
0001
0000
1000
0000
,
0100
0000
0000
0000
1000
0000
0000
0010
0000
0000
0000
0000
0000
0000
0000
0000
,
0000
0000
0200
0000
,
0000
0301
2000
0000
,
0000
0000
3001
0000
0011
0000
0000
1100
,
0000
0000
0011
0000
0000
0000
0001
1000
,
0010
0000
0000
0000
0200
0000
0000
2300
,
0000
0000
3100
0000
0020
0000
0000
0230
,
0000
0000
0310
0000
2000
0000
0000
3002
,
0000
0000
0013
0000
0000
0000
0100
1000
,
0001
1000
0100
0010
0001
1000
0100
0010
,
0001
0010
0100
1000
0002
0000
0000
0000
,
0000
2003
0000
0000
,
3002
2000
0000
0000
,
0000
0000
0000
0000
0000
0000
0000
0000
3003
0000
0001
0000
0100
0000
0020
0030
,
1000
0000
0000
1000
0000
0000
0001
0000
0000
0000
0001
0000
0000
0000
0001
0000
,
0010
0000
0000
0100
0000
0000
1000
0000
0010
0000
0000
0100
0000
0000
0001
0000
,
1000
0000
0000
1000
0000
0000
0100
0000
0000
0000
0100
0000
0000
0000
0100
0000
,
0010
0000
0000
0100
0000
0000
1000
0000
0010
0000
0000
0100
0000
0000
0001
0000
,
0010
0000
0000
0010
0000
0000
0100
0000
0000
0000
0100
0000
0000
0000
0100
0000
,
0010
0000
0000
0001
0000
0000
1000
0000
0001
0000
0000
0100
0000
0000
0001
0000
,
1000
0000
0000
0100
0000
0000
1000
0000
0010
0000
0000
0100
0000
0000
0010
0000
,
1000
0001
1000
0001
0000
0000
0000
0000
,
1000
0000
0000
0010
0000
0000
0100
0000
0000
0001
0000
0000
0010
0000
0100
0000
,
1000
0000
0000
0001
0000
0000
0100
0000
0001
0000
0010
0000
1000
0000
0010
0000
,
0100
0000
0000
0010
0000
0000
0001
0000
0000
1000
0000
0000
0010
0000
0100
0000
,
0001
0000
0000
1000
0000
0000
0100
0000
0010
0000
0001
0000
0100
0000
1000
0000
,
0100
0000
0000
0010
0000
0000
1000
0000
0000
0001
0000
0000
0010
0000
0001
0000
,
1000
0000
0000
1000
0000
0000
0100
0000
1000
0000
0010
0000
0100
0000
0001
0000
,
1000
0000
0000
1000
0000
0000
1000
0000
0001
0000
0000
0001
0000
0000
0001
0000
,
0100
0000
0000
0100
0000
0000
0100
0000
0010
0000
0000
0010
0000
0000
0010
0000
,
1000
0001
1000
0001
1000
0001
1000
0001
,
1000
0001
0010
0010
0001
0010
0100
1000
,
0100
0000
0020
0000
,
0000
0030
0000
0000
;

//---------------dance-single - ----------------
#NOTES:
     dance-single:
     :
     Easy:
     7:
     0.485065,0.473349,0.000000,0.230200,0.028775,330.000000,0.000000,24.000000,0.000000,0.000000,0.000000,0.485065,0.473349,0.000000,0.230200,0.028775,330.000000,0.000000,24.000000,0.000000,0.000000,0.000000:
0002
0000
0000
0003
2000
0000
0000
3000
,
0010
0000
0000
0010
0000
0000
0010
0000
0000
0000
0100
0001
0100
0000
0000
0000
,
0001
0000
0000
0100
0000
0000
0010
0000
1000
0000
0000
0010
0000
0000
0100
0000
,
0001
0000
0000
1000
0000
0000
0010
0000
0000
0000
0100
0010
1000
0000
0000
0000
,
0002
0000
0000
0000
,
2000
0000
0000
3003
,
0001
1000
0010
1000
,
0001
0100
0001
1000
,
0100
1000
0010
0100
,
0000
0000
0001
1000
0001
0000
0000
0000
,
1000
0010
0100
0010
,
1000
0001
0010
0010
,
0001
0010
0100
0010
,
0000
0000
0100
1000
0100
0000
0000
0000
,
1000
0000
0001
0000
,
0100
0000
0000
0000
0010
0100
0010
0000
,
0100
0000
0010
0000
,
1000
0000
0000
0000
0001
1000
0001
0000
,
0010
0001
1000
0001
,
1000
0000
0010
0000
0100
0001
0100
0010
,
1000
0000
0000
1000
0010
0000
0000
0010
,
1000
0001
1000
0001
0000
0000
0000
0000
,
1000
0000
0010
0000
1000
0000
0001
1000
,
0001
0000
1000
0000
0100
0010
0100
0010
,
0100
0000
1000
0000
0001
0000
0100
0010
,
0100
0000
0010
0000
1000
0001
0100
0001
,
0100
0000
0010
0000
1000
0000
0001
0010
,
0001
0000
0010
0000
0100
1000
0010
1000
,
0010
0000
0000
1000
0001
0000
0000
0001
,
0010
0100
0010
0100
0010
0100
1000
0001
,
1000
0000
0001
0000
1000
0100
2000
0000
,
3001
0000
1000
0000
0010
0100
0002
0000
,
0103
0000
0010
0000
1000
0100
2000
0000
,
3001
0000
0010
0000
0100
1000
0020
0000
,
0130
0000
0001
0000
1000
0100
1000
0000
,
0001
0000
1000
0000
0001
1000
0200
0000
,
0310
0000
0001
0000
0100
0010
0200
0000
,
0310
0100
0000
0100
0010
0000
1000
0000
,
0002
1003
0020
1030
,
0000
1000
0000
0100
0000
1000
0010
0000
,
2000
3010
0200
0301
,
0000
1000
0000
0001
0000
1000
0010
0000
,
0100
0010
2000
3200
,
0310
0001
0200
0320
,
1030
0001
0020
0230
,
0300
1000
0000
1000
0001
0010
0100
0000
,
1000
0000
0100
0000
0010
0001
1000
0000
,
0010
0000
0100
0000
0010
1000
0001
0100
,
0010
0000
1000
0000
0001
1000
0100
0000
,
0010
0001
0000
0000
,
0000
0000
1000
0000
,
0000
0001
1000
0000
,
0000
0000
0001
0000
1000
0000
0000
1000
,
0000
0000
1000
0000
0000
0000
0010
0100
,
0010
0000
0000
0000
0100
0000
0000
0010
,
0000
0000
1000
0000
0001
0000
0000
0010
,
0000
0000
0100
0000
1000
0000
0000
1000
,
0000
0000
0100
0000
0000
0000
1000
0100
,
0020
0000
0000
0000
,
0000
0000
0130
0000
,
0000
1000
0000
0000
,
0002
2000
0000
0000
,
0000
0000
3003
0000
,
1000
0001
0100
0010
,
1000
0100
0001
0100
,
1000
1000
0010
0100
,
0010
0001
0010
1000
,
0001
0001
0001
0010
,
0100
0000
0100
0000
1000
0000
1000
0001
,
1000
0000
0000
0001
0100
0000
0000
0001
,
0010
0100
0010
0100
0000
0000
0000
0000
,
0010
0000
0001
0000
1000
0000
0001
0100
,
0010
0000
0100
0000
0001
1000
0100
1000
,
0010
0000
0100
0000
0001
0000
0010
0100
,
1000
0000
1000
0000
0001
1000
0100
1000
,
0001
0000
0010
0000
0001
0000
0100
0001
,
1000
0100
0010
0001
,
1000
0000
0000
0001
1000
0000
0000
1000
,
0001
0000
0000
0001
1000
0000
0000
1000
,
0001
1000
0001
1000
,
0001
1000
0001
1000
0001
1000
0100
0010
,
0100
0000
0020
0000
,
0000
0030
0000
0000
;

//---------------dance-single - ----------------
#NOTES:
     dance-single:
     :
     Beginner:
     3:
     0.219238,0.394458,0.124692,0.019183,0.000000,145.000000,13.000000,2.000000,0.000000,0.000000,0.000000,0.219238,0.394458,0.124692,0.019183,0.000000,145.000000,13.000000,2.000000,0.000000,0.000000,0.000000:
// measure 0
0001
0000
0001
0000
,  // measure 1
1000
0000
0000
0000
,  // measure 2
0010
0000
0010
0000
,  // measure 3
0100
0000
0000
0000
,  // measure 4
2000
0000
0000
0000
,  // measure 5
3000
0000
0000
0000
,  // measure 6
0001
0000
0000
0000
,  // measure 7
1000
0000
0000
0000
,  // measure 8
0010
0000
0100
0000
,  // measure 9
0000
0010
0010
0000
,  // measure 10
0100
0000
0000
0000
,  // measure 11
0001
0000
0000
0000
,  // measure 12
1000
0000
1000
0000
,  // measure 13
0000
0001
0001
0000
,  // measure 14
1000
0000
0000
0000
,  // measure 15
0010
0000
0100
0000
,  // measure 16
0001
0000
0000
0000
,  // measure 17
1000
0000
0010
0000
,  // measure 18
1000
0000
0000
0000
,  // measure 19
0001
0000
1000
0000
,  // measure 20
0110
0000
1001
0000
,  // measure 21
0110
0110
0110
0000
,  // measure 22
0100
0000
0000
0010
,  // measure 23
0010
0000
1000
0001
,  // measure 24
1000
0000
0000
0010
,  // measure 25
0010
0000
0100
0001
,  // measure 26
1000
0000
0000
1000
,  // measure 27
0001
0000
1000
0000
,  // measure 28
1001
0000
1001
0000
,  // measure 29
0110
0000
0010
0010
,  // measure 30
0100
0000
0001
0000
,  // measure 31
0100
0000
0010
0000
,  // measure 32
1000
0000
0001
0000
,  // measure 33
1000
0000
0000
0000
,  // measure 34
0001
0000
1000
1000
,  // measure 35
0000
0000
0001
0001
,  // measure 36
0000
0000
0100
0100
,  // measure 37
0010
0000
1000
0000
,  // measure 38
0001
0000
0000
0000
,  // measure 39
1000
0000
1000
0000
,  // measure 40
0010
0000
0000
0000
,  // measure 41
0100
0000
0100
0000
,  // measure 42
0010
0000
0000
0000
,  // measure 43
1000
0000
0000
0000
,  // measure 44
0001
0000
1000
1000
,  // measure 45
0010
0000
0100
0100
,  // measure 46
0001
0000
1000
0000
,  // measure 47
0010
0000
0100
0000
,  // measure 48
0010
0000
1000
0000
,  // measure 49
0001
0000
0000
0000
,  // measure 50
0000
0000
1000
0000
,  // measure 51
0000
0000
0001
0000
,  // measure 52
0000
0000
1000
0000
,  // measure 53
0000
0000
0000
0010
,  // measure 54
0010
0000
0100
0000
,  // measure 55
0000
0010
0010
0000
,  // measure 56
0000
1000
1000
0000
,  // measure 57
0000
0000
0000
0001
,  // measure 58
0001
0000
0000
0000
,  // measure 59
0000
0000
1001
0000
,  // measure 60
0000
0000
0000
0000
,  // measure 61
0000
0000
0000
0000
,  // measure 62
0000
0000
0000
0000
,  // measure 63
0010
0000
0000
0000
,  // measure 64
0100
0000
0010
0000
,  // measure 65
1000
0000
0000
0000
,  // measure 66
0001
0000
0010
0000
,  // measure 67
0001
0000
0000
0000
,  // measure 68
1000
0000
0100
0000
,  // measure 69
1000
0000
0001
0000
,  // measure 70
1001
1001
1001
0000
,  // measure 71
1000
0000
0000
0010
,  // measure 72
0100
0000
0010
0010
,  // measure 73
1000
0000
0000
0001
,  // measure 74
1000
0000
0010
0010
,  // measure 75
0100
0000
0000
0010
,  // measure 76
1000
0000
0001
0001
,  // measure 77
1000
0000
0001
0000
,  // measure 78
0100
0000
0010
0000
,  // measure 79
1000
1000
1000
1000
,  // measure 80
1000
1000
0001
1000
,  // measure 81
1001
0000
0020
0000
,  // measure 82
0000
0030
0000
0000
;
