#TITLE:Prayer In C;
#SUBTITLE:(Robin Schulz Remix);
#ARTIST:Lilly Wood & The Prick and Robin Schulz;
#TITLETRANSLIT:;
#SUBTITLETRANSLIT:;
#ARTISTTRANSLIT:;
#GENRE:;
#CREDIT:;
#BANNER:banner.png;
#BACKGROUND:Prayer In C (Robin Schulz Remix)-bg.png;
#LYRICSPATH:;
#CDTITLE:;
#MUSIC:Prayer In C (Robin Schulz Remix).ogg;
#OFFSET:-0.100416;
#SAMPLESTART:54.699970;
#SAMPLELENGTH:12.000000;
#SELECTABLE:YES;
#BPMS:0.000000=123.000000
;
#STOPS:
;
#BGCHANGES:;
#KEYSOUNDS:;
#ATTACKS:;

//---------------dance-single - ----------------
#NOTES:
     dance-single:
     :
     Beginner:
     1:
     0.112125,0.097631,0.019143,0.000000,0.000000,80.000000,2.000000,0.000000,0.000000,0.000000,0.000000,0.112125,0.097631,0.019143,0.000000,0.000000,80.000000,2.000000,0.000000,0.000000,0.000000,0.000000:
0000
0000
0000
0000
,
0000
0000
0000
0000
,
0000
0000
0000
0000
,
0000
0000
0000
0000
,
1000
0000
1000
0000
,
0001
0000
0001
0000
,
0100
0000
0100
0000
,
0010
0000
0010
0000
,
1000
0000
1000
0000
,
0100
0000
0100
0000
,
0010
0000
0010
0000
,
0001
0000
0001
0000
,
1001
0000
0000
0000
,
1000
0000
0000
0000
,
0010
0000
0000
0000
,
0100
0000
0000
0000
,
0001
0000
0000
0000
,
0010
0000
0000
0000
,
0100
0000
0000
0000
,
1000
0000
0000
0000
,
0001
0000
0001
0000
,
1000
0000
1000
0000
,
0010
0000
0010
0000
,
0100
0000
0100
0000
,
0001
0000
0001
0000
,
0010
0000
0010
0000
,
0100
0000
0100
0000
,
1000
0000
1000
0000
,
0001
0000
0000
0000
,
1000
0000
1000
0000
,
0010
0000
0000
0000
,
0100
0000
0100
0000
,
0001
0000
0000
0000
,
0010
0000
0010
0000
,
0100
0000
0000
0000
,
1000
0000
1000
0000
,
0001
0000
0001
0000
,
1000
0000
1000
0000
,
0010
0000
0010
0000
,
0100
0000
0000
0000
,
0001
0000
0001
0000
,
0010
0000
0010
0000
,
0100
0000
0100
0000
,
1000
0000
0000
0000
,
1000
0000
1000
0000
,
0010
0000
0010
0000
,
0100
0000
0100
0000
,
0001
0000
0000
0000
,
1000
0000
1000
0000
,
0001
0000
0001
0000
,
0100
0000
0100
0000
,
1001
0000
0000
0000
;

//---------------dance-single - ----------------
#NOTES:
     dance-single:
     :
     Easy:
     3:
     0.188699,0.174204,0.009572,0.095717,0.000000,127.000000,1.000000,10.000000,0.000000,0.000000,0.000000,0.188699,0.174204,0.009572,0.095717,0.000000,127.000000,1.000000,10.000000,0.000000,0.000000,0.000000:
0000
0000
0000
0000
,
0000
0000
0000
0000
,
0000
0000
0000
0000
,
0000
0000
0000
0000
,
1000
0000
0001
0000
,
0100
0000
0010
0010
,
1000
0000
0100
0100
,
1000
0000
0001
0001
,
0010
0000
0001
0000
,
1000
0000
0010
0010
,
0100
0000
0001
0001
,
1000
0000
0100
0100
,
2000
0000
0001
0000
,
3200
0000
0010
0000
,
2300
0000
0010
0000
,
3002
0000
0100
0000
,
0023
0000
0100
0000
,
0032
0000
1000
0000
,
0203
0000
0010
0000
,
0302
0000
0010
0000
,
1003
0000
1000
0000
,
0001
0000
0100
0100
,
0010
0000
1000
1000
,
0100
0000
0010
0010
,
0100
0000
1000
0000
,
0001
0000
0100
0100
,
0010
0000
0100
0100
,
0001
0000
0010
0010
,
0001
0000
1000
0010
,
0100
0100
0001
0100
,
0010
0000
1000
0100
,
0010
0000
0010
0000
,
0001
0000
1000
0010
,
0100
0001
0100
0010
,
1000
0000
0001
0010
,
0100
0000
0100
0000
,
1000
0000
0001
0100
,
0010
0100
0001
0010
,
0100
0000
1000
0100
,
0010
0000
0001
0000
,
0001
0000
1000
0010
,
0100
0010
1000
0100
,
0010
0000
0010
0100
,
1000
0000
0001
0000
,
0001
0000
1000
0010
,
0100
0010
1000
0100
,
0010
0000
0100
1000
,
0010
0000
0010
0000
,
0100
0000
0001
0000
,
1000
0000
0100
0000
,
1000
0000
0001
0000
,
2002
0000
0000
0000
,
3003
0000
0000
0000
;

//---------------dance-single - ----------------
#NOTES:
     dance-single:
     :
     Medium:
     6:
     0.303559,0.323522,0.009572,0.172290,0.000000,203.000000,1.000000,18.000000,0.000000,0.000000,0.000000,0.303559,0.323522,0.009572,0.172290,0.000000,203.000000,1.000000,18.000000,0.000000,0.000000,0.000000:
0000
0000
0000
0000
,
0000
0000
0000
0000
,
0000
0000
0000
0000
,
0000
0000
0000
0000
,
1000
0000
0000
0001
0100
0010
1000
0000
,
0001
0000
0000
1000
0100
0000
1000
0000
,
0001
0000
0000
0010
0001
0100
0010
0000
,
0100
0000
0000
0001
1000
0000
0100
0000
,
1000
0000
0000
0001
0010
0100
1000
0000
,
0001
0000
0000
1000
0010
0000
0100
0000
,
0001
0000
0000
1000
0100
1000
0010
0000
,
1000
0000
0000
0001
0100
0000
0001
0000
,
0020
0000
0000
0100
0100
0230
0000
0000
,
2300
0000
0000
0010
3020
0000
0100
0000
,
0230
0000
0000
0001
0001
0302
0010
0000
,
0023
0000
0000
0100
0230
0000
1000
0000
,
2300
0000
0000
0001
3001
0002
0000
0000
,
0203
0000
0000
0010
0320
0000
1000
0000
,
2030
0000
0000
0100
0100
3200
0010
0000
,
0320
0000
0000
0001
0032
0000
1003
0000
,
1001
0000
0000
1000
0001
0100
0010
0000
,
0100
0000
0000
0001
0010
0000
0100
0000
,
1000
0000
0000
0001
1000
0010
0100
0000
,
0010
0000
0000
1000
0100
0000
1000
0000
,
0001
0000
0000
0100
0010
0100
0001
0000
,
0010
0000
0000
0100
1000
0000
0001
0000
,
0100
0000
0000
0010
0100
0001
0010
0000
,
0100
0000
0000
1000
0001
0000
0001
0000
,
1000
0000
0000
0001
0100
0000
0100
0000
,
0010
0100
0001
0010
,
0100
0000
0000
0100
0001
0000
0100
0000
,
1000
0000
0001
0000
,
1000
0000
0000
0010
0100
0000
0001
0000
,
0100
0010
0100
0001
,
1000
0000
0000
1000
0100
0000
0010
0000
,
0100
0000
1000
1000
,
0001
0000
0000
1000
0010
0100
0010
0000
,
0100
0001
0100
0010
,
1000
0000
0000
0001
0010
0000
0100
0000
,
1000
0000
0001
0001
,
1000
0000
0000
0001
0100
0010
0100
0000
,
0001
1000
0100
0010
,
0100
0000
0000
1000
0001
0000
0001
0000
,
1000
0000
0001
0001
,
1000
0000
0000
0001
0100
0001
0100
0000
,
0010
0000
0100
0001
0100
0000
0010
0000
,
1000
0000
0000
1000
0100
0000
0010
0000
,
0100
0000
1000
1000
,
0001
0000
0000
1000
0010
0000
0100
0000
,
0001
0010
0100
0010
0001
1000
0001
0000
,
1000
0010
0000
0010
0100
0000
0001
0010
,
0200
2000
0000
0000
0000
0000
0000
0000
,
3300
0000
0000
0000
;

//---------------dance-single - ----------------
#NOTES:
     dance-single:
     :
     Hard:
     8:
     0.510033,0.447954,0.181862,0.229720,0.138789,330.000000,19.000000,24.000000,0.000000,0.000000,0.000000,0.510033,0.447954,0.181862,0.229720,0.138789,330.000000,19.000000,24.000000,0.000000,0.000000,0.000000:
// measure 0
0000
0000
0000
0000
,  // measure 1
0000
0000
0000
0000
,  // measure 2
0000
0000
0000
0000
,  // measure 3
0000
0000
0000
0000
,  // measure 4
1000
0000
0010
0000
1000
0000
0001
0000
1000
0000
0100
0000
1000
0000
0000
1000
,  // measure 5
0001
0000
0010
0000
0001
0000
1000
0000
0001
0000
0100
0000
0001
0000
0000
0001
,  // measure 6
1000
0000
0010
0000
0100
0000
0001
0000
0100
0000
0010
0000
1000
0000
0000
1000
,  // measure 7
0001
0000
0010
0000
0100
0000
1000
0000
0100
0000
0010
0000
0001
0000
0000
1000
,  // measure 8
0001
0000
0100
0000
0010
0000
1000
0000
0001
0000
0100
0000
0010
0000
0000
1000
,  // measure 9
0100
0000
0010
0000
0001
0000
1000
0000
0100
0000
0010
0000
0001
0000
0000
0100
,  // measure 10
0010
0000
1000
0000
0001
0000
0100
0000
0010
0000
1000
0000
0001
0000
0000
0010
,  // measure 11
0100
0000
1000
0000
0001
0000
0010
0000
0001
0000
0000
1000
0001
0100
0010
1000
,  // measure 12
0002
0000
0000
0013
0100
1000
0001
0000
,  // measure 13
0200
0000
0000
0310
2000
0000
3002
0000
,  // measure 14
0023
0000
0000
0130
0001
0100
1000
0000
,  // measure 15
0002
0000
0000
1003
0020
0000
0230
0000
,  // measure 16
0302
0000
0000
1003
0100
0001
0100
0000
,  // measure 17
2000
0000
0000
3001
0200
0000
0320
0000
,  // measure 18
0230
0000
0000
0301
0010
0100
1000
0000
,  // measure 19
0200
0000
0000
0000
0000
0000
1300
0000
0010
0000
0100
0001
0100
0000
0010
0000
,  // measure 20
1001
0000
0001
0010
0100
0010
0011
0000
,  // measure 21
0101
0000
0001
0100
0010
0000
1001
0000
,  // measure 22
1100
0000
0100
1000
0010
0100
0110
0000
,  // measure 23
0101
0000
0001
0100
0010
0000
1001
0000
,  // measure 24
1100
0000
1000
0100
0010
0001
0101
0000
,  // measure 25
0011
0000
0001
0100
0010
0000
0110
0000
,  // measure 26
1010
0000
0010
1000
0100
0010
0110
0000
,  // measure 27
1100
0000
0000
0000
1000
0000
0001
0000
0101
0000
0001
0010
0100
0000
0010
0000
,  // measure 28
2002
0000
3003
0001
0100
1000
0100
0001
,  // measure 29
1000
0100
0001
0100
1000
0001
1000
1000
,  // measure 30
0001
0000
0000
1000
0010
0001
0010
1000
,  // measure 31
0100
0010
0000
0010
0001
0000
0011
0000
,  // measure 32
0202
0000
0303
1000
0100
0010
0100
1000
,  // measure 33
0010
0100
1000
0100
0001
0100
1000
0100
,  // measure 34
0001
0000
0000
0001
0010
0100
0001
0100
,  // measure 35
1000
0000
0001
0000
0000
0000
0001
0000
1000
0000
0010
0100
0010
0100
0010
0100
,  // measure 36
0001
0000
0001
0000
0010
0000
0010
0000
0100
0000
0100
0000
1000
0000
0000
1000
,  // measure 37
0001
0000
0001
0000
0100
0000
0100
0000
0010
0000
0010
0000
1000
0000
0000
1000
,  // measure 38
0001
0000
0010
0000
0100
0000
1000
0000
0100
0000
0010
0000
0001
0000
0000
0001
,  // measure 39
0100
0000
0010
0000
0100
0000
0001
0000
0010
0000
0100
0000
1000
0000
0000
1000
,  // measure 40
0100
0000
0010
0000
0001
0000
0100
0000
0010
0000
0100
0000
0001
0000
0000
1000
,  // measure 41
0010
0000
0100
0000
0001
0000
0010
0000
0001
0000
0100
0000
0010
0000
0000
0100
,  // measure 42
0001
0000
0010
0000
0100
0000
1000
0000
0100
0000
0001
0000
0100
0000
0000
1000
,  // measure 43
0001
0000
0100
0000
1000
0000
0100
0000
0001
0000
0000
0010
0001
0010
0001
0010
,  // measure 44
0100
0000
0100
0000
1000
0000
0010
0000
0100
0000
0001
0000
0010
0000
0001
0100
,  // measure 45
0001
0000
0001
0000
1000
0000
0100
0000
1000
0000
0010
0000
0100
0000
0001
1000
,  // measure 46
0001
0000
0001
0000
1000
0000
0100
0000
0010
0000
0100
0000
1000
0000
0010
0100
,  // measure 47
0010
0000
0010
0000
0100
0000
0001
0000
0010
0000
0100
0000
1000
0000
0100
1000
,  // measure 48
0020
0100
0000
0130
0002
0000
1000
0000
,  // measure 49
1003
0100
0001
0100
2000
0001
3001
0000
,  // measure 50
0002
1000
0000
1003
0010
0001
0010
2000
,  // measure 51
0001
0002
0000
0000
0000
0000
0000
0000
,  // measure 52
3003
0000
0000
0000
;
