#VERSION:0.81;
#TITLE:NEFELIBATA;
#SUBTITLE:;
#ARTIST:MNTHA;
#TITLETRANSLIT:;
#SUBTITLETRANSLIT:;
#ARTISTTRANSLIT:;
#GENRE:;
#ORIGIN:;
#CREDIT:;
#BANNER:NEFELIBATA.png;
#BACKGROUND:NEFELIBATA-bg.png;
#PREVIEWVID:;
#JACKET:Nefelibata-jacket.png;
#CDIMAGE:;
#DISCIMAGE:;
#LYRICSPATH:;
#CDTITLE:;
#MUSIC:Nefelibata.ogg;
#OFFSET:-0.060000;
#SAMPLESTART:71.139908;
#SAMPLELENGTH:12.000000;
#SELECTABLE:YES;
#BPMS:0.000=162.000;
#STOPS:;
#DELAYS:;
#WARPS:;
#TIMESIGNATURES:0.000=4=4;
#TICKCOUNTS:0.000=4;
#COMBOS:0.000=1;
#SPEEDS:0.000=1.000=0.000=0;
#SCROLLS:0.000=1.000;
#FAKES:;
#LABELS:0.000=Song Start;
#BGCHANGES:;
#KEYSOUNDS:;
#ATTACKS:
;

//---------------dance-single - ----------------
#NOTEDATA:;
#CHARTNAME:;
#STEPSTYPE:dance-single;
#DESCRIPTION:;
#CHARTSTYLE:;
#DIFFICULTY:Hard;
#METER:8;
#RADARVALUES:0.566432,0.521427,0.018105,0.217261,0.000000,412.000000,2.000000,24.000000,0.000000,0.000000,0.000000,0.000000,0.000000,0.566432,0.521427,0.018105,0.217261,0.000000,412.000000,2.000000,24.000000,0.000000,0.000000,0.000000,0.000000,0.000000;
#CREDIT:;
#NOTES:
// measure 0
0000
0000
0000
0000
,  // measure 1
0000
0000
0000
0000
,  // measure 2
0000
0000
0000
0000
,  // measure 3
0000
0000
0000
0000
,  // measure 4
0002
0000
0100
0100
0000
0000
0010
0000
,  // measure 5
1000
0000
0010
0010
0000
0000
0100
0000
,  // measure 6
0010
0000
1000
1000
0000
0000
1000
0000
,  // measure 7
0010
0000
0100
0100
0000
0000
0010
0000
,  // measure 8
2003
0000
0100
0100
0000
0000
0001
0000
,  // measure 9
0010
0000
0001
0001
0000
0000
0100
0000
,  // measure 10
0010
0000
0100
0100
0000
0000
0010
0000
,  // measure 11
0001
0000
0010
0010
0000
0000
3001
0000
,  // measure 12
0200
0000
0001
0001
0000
0000
0010
0000
,  // measure 13
0001
0000
1000
1000
0000
0000
0010
0000
,  // measure 14
1000
0000
0010
0010
0300
0010
1000
0001
,  // measure 15
0000
0100
0001
1000
0000
0001
1000
0000
,  // measure 16
0001
0100
0001
1000
0100
0000
1000
1000
,  // measure 17
0100
0010
0001
0100
0010
0000
1000
0010
,  // measure 18
0100
0001
0010
0100
1000
0000
0100
0100
,  // measure 19
1000
0010
0100
0001
0010
0000
0001
0010
,  // measure 20
0100
1000
0010
0100
0001
0000
1000
1000
,  // measure 21
0001
0010
0100
1000
0010
0000
0100
0001
,  // measure 22
0010
0100
1000
0100
0010
0000
0001
0001
,  // measure 23
0010
0100
1000
0010
0100
0000
0001
0100
,  // measure 24
0001
0010
0100
1000
0010
0000
0100
0100
,  // measure 25
0010
1000
0001
0010
0100
0000
1000
0100
,  // measure 26
0010
0001
0100
0001
1000
0000
0001
0001
,  // measure 27
0100
0010
1000
0100
0010
0000
0100
1000
,  // measure 28
0010
0100
0001
1000
0100
0000
1000
1000
,  // measure 29
0100
0010
0001
0100
0010
0000
0100
0010
,  // measure 30
1000
0001
0010
0100
1000
0000
0001
0001
,  // measure 31
0100
0001
0010
0100
1000
0000
0010
1000
,  // measure 32
0001
0100
0001
0010
0100
0000
1000
1000
,  // measure 33
0100
0010
0001
0100
0010
0000
0100
0010
,  // measure 34
0100
0001
1000
0001
0010
0000
0001
0001
,  // measure 35
0010
0100
1000
0010
0100
0000
0010
1000
,  // measure 36
0001
0100
0001
0010
0100
0000
0010
0010
,  // measure 37
0100
1000
0010
0100
0001
0000
0100
0001
,  // measure 38
1000
0100
0010
0100
1000
0000
0010
0010
,  // measure 39
1000
0010
0100
0001
0010
0000
0100
0010
,  // measure 40
0001
1000
0001
0100
0010
0000
0100
0100
,  // measure 41
0010
1000
0100
0010
0001
0000
0010
0001
,  // measure 42
1000
0010
0100
0001
1000
0000
0100
0100
,  // measure 43
1000
0001
0010
0001
0100
0000
0001
0100
,  // measure 44
0010
1000
0100
0010
0100
0000
0010
0010
,  // measure 45
0001
1000
0010
0100
0010
0000
0100
0010
,  // measure 46
1000
0001
0010
0100
1000
0000
0100
0100
,  // measure 47
1000
0010
0100
0001
1000
0000
0100
0010
,  // measure 48
0100
0010
0001
0100
0001
1000
0100
0010
,  // measure 49
0100
1000
0001
0100
0001
0010
0100
1000
,  // measure 50
0100
0010
0001
0100
0010
1000
0001
0010
,  // measure 51
0001
1000
0100
0010
0001
0100
0001
1000
,  // measure 52
0100
1000
0010
0100
0001
1000
0001
0010
,  // measure 53
0100
1000
0100
0010
0001
1000
0001
0100
,  // measure 54
0010
0010
0010
0020
0000
1000
1030
2000
,  // measure 55
0000
3100
0010
0001
1000
0010
0100
0001
,  // measure 56
1000
1000
1000
2000
0000
3100
0100
0200
,  // measure 57
0000
0310
0010
0001
0000
1001
0000
0110
,  // measure 58
1000
0010
0100
0001
0010
0001
1000
0100
,  // measure 59
0010
0100
1000
0001
0100
0001
1000
0001
,  // measure 60
0010
0100
1000
0100
0010
0001
0100
0001
,  // measure 61
0010
0100
1000
0100
0010
0100
1000
0010
,  // measure 62
0100
0001
1000
0001
0010
0100
1000
0010
,  // measure 63
0100
0001
1000
0100
0001
0100
2000
0000
,  // measure 64
0000
0000
0000
0000
,  // measure 65
0000
0000
0000
0000
,  // measure 66
0000
3000
0000
0002
,  // measure 67
0023
0230
2300
3020
,  // measure 68
0230
0302
2003
0000
,  // measure 69
0000
0000
0000
0000
0000
3002
0000
0023
,  // measure 70
0000
0230
0000
2300
0000
3020
0000
0230
,  // measure 71
0000
0000
0000
0302
0000
2000
0000
0000
,  // measure 72
3003
0000
0000
0000
;

//---------------dance-single - ----------------
#NOTEDATA:;
#CHARTNAME:;
#STEPSTYPE:dance-single;
#DESCRIPTION:;
#CHARTSTYLE:;
#DIFFICULTY:Beginner;
#METER:1;
#RADARVALUES:0.085353,0.147104,0.000000,0.009053,0.000000,65.000000,0.000000,1.000000,0.000000,0.000000,0.000000,0.000000,0.000000,0.085353,0.147104,0.000000,0.009053,0.000000,65.000000,0.000000,1.000000,0.000000,0.000000,0.000000,0.000000,0.000000;
#CREDIT:;
#NOTES:
0000
0000
0000
0000
,
0000
0000
0000
0000
,
0000
0000
0000
0000
,
0000
0000
0000
0000
,
0010
0000
0000
0000
,
0000
0000
0000
0000
,
0000
0000
0000
0000
,
0000
0000
0000
0000
,
1000
0000
0000
0000
,
0000
0000
0000
0000
,
0000
0000
0000
0000
,
0000
0000
0000
0000
,
0001
0000
0000
0000
,
0000
0000
0000
0000
,
0100
0000
0000
0000
,
0100
0000
0000
0000
,
0010
0000
0000
0000
,
1000
0000
0000
0000
,
0001
0000
0000
0000
,
0010
0000
0000
0000
,
0100
0000
0000
0000
,
0001
0000
0000
0000
,
1000
0000
0000
0000
,
0010
0000
0000
0000
,
0100
0000
0000
0000
,
0001
0000
0000
0000
,
0010
0000
0000
0000
,
1000
0000
0000
0000
,
0001
0000
0000
0000
,
0100
0000
0000
0000
,
0001
0000
0000
0000
,
0010
0000
0000
0000
,
1000
0000
0000
0000
,
0001
0000
0000
0000
,
0100
0000
0000
0000
,
0010
0000
0000
0000
,
1000
0000
0000
0000
,
0100
0000
0000
0000
,
0010
0000
0000
0000
,
0100
0000
0000
0000
,
0001
0000
0000
0000
,
0010
0000
0000
0000
,
1000
0000
0000
0000
,
0100
0000
0000
0000
,
0001
0000
0000
0000
,
0010
0000
0000
0000
,
0100
0000
0000
0000
,
0001
0000
0000
0000
,
1000
0000
1000
0000
,
0001
0000
0001
0000
,
0010
0000
0010
0000
,
0100
0000
0100
0000
,
0001
0000
0001
0000
,
1000
0000
1000
0000
,
0010
0000
0100
0000
,
0010
0000
0000
0000
,
1000
0000
0001
0000
,
1000
0000
0000
0000
,
0100
0000
0010
0000
,
0100
0000
0000
0000
,
0001
0000
1000
0000
,
0001
0000
0000
0000
,
0010
0000
1000
0000
,
0001
0000
0000
0200
,
0000
0000
0000
0000
,
0300
0000
0000
0000
;

//---------------dance-single - ----------------
#NOTEDATA:;
#CHARTNAME:;
#STEPSTYPE:dance-single;
#DESCRIPTION:;
#CHARTSTYLE:;
#DIFFICULTY:Easy;
#METER:3;
#RADARVALUES:0.206916,0.264787,0.000000,0.072420,0.000000,152.000000,0.000000,8.000000,0.000000,0.000000,0.000000,0.000000,0.000000,0.206916,0.264787,0.000000,0.072420,0.000000,152.000000,0.000000,8.000000,0.000000,0.000000,0.000000,0.000000,0.000000;
#CREDIT:;
#NOTES:
0000
0000
0000
0000
,
0000
0000
0000
0000
,
0000
0000
0000
0000
,
0000
0000
0000
0000
,
0200
0000
0000
0000
,
0000
0000
0000
0000
,
0000
0000
0000
0000
,
0000
0000
0000
0300
,
0002
0000
0000
0000
,
0000
0000
0000
0000
,
0000
0000
0000
0000
,
0000
0000
0000
0003
,
0020
0000
0000
0000
,
0000
0000
0000
0000
,
0000
0000
0030
0001
,
1000
0001
0000
0100
,
0010
1000
0100
1000
,
0001
0100
0001
0001
,
0000
0100
0001
1000
,
0100
1000
0010
0010
,
0000
1000
0010
0100
,
0001
1000
0100
0100
,
0000
1000
0100
0010
,
0100
1000
0001
0001
,
0000
0100
0001
0010
,
0100
1000
0010
0010
,
0000
0100
0010
1000
,
0001
0100
0001
0001
,
0000
0010
0001
0010
,
0100
0010
0001
0001
,
0000
1000
0001
0100
,
0010
1000
0100
0100
,
0000
1000
0100
1000
,
0010
0100
0001
0001
,
0000
0100
0010
1000
,
0010
0100
0001
0001
,
0000
0100
0001
1000
,
0100
1000
0010
0010
,
0000
0100
0010
1000
,
0001
0100
0001
0001
,
0000
0100
0001
0010
,
0200
0300
0010
0001
,
0000
0100
0001
1000
,
0200
0300
1000
0010
,
0000
0100
0010
1000
,
0001
0100
0001
0001
,
0000
0010
0001
0100
,
0010
1000
0100
0100
,
1000
0000
0000
0000
,
0100
0000
0010
0000
,
0001
0000
0000
0000
,
0000
1000
0001
0100
,
0010
0000
0000
0000
,
0100
0000
0010
0000
,
1000
0000
0001
0000
,
0200
0000
0300
0000
,
0010
0000
1000
0000
,
0002
0000
1000
1000
,
1003
0000
0100
0000
,
0010
0000
0001
0000
,
0100
0000
0010
0000
,
1000
0000
0001
0000
,
0100
0001
1000
0100
,
0010
0100
1000
0002
,
0000
0000
0000
0000
,
0003
0000
0000
0000
;

//---------------dance-single - ----------------
#NOTEDATA:;
#CHARTNAME:;
#STEPSTYPE:dance-single;
#DESCRIPTION:;
#CHARTSTYLE:;
#DIFFICULTY:Medium;
#METER:5;
#RADARVALUES:0.324599,0.323629,0.000000,0.027158,0.000000,248.000000,0.000000,3.000000,0.000000,0.000000,0.000000,0.000000,0.000000,0.324599,0.323629,0.000000,0.027158,0.000000,248.000000,0.000000,3.000000,0.000000,0.000000,0.000000,0.000000,0.000000;
#CREDIT:;
#NOTES:
0000
0000
0000
0000
,
0000
0000
0000
0000
,
0000
0000
0000
0000
,
0000
0000
0000
0000
,
1000
0001
0000
0001
,
0100
0010
0000
0010
,
0100
0001
0000
1000
,
0001
0100
0000
0001
,
1000
0100
0000
1000
,
0100
0010
0000
0100
,
0010
0001
0000
0100
,
0001
1000
0000
0001
,
1000
0100
0000
1000
,
0100
0010
0000
0100
,
1000
0000
0010
0100
0000
0000
0001
0000
,
1000
0000
0100
0010
0000
0000
0001
0000
,
0100
0000
0010
1000
0100
0000
0010
0000
,
0001
0100
0001
1000
,
0100
0000
0010
0100
1000
0000
0010
0000
,
0100
0001
1000
0100
,
0010
0000
0100
0010
0001
0000
1000
0000
,
0010
0100
0001
1000
,
0100
0000
1000
0100
0010
0000
0001
0000
,
0100
0010
1000
0001
,
0100
0000
0001
0010
0100
0000
1000
0000
,
0010
0100
0001
1000
,
0100
0000
0010
0100
1000
0000
0010
0000
,
0100
0001
1000
0100
,
0010
0000
0001
1000
0010
0000
0100
0000
,
0010
1000
0001
0100
,
0001
0000
0010
0100
1000
0000
0100
0000
,
0010
0000
0001
0000
1000
0000
0010
0100
,
0010
0000
1000
0000
0001
0000
0100
0001
,
0010
0100
1000
0010
,
1000
0000
0001
0000
0100
0000
0001
0100
,
0010
1000
0100
0010
,
0100
0000
1000
0000
0010
0000
0100
0010
,
1000
0001
0100
0001
,
0010
0000
0100
0000
0010
0000
0001
0010
,
0100
1000
0010
0100
,
0001
0000
1000
0000
0100
0000
0010
0100
,
1000
0010
0100
0001
,
1000
0000
0100
0010
0001
0000
0100
0000
,
0010
1000
0100
1000
,
0001
0000
0100
0000
0010
0000
1000
0010
,
0100
0001
1000
0100
,
0010
0000
0001
0000
0100
0000
0001
0010
,
0100
1000
0010
0100
,
0010
0000
1000
0010
0000
0000
0100
0000
,
0001
0000
0010
0001
0000
0000
0010
0000
,
0100
0000
1000
0100
0000
0000
0010
0000
,
0100
0000
1000
0001
0000
0000
0100
0000
,
0001
0000
1000
0100
0000
0000
0010
0000
,
0100
0000
1000
0010
0000
0000
0100
0000
,
0001
1000
0001
0010
0000
0100
0010
0200
,
0000
0000
0000
0300
,
1000
0001
0100
0010
0000
0100
0010
2000
,
0000
0000
0000
0001
0000
0001
0000
3001
,
0100
0000
0010
1000
0000
0000
0100
0000
,
0010
0000
0001
0100
0000
0000
0001
0000
,
1000
0000
0100
0010
0000
0000
0001
0000
,
0100
0000
0010
1000
0000
0000
0001
0000
,
0100
0000
0001
0010
0000
0000
0100
0000
,
1000
0000
0100
0010
0000
0000
0002
0000
,
0000
0000
0000
0000
,
0003
0000
0000
0000
;
