#TITLE:Magic;
#SUBTITLE:;
#ARTIST:Nhato;
#TITLETRANSLIT:;
#SUBTITLETRANSLIT:;
#ARTISTTRANSLIT:;
#GENRE:;
#CREDIT:Loodee;
#BANNER:magic-bn.png;
#BACKGROUND:magic-bg.png;
#LYRICSPATH:;
#CDTITLE:loodeecdtitle.png;
#MUSIC:Magic.ogg;
#OFFSET:-0.006;
#SAMPLESTART:45.017;
#SAMPLELENGTH:15.000;
#SELECTABLE:YES;
#DISPLAYBPM:128.000;
#BPMS:0.000=128.000,192.000=64.000;
#STOPS:;
#BGCHANGES:;
#KEYSOUNDS:;

//---------------dance-single - Loodee----------------
#NOTES:
     dance-single:
     Loodee:
     Challenge:
     10:
     0.757,0.915,0.064,0.480,0.971:
0000
0000
0000
0000
,
0000
0000
0000
0000
,
0000
0000
0000
0000
,
0000
0000
0000
0000
,
1000
0010
1000
0001
,
0100
0010
1000
0010
,
1000
0100
0010
0001
,
0100
0001
1000
0001
,
1000
0100
0010
0001
1000
0010
0100
0010
,
1000
0000
0100
0010
0100
0000
1000
0000
0001
0100
0001
0000
0010
0000
0100
0000
,
1000
0000
0010
0100
0001
0000
0100
0000
0001
1000
0100
0000
0010
0000
0100
0000
,
0010
0000
0001
1000
0010
0000
0100
0000
0001
0000
1000
0000
0001
0000
1000
0000
,
0100
0010
0001
0100
0010
1000
0001
0100
,
0001
1000
0001
1000
0001
0010
0100
1000
0010
0100
0001
1000
0010
0100
0001
1000
,
0200
0000
0000
0000
0000
0000
0000
0000
0000
0000
0000
0000
0000
0000
0000
0000
0000
0000
0000
0000
0000
0300
0000
0000
0011
0000
0000
0000
0000
0000
0000
0000
0001
0000
0000
0000
0000
0000
0000
0000
0100
0000
0000
0000
0000
0000
0000
0000
,
1000
0100
0010
1000
0001
0010
0100
0010
1000
0010
0100
1000
0000
0010
0100
0001
,
2000
0000
3010
0000
0101
0000
0000
0000
0011
0000
0000
0001
0010
0100
0010
0001
,
0100
0000
0000
0000
0000
0000
0000
0000
0000
0010
0000
0000
1000
0000
0001
0000
0100
0000
0001
0000
1000
0000
0001
0000
0010
0000
0000
0000
0000
0000
0000
0000
0000
0010
0000
0000
0200
0000
0000
0000
0000
0000
0000
0000
0000
0000
0000
0000
,
2300
0000
0000
0000
3010
0000
0100
2000
0000
3100
0002
0000
0013
0100
1000
0100
,
0010
0000
0010
0000
0001
0100
0010
1000
0001
0010
0100
0010
0001
0100
0001
0010
,
0100
1000
0010
0100
0020
0000
0000
0000
1030
0000
0100
0010
0000
0100
1000
0000
,
0100
0000
1000
0010
0000
1000
0001
0000
0020
0000
0130
1000
0000
1000
0010
0000
,
0100
0000
0001
0000
1000
0000
0002
0000
0000
0000
0000
0000
1003
0000
0000
0100
0000
0000
0010
0000
0000
0001
0000
0000
1000
0000
0000
0100
0000
0000
1000
0000
0000
0010
0000
0000
1000
0000
0000
0001
0000
0000
0100
0000
0000
0001
0000
0000
,
0000
0020
0000
0000
2030
0000
0000
3002
0000
0000
0203
0000
0000
2300
0000
0000
,
3001
0000
0000
0010
0000
0000
0100
0000
1000
0000
0001
0000
0100
0000
0000
0000
0000
0000
0000
0000
0000
0000
0000
0000
1010
0000
0000
0000
0000
0000
0000
0000
0000
0010
0000
0000
1000
0000
0000
0100
0000
0000
0010
0000
0000
0001
0000
0000
,
0100
0000
0000
0000
0000
0000
0000
0000
0000
0100
0000
0000
0010
0000
0000
1000
0000
0000
0010
0000
0000
0100
0000
0000
0001
0000
0000
0000
0000
0000
0000
0000
0000
1000
0000
0000
0001
0000
0010
0000
0100
0000
0010
0000
0001
0000
1000
0000
,
0002
0000
0000
0000
0103
0000
1000
0200
0000
0310
0002
0000
0013
0100
0001
1000
,
0100
0000
0100
0010
0100
1000
0010
0100
0001
1000
0100
1000
0010
0100
0001
0010
,
0100
0010
0001
1000
0020
0000
0000
0000
0130
0000
0001
1000
0000
0001
0010
0000
,
0100
0000
1000
0100
0000
1000
0010
0000
0200
0000
0301
0010
0000
0010
0001
0000
,
1000
0020
0000
0000
0032
0000
0000
2003
0000
0000
3200
0000
0000
0302
0000
0000
,
0023
0000
0000
0230
0000
0000
2300
0000
0000
0000
0000
0000
3001
0000
000M
0000
,
0001
0010
0100
1000
0002
0000
0103
0010
1000
0001
1000
0000
0100
0010
0001
0100
,
0001
0010
0000
0001
0010
0000
0100
0000
1000
0010
0000
1000
0010
0000
0100
0000
,
0001
0000
0000
0010
0000
0000
0100
0000
0000
1000
0000
0000
0010
0000
0000
0000
0100
0000
0000
0000
1000
0000
0000
0000
0200
0000
0000
0000
0000
0000
0301
0000
0000
0010
0000
0000
0001
0000
0000
0000
0000
0000
0100
0000
0000
0000
0000
0000
,
1000
0000
0000
0100
0000
0000
0000
0000
0000
1000
0000
0000
0100
0000
0000
0000
0000
0000
1000
0000
0000
0100
0000
0000
0002
0000
0000
0000
0000
0000
0000
0000
0000
0000
0000
0000
1003
0000
0100
0000
0010
0000
0001
0000
1000
0000
0100
0000
,
0010
0100
1000
0001
0200
0000
0310
0000
0100
0001
1000
0000
0100
1000
0001
1000
,
0010
0100
0000
0010
0100
0000
0001
0000
1000
0100
0000
1000
0100
0000
0010
0000
,
0001
0000
0000
0100
0000
0000
0010
0000
0000
1000
0000
0000
0001
0000
0010
0000
0001
0000
0010
0000
0100
0000
0010
0000
0002
0000
0000
0000
0000
0000
1003
0000
0000
0010
0000
0000
1000
0000
0000
0100
0000
0000
0000
0000
0000
0010
0000
0000
,
0001
0000
0000
1000
0000
0000
0001
0000
0000
0100
0000
0000
0001
0000
0000
1000
0000
0000
0010
0000
0000
0100
0000
0000
0010
0000
0000
1000
0000
0000
0100
0000
0000
1000
0000
0000
0010
0000
1000
0000
0001
0000
1000
0000
0100
0000
0010
0000
,
0001
0000
0100
0000
0110
0000
0000
0000
0101
0000
0000
0001
1000
0010
1000
0100
,
0010
0000
0000
0000
0000
0000
0000
0000
0000
0001
0000
0000
0010
0000
0000
0001
0000
0000
0100
0000
0000
0001
0000
0000
0010
0000
0000
0000
0000
0000
0000
0000
0000
0010
0000
0000
0100
0000
1000
0000
0001
0000
1000
0000
0010
0000
0100
0000
,
0002
0000
0000
0000
0013
0000
1000
0020
0000
0130
2000
0000
3001
0100
0010
1000
,
0010
0000
0010
1000
0010
0100
0001
0010
0100
1000
0100
0010
0001
0100
0001
1000
,
0010
1000
0001
0010
0002
0000
0000
0000
0103
0000
0001
1000
0000
0001
0010
0000
,
0100
0000
0010
0001
0000
0010
0100
0000
2000
0000
3010
0100
0000
0100
0010
0000
,
0100
2000
0000
0000
3200
0000
0000
0302
0000
0000
0023
0000
0000
2030
0000
0000
,
3002
0000
0000
0203
0000
0000
2300
0000
0000
0000
0000
0000
3010
0000
00M0
0000
,
0000
0000
0000
0000
,
0M00
0000
0000
0000
;

//---------------dance-single - Loodee----------------
#NOTES:
     dance-single:
     Loodee:
     Hard:
     8:
     0.494,0.528,0.160,0.427,0.203:
0000
0000
0000
0000
,
0000
0000
0000
0000
,
0000
0000
0000
0000
,
0000
0000
0000
0000
,
1000
0001
1000
0010
,
0100
0001
1000
0001
,
0010
0100
0010
0001
,
1000
0001
1000
0010
,
1000
0100
0010
0001
1000
0010
1000
0001
,
0010
0100
1000
0010
0100
0001
1000
0100
,
0010
0100
1000
0001
0100
0001
0010
0100
,
0010
0001
1000
0010
1000
0100
1000
0001
,
0100
0001
1000
0010
0100
0001
1000
0100
,
0010
0001
0100
0010
1000
0100
1000
0010
,
0200
0000
0000
0000
0000
0000
0000
0000
0000
0300
0000
0000
0101
0000
0000
0000
0001
0000
0000
0000
1000
0000
0000
0000
,
0001
0100
1000
0100
0001
0000
0010
0000
,
0011
0000
1001
0000
1010
0000
1000
0001
,
0100
0000
0001
0000
1000
0001
1000
0001
0100
0000
0000
0000
0120
0000
0000
0000
,
2030
0000
0000
0000
3100
0000
0000
0010
0000
0000
0002
0000
1003
0000
0010
0000
,
1000
1000
0100
0010
0001
0100
0010
1000
,
0100
0000
0010
0000
0002
0000
0000
0000
0103
0000
0000
0010
0000
0000
1000
0000
,
0100
0000
0000
0010
0000
0000
0100
0000
1000
0000
0000
0000
0010
0000
0000
0000
,
0202
0000
0000
0303
0001
0000
0010
0000
1000
0000
0010
0000
0100
0000
1000
0000
,
0000
0002
0000
0000
0203
0000
0000
2300
0000
0000
3200
0000
0000
0320
0000
0000
,
1030
0000
1100
0000
0101
0000
0001
0010
,
0100
0000
0000
0000
1000
0010
1000
0001
1000
0000
0000
0000
0400
0000
0000
0300
,
0022
0000
0000
0033
1000
0000
0000
0010
0000
0000
0200
0000
0310
0000
1000
0000
,
0001
0001
1000
0010
0100
0010
1000
0100
,
0010
0000
0100
0000
2000
0000
0000
0000
3100
0000
0000
0010
0000
0000
0001
0000
,
0100
0000
0000
0010
0000
0000
1000
0000
0100
0000
0000
0000
0010
0000
0000
0000
,
0000
0002
0000
0000
0023
0000
0000
2030
0000
0000
3020
0000
0000
0032
0000
0000
,
2003
0000
0000
3020
0000
0000
0230
0000
0000
0000
0000
0000
0301
0000
0000
0000
,
0001
0000
0010
0000
0100
0000
1000
0001
1000
0000
0010
0000
0100
0000
0001
0000
,
1000
0000
0000
1000
0000
0000
0010
0000
0100
0000
0000
0100
0000
0000
0001
0000
,
0010
0000
0000
0100
0000
0000
1000
0000
0001
0000
1000
0000
0001
0000
0000
0100
0000
0000
0001
0000
0000
0100
0000
0000
,
1000
0000
0000
1000
0000
0000
1000
0000
0200
0000
0000
0000
0304
0000
0000
0003
,
1001
0000
2000
3100
0010
0100
1000
0010
,
0100
0000
0000
0100
0000
0000
0001
0000
1000
0000
0000
1000
0000
0000
0100
0000
,
0010
0000
0001
0000
0100
0010
0100
0010
1000
0000
0001
0000
1000
0000
0000
0000
,
2200
0000
0000
0000
0000
0000
0000
3000
0020
0000
0000
0000
0000
0000
0000
0330
,
0000
0000
0101
0000
1010
0000
0010
0001
,
0010
0000
0000
0000
1000
0010
1000
0010
1000
0000
0000
0000
0400
0000
0000
0300
,
2200
0000
0000
3300
0001
0000
0000
0100
0000
0000
0010
0000
1000
0000
0100
0000
,
1000
1000
0001
0100
0010
1000
0001
0010
,
0100
0000
1000
0000
0020
0000
0000
0000
0130
0000
0000
0100
0000
0000
0001
0000
,
0010
0000
0000
0010
0000
0000
0001
0000
1000
0000
0000
0000
0010
0000
0000
0000
,
0000
0200
0000
0000
2300
0000
0000
3200
0000
0000
0302
0000
0000
2003
0000
0000
,
3200
0000
0000
0320
0000
0000
0032
0000
0000
0000
0000
0000
0103
0000
0000
0000
,
1001
0000
0000
0000
,
0000
0000
00M0
0000
;

//---------------dance-single - Loodee----------------
#NOTES:
     dance-single:
     Loodee:
     Medium:
     6:
     0.375,0.407,0.085,0.139,0.011:
0000
0000
0000
0000
,
0000
0000
0000
0000
,
0000
0000
0000
0000
,
0000
0000
0000
0000
,
0001
1000
0001
0010
,
0100
1000
0100
1000
,
0010
1000
0001
0100
,
0001
0010
0100
1000
,
0001
1000
0001
1000
0001
0010
0100
0010
,
0001
0100
0010
0100
0010
1000
0001
1000
,
0100
0010
0100
1000
0100
0010
0100
1000
,
0001
0100
0001
1000
0001
1000
0100
0010
,
0001
0100
0010
1000
0001
0100
0010
1000
,
0001
1000
0001
1000
0001
1000
0001
0010
,
0200
0000
0000
0000
0000
0000
1300
0000
0010
0000
0100
0000
,
2002
0000
0000
3003
,
1000
0000
0101
0000
0101
0000
0001
1000
,
0100
0000
0010
0100
1000
0000
0020
0000
,
0230
0000
0301
0000
1000
0000
0100
0010
,
0001
0001
1000
0010
0100
0001
1000
0010
,
0100
0000
0002
0000
0013
0000
0000
0010
,
0100
0000
0000
0100
1000
0000
0001
0000
,
0101
0000
0100
0000
0001
0010
0100
1000
,
0001
0000
0000
0000
,
0001
0000
1010
0000
1010
0000
1000
0100
,
0010
0000
0100
0100
1000
0001
1000
0000
,
0200
0000
0310
0000
0001
0000
0100
0010
,
1000
0010
1000
0100
0010
0001
1000
0100
,
0010
0000
0200
0000
1300
0000
0000
1000
,
0010
0000
0000
0010
0100
0000
0001
0000
,
1000
0100
0010
0001
,
0100
0000
0000
0000
,
0100
0010
1000
1000
0100
0000
1000
0100
,
0010
0000
0010
0001
1000
0000
1000
0010
,
0100
0000
0001
0000
0001
0001
0010
0100
,
1000
1000
1000
0020
,
0130
0001
1000
0000
0100
0000
0010
0001
,
0010
0000
0010
0001
1000
0000
1000
0100
,
1000
0000
0010
0010
0100
0000
0001
0100
,
0002
0000
0000
0000
2000
0000
0000
3003
,
0000
0000
0011
0000
0011
0000
0001
1000
,
0010
0000
0100
0100
0010
0000
1000
0100
,
0020
0000
0031
0000
0100
0000
0010
1000
,
0100
0100
1000
0001
0010
0001
1000
0001
,
0010
0100
2000
0000
3010
0000
0000
0010
,
0100
0000
0000
0100
0001
0000
1000
0000
,
0100
0010
0001
0100
,
0010
0000
0000
1000
;

//---------------dance-single - Loodee----------------
#NOTES:
     dance-single:
     Loodee:
     Easy:
     3:
     0.221,0.230,0.064,0.075,0.000:
0000
0000
0000
0000
,
0000
0000
0000
0000
,
0000
0000
0000
0000
,
0000
0000
0000
0000
,
0001
0000
1000
0000
,
0100
0000
1000
0000
,
0001
0000
0100
0000
,
0001
0000
1000
0000
,
0001
0010
0100
1000
,
0001
0100
0010
1000
,
0001
0100
0010
0100
,
0001
1000
0100
1000
,
0010
1000
0100
0010
,
0001
1000
0001
1000
,
0002
0000
1003
0000
,
0020
0000
0000
0030
,
1000
0100
1100
0000
,
1100
0000
1000
0020
,
0130
0001
0000
0001
,
1000
0010
0010
0010
,
1000
0100
0010
0000
,
0001
0000
1000
0010
,
2000
0000
3001
0001
,
0001
0000
0000
0000
,
0000
0100
0101
0000
,
0101
0000
1000
0100
,
2000
3010
0000
0100
,
0001
0010
0010
0010
,
0100
1000
0100
0000
,
0010
0000
0001
0100
,
0001
1000
0001
1000
,
0100
0000
0000
0000
,
1000
0001
0000
0001
,
0010
0010
0100
0100
,
1000
0010
0100
0010
,
1000
1000
1000
0000
,
0001
0010
0000
0010
,
0001
0001
0100
0100
,
0010
1000
0001
0010
,
0200
0000
0000
0000
,
1300
0001
1001
0000
,
1001
0000
0001
0100
,
0020
0130
0000
0100
,
0001
1000
1000
1000
,
0100
0010
0001
0000
,
0100
0000
0010
1000
,
0001
1000
0001
1000
,
0010
0000
0000
0000
,
0100
0000
0000
0000
;
