#TITLE:Landing on the moon;
#SUBTITLE:(Instrumental Version);
#ARTIST:Unknown artist;
#TITLETRANSLIT:;
#SUBTITLETRANSLIT:;
#ARTISTTRANSLIT:;
#GENRE:;
#CREDIT:;
#BANNER:Landing on the moon (Instrumental Version)-banner.png;
#BACKGROUND:Landing on the moon (Instrumental Version)-bg.png;
#LYRICSPATH:;
#CDTITLE:;
#MUSIC:Landing on the moon (Instrumental Version).mp3;
#OFFSET:-0.960;
#SAMPLESTART:44.418;
#SAMPLELENGTH:12.000;
#SELECTABLE:YES;
#BPMS:0.000=138.000;
#STOPS:;
#BGCHANGES:;
#KEYSOUNDS:;

//---------------dance-single - Blank----------------
#NOTES:
     dance-single:
     Blank:
     Beginner:
     1:
     0.108,0.114,0.070,0.000,0.000:
0000
0000
0000
0000
,
0000
0000
0000
0000
,
0000
0000
0000
0000
,
0000
0000
0000
0000
,
1000
0000
0000
0000
,
0010
0000
0000
0000
,
0010
0000
0000
0000
,
0000
0000
0000
0000
,
1000
0000
1000
0000
,
0000
0000
0000
0000
,
0010
0000
0010
0000
,
0000
0000
0000
0000
,
0100
0000
0100
0000
,
0000
0000
0000
0000
,
1001
0000
0000
0000
,
1001
0000
0000
0000
,
0001
0000
0000
0000
,
1000
0000
0000
0000
,
0010
0000
0100
0000
,
0000
0000
0000
0000
,
0010
0000
0000
0000
,
0100
0000
0000
0000
,
0001
0000
1000
0000
,
0000
0000
0000
0000
,
1000
0000
0000
0000
,
1000
0000
0000
0000
,
0100
0000
0000
0000
,
0100
0000
0000
0000
,
1000
0000
0000
0000
,
1000
0000
0000
0000
,
0010
0000
0000
0000
,
0010
0000
0000
0000
,
0100
0000
0000
0000
,
0001
0000
0000
0000
,
1001
0000
0000
0000
,
1001
0000
0000
0000
,
0001
0000
0001
0000
,
1000
0000
1000
0000
,
0010
0000
0010
0000
,
0110
0000
0000
0000
,
0100
0000
0100
0000
,
0001
0000
0001
0000
,
1000
0000
1000
0000
,
1001
0000
0000
0000
,
1000
0000
0100
0000
,
0001
0000
0010
0000
,
1000
0000
0000
0000
,
1000
0000
0000
0000
,
0000
0000
0000
0000
,
0001
0000
0001
0000
,
0100
0000
0100
0000
,
0010
0000
0010
0000
,
1000
0000
1000
0000
,
0001
0000
0001
0000
,
0100
0000
0100
0000
,
1000
0000
1000
0000
,
0010
0000
0010
0110
;

//---------------dance-single - Novice----------------
#NOTES:
     dance-single:
     Novice:
     Easy:
     3:
     0.181,0.228,0.201,0.000,0.000:
0000
0000
0000
0000
,
0000
0000
0000
0000
,
0000
0000
0000
0000
,
0000
0000
0000
0000
,
1000
0000
0010
0000
,
0100
0000
0001
0000
,
1000
0000
0001
0000
,
1000
0000
1000
1001
,
0001
0000
0001
0000
,
0100
0000
0010
0000
,
1000
0000
1000
0100
,
0001
0000
0001
0100
,
1000
0000
0010
0000
,
0100
0000
0001
0000
,
1001
0000
1000
0000
,
1001
0000
0001
0000
,
0101
0000
0000
0000
,
1010
0000
0000
0000
,
0110
0000
0010
0000
,
0110
0000
0100
0000
,
1010
0000
0000
0000
,
0101
0000
0000
0000
,
1000
0000
1000
0000
,
0001
0000
0001
0100
,
0100
0000
0001
0000
,
0100
0000
0010
0000
,
1000
0000
0010
0000
,
0110
0000
0000
0000
,
1000
0000
0001
0000
,
1000
0000
0001
0000
,
0100
0000
0001
0000
,
1001
0000
0000
0000
,
0010
0000
1000
0000
,
0010
0000
0100
0000
,
0001
0000
0100
0000
,
0101
0000
0000
0000
,
0001
0000
1000
0000
,
0001
0000
0010
0000
,
0001
0000
1000
0000
,
1010
0000
0000
0000
,
0100
0100
0100
0000
,
0001
0001
0001
0000
,
1000
1000
1000
0000
,
1001
0000
0000
0000
,
1000
0100
0001
0010
,
1000
0001
0100
0010
,
0110
0000
0000
0000
,
0110
0000
0000
0000
,
1000
0000
0001
0000
,
1000
0000
0100
0000
,
0100
0000
0010
0000
,
0010
0000
0001
0000
,
0101
0000
0000
0000
,
0001
0000
0100
0000
,
1000
0000
0010
0000
,
0001
0000
1000
0000
,
1001
0000
1001
0110
;

//---------------dance-single - Easy----------------
#NOTES:
     dance-single:
     Easy:
     Medium:
     5:
     0.310,0.285,0.070,0.161,0.000:
0000
0000
0000
0000
,
0000
0000
0000
0000
,
0000
0000
0000
0000
,
0000
0000
0000
0000
,
1000
0001
0001
0100
,
0001
1000
1000
0100
,
0010
0100
0100
1000
,
0002
0103
2000
3010
,
0100
1000
0001
0000
,
1010
0000
1100
1100
,
2000
0001
0000
3001
,
0200
1000
0000
0301
,
1000
0001
0100
0000
,
0101
0000
0011
0011
,
2000
0000
0000
0001
3000
0000
0000
0000
,
0002
1000
1003
0000
,
0001
0100
0001
0000
0020
0000
0030
0000
,
1000
0001
1000
0000
0200
0000
0300
0000
,
1000
0000
0010
0000
1000
0001
1000
0000
,
0001
0000
0001
0000
0100
0010
0100
0000
,
0010
1000
0010
0000
0200
0000
0300
0000
,
0001
1000
0001
0000
2000
0000
3000
0000
,
0100
0010
0001
1000
,
1000
0100
0010
0001
,
1000
0001
0100
0001
,
1000
0001
0010
0001
,
0010
0100
0010
0100
,
1000
0000
1000
0002
,
1003
0010
1000
0001
,
1000
0100
1000
0010
,
0100
0010
1000
0002
,
1003
0000
1000
0001
,
1000
0100
0010
0100
,
0001
0100
0010
0100
,
1000
0100
0010
0002
,
1003
0000
0010
1000
,
0100
0010
0100
0010
,
1000
0010
0001
0010
,
0100
0010
0100
2000
,
3001
0000
1000
0000
,
0001
0000
0100
0000
0010
0100
0010
0000
,
1000
0000
0010
0000
1000
0001
1000
0000
,
1000
0100
0001
0010
,
1000
0000
0000
0000
0001
1000
0001
0000
,
1000
0000
0010
0000
1000
0001
1000
0000
,
0010
0000
0100
0000
0001
0100
0001
0000
,
2000
0000
0000
0001
3000
0000
0000
0000
,
0002
0100
0103
0000
,
0010
1000
0000
1000
,
0001
0010
0100
0000
,
0001
0100
1000
0000
,
0010
0100
0001
0000
,
1001
0000
1000
0000
,
1000
0010
0100
0000
,
1000
0100
0001
0000
,
0100
0010
0100
0000
,
1000
0000
0001
0000
1000
0100
0100
0000
;

//---------------dance-single - Medium----------------
#NOTES:
     dance-single:
     Medium:
     Hard:
     6:
     0.411,0.456,0.060,0.271,0.125:
0000
0000
0000
0000
,
0000
0000
0000
0000
,
0000
0000
0000
0000
,
0000
0000
0000
0000
,
1000
0000
0001
0100
0001
0000
0000
0100
,
0001
0000
1000
0100
1000
0000
0000
0010
,
1000
0000
0010
0100
0010
0000
0010
0000
,
2000
0001
3002
0103
,
0010
0000
0000
0000
1000
0000
0000
0001
0000
0000
0000
0000
1000
0000
0000
0000
,
0001
0000
1000
0100
0010
0000
0001
0000
,
2000
0000
0000
0001
0000
0000
3001
0000
0000
0000
0000
0000
1000
0000
0000
0000
,
0001
0000
0010
0000
0001
0100
0001
0000
,
1000
0000
0000
0000
0001
0000
0000
1000
0000
0000
0000
0000
0001
0000
0000
0000
,
1000
0000
0001
0100
0010
0000
0100
0000
,
0020
0000
0000
1000
0000
0000
1000
0000
0030
0000
0000
0000
1000
0000
0010
0000
,
0200
0000
0000
0000
0010
0000
0000
0010
0000
0300
0000
0000
0010
0000
1000
0000
,
0010
0000
0000
0000
1000
0000
0000
0001
0000
0000
1000
0000
0000
0000
0010
0000
,
0100
0000
0000
0000
0010
0000
0000
1000
0000
0000
0010
0000
0000
0000
0100
0000
,
0001
0000
1000
0000
0001
0100
1000
0000
,
0100
0000
0001
0000
1000
0001
1000
0001
,
0100
0000
0000
0000
0001
0000
0000
0100
0000
0000
0001
0000
0000
0000
1000
0000
,
0010
0000
0000
0000
0100
0000
0000
0010
0000
0000
0100
0000
0000
0000
0001
0000
,
0100
0000
0001
0000
1000
0001
1000
0000
,
0001
0000
0000
0000
1000
0000
0000
0010
0000
0000
0010
0000
1000
0000
0000
0000
,
2000
0001
0001
0100
,
3020
1000
0100
1000
,
0032
0010
0100
1003
,
0010
0000
1000
0000
0010
0000
0000
0000
1000
0000
0000
1000
0000
0000
0001
0000
,
0002
2003
3020
2030
,
3200
0302
0023
2030
,
3002
0203
2300
3010
,
1000
0000
0010
0000
1000
0000
0000
0000
0010
0000
0000
0010
0000
0000
0100
0000
,
0200
0010
0010
0301
,
2000
0100
0001
3100
,
0020
0001
0100
1030
,
0100
0000
0001
0000
0100
0000
0000
0000
0001
0000
0000
1000
0000
0000
0001
0000
,
2000
3010
1100
0101
,
0002
1003
0110
1001
,
0020
0130
1100
0011
,
1000
0000
0100
0000
1000
0000
0000
0000
0001
0000
0000
1000
0000
0000
1000
0000
,
0001
0000
0000
0000
0000
0000
0000
0000
0100
0010
0000
0000
0000
0000
0000
0000
0100
0000
0000
0000
0000
0000
0000
0000
0010
0000
0000
0000
0000
0000
0000
0000
,
1000
0010
0000
0000
0000
0000
0000
0000
1000
0000
0000
0000
0000
0000
0000
0000
0010
0000
0000
0000
0000
0000
0000
0000
1000
0000
0000
0000
0000
0000
0000
0000
,
0001
0100
0000
0000
0000
0000
0000
0000
0001
0000
0000
0000
0000
0000
0000
0000
0010
0000
0000
0000
0000
0000
0000
0000
0100
0000
0000
0000
0000
0000
0000
0000
,
1000
0000
0001
0000
0100
0000
0000
0000
0010
0000
0000
0100
0000
0000
0010
0000
,
1000
0000
0000
0000
0000
0000
0000
0000
0001
1000
0000
0000
0000
0000
0000
0000
0001
0000
0000
0000
0000
0000
0000
0000
0100
0000
0000
0000
0000
0000
0000
0000
,
0010
1000
0000
0000
0000
0000
0000
0000
0010
0000
0000
0000
0000
0000
0000
0000
0100
0000
0000
0000
0000
0000
0000
0000
0001
0000
0000
0000
0000
0000
0000
0000
,
0100
0000
0000
0010
0000
0000
1000
0000
0000
0000
0000
0000
0100
0000
0010
0000
,
0100
0000
0000
0000
0100
0000
0000
0001
0000
0000
0000
0000
1000
0000
0000
0000
,
0000
0000
0000
0000
1000
0000
0000
0000
0010
0000
0000
0100
0000
0000
0100
0000
,
0010
0000
1000
0001
0200
0000
0300
0001
,
0100
0000
0001
1000
0020
0000
0030
1000
,
0010
0000
0000
0000
1000
0000
0000
0000
0001
0000
0000
0001
0000
0000
1000
0000
,
0010
0000
1000
0010
1000
0000
0001
0100
,
0010
0000
1000
0010
0001
0000
0000
0010
,
0100
0000
0100
0010
1000
0000
0000
1000
,
0100
0000
0001
1000
0010
0000
0100
0000
,
0001
0000
0000
0000
0001
0000
0000
1000
0000
0000
1000
0000
0010
0000
0000
0000
;
