#TITLE:Jana jana;
#SUBTITLE:;
#ARTIST:Arman Tovmasyan feat. Ksenona;
#TITLETRANSLIT:;
#SUBTITLETRANSLIT:;
#ARTISTTRANSLIT:;
#GENRE:Armenian Electro Pop;
#CREDIT:Telperion;
#BANNER:[Drop the Zero] - Jana jana.png;
#JACKET:[Drop the Zero] - Jana jana-jacket.png;
#BACKGROUND:[Drop the Zero] - Jana jana-bg.png;
#LYRICSPATH:;
#CDTITLE:cdtitle.png;
#MUSIC:[Drop the Zero] - Jana jana.ogg;
#OFFSET:-1.963;
#SAMPLESTART:61.972;
#SAMPLELENGTH:15.000;
#SELECTABLE:YES;
#BPMS:0=128
;
#STOPS:
;
#BGCHANGES:;
#KEYSOUNDS:;
#ATTACKS:;

//---------------dance-single - Telperion----------------
#NOTES:
     dance-single:
     Telperion:
     Challenge:
     9:
     0.583059,0.555979,0.197243,0.212416,0.375521,484.000000,26.000000,28.000000,50.000000,0.000000,5.000000,0.583059,0.555979,0.197243,0.212416,0.375521,484.000000,26.000000,28.000000,50.000000,0.000000,5.000000:
MMMM
0000
0000
0001
1000
0001
0010
0010
,
0100
1000
0001
0000
1000
0010
1000
0100
,
0010
0001
1000
0010
0001
0010
1000
0001
,
0100
0010
0100
0000
0002
0000
2000
0000
,
3003
0000
0000
1000
0001
1000
0100
0020
,
0001
0130
1000
0000
0001
0010
0001
0100
,
0010
1000
0001
0010
1000
0010
0001
1000
,
0020
0000
0000
0000
0000
0000
0000
0000
0000
0000
0000
0000
0000
0000
0000
0000
0000
0000
0000
0000
0000
0000
0000
0030
MMMM
0000
0000
0000
0000
0000
0000
0000
0000
0000
0000
0000
0000
0000
0000
0000
0000
0000
0000
0000
0000
0000
0000
0000
,
0010
0000
0000
1000
0000
0000
0001
0000
0011
0000
1000
0000
0001
0000
0010
0000
,
0100
0000
0000
1000
0000
0000
0001
0000
0101
0000
1000
0000
0001
0000
0100
0000
,
0010
0000
0000
1000
0000
0000
0010
0000
0110
0000
0100
0000
0001
0000
0100
0000
,
0010
0000
0000
0000
0000
0000
1000
0000
0000
0000
0000
0000
0100
0000
0000
0000
0000
0000
0000
0000
0000
0000
0000
0000
0002
0000
0000
0000
0000
0000
0000
0000
0000
0000
0000
0000
0200
0000
0000
0000
0000
0000
0000
0000
0000
0000
0000
0303
,
M010
0000
0000
0001
M000
0000
0010
0000
1100
0000
1000
0000
0001
0000
0100
0000
,
0010
0000
0000
1000
0000
0000
0010
0000
0101
0000
0001
0000
1000
0000
0100
0000
,
0010
0010
0001
0100
1010
0010
0100
0001
,
1000
0001
0010
0000
0012
0000
10M3
0100
,
M01M
0000
0000
0010
0000
0000
0010
0000
0000
0010
0000
0000
0010
0000
0000
0010
,
0000
0000
0010
0000
0000
0010
0000
0000
0010
0000
0001
0000
2000
0000
0000
0000
,
3M1M
0000
0000
0010
0000
0000
0010
0000
0000
0010
0000
0000
0010
0000
0000
0010
,
0000
0000
0010
0000
0000
0010
0000
0000
0100
0000
0001
0000
0200
0000
0000
0000
,
0310
0000
1000
0010
0000
0000
0010
0000
0001
0010
0000
0000
0010
0000
1000
0010
,
0000
0000
0010
0000
0001
0010
0000
0000
0010
0000
1000
0001
2000
0000
0100
0000
,
3001
0000
0100
0001
0000
0000
1010
0000
1000
0100
0000
0000
0011
0000
0000
1MM1
,
0000
0000
1010
0000
0000
0011
0000
0000
2100
0000
0000
0001
0000
0000
3100
0000
,
100M
0000
0000
0000
0000
0000
0000
0000
0000
0000
0000
0000
0000
0100
0000
0000
0010
0000
0000
0000
0000
0000
0000
0000
0001
0000
0000
0000
0000
0000
0000
0000
1000
0000
0000
0000
0000
0000
0000
0000
0100
0000
0000
0000
0000
0010
0000
0000
0001
0000
0000
0000
0000
0000
0000
0000
1000
0000
0000
0000
0000
0000
0000
0000
,
0100
0000
0000
0000
0000
0000
0000
0000
0000
0000
0000
0000
0000
0001
0000
0000
0100
0000
0000
0000
0000
0000
0000
0000
1000
0000
0000
0000
0000
0000
0000
0000
0100
0000
0000
0000
0000
0000
0000
0000
0001
0000
0000
0000
0000
0100
0000
0000
1000
0000
0000
0000
0000
0000
0000
0000
0001
0000
0000
0000
0000
0000
0000
0000
,
0100
0000
0000
0000
0000
0000
0000
0000
0000
0000
0000
0000
0000
0010
0000
0000
1000
0000
0000
0000
0000
0000
0000
0000
0001
0000
0000
0000
0000
0000
0000
0000
0100
0000
0000
0000
0000
0000
0000
0000
0010
0000
0000
0000
0000
1000
0000
0000
0001
0000
0000
0000
0000
0000
0000
0000
0100
0000
0000
0000
0000
0000
0000
0000
,
0010
0000
0000
0000
0000
0000
0000
0000
0000
0000
0000
0000
0000
0001
0000
0000
0010
0000
0000
0000
0000
0000
0000
0000
1000
0000
0000
0000
0000
0000
0000
0000
0010
0000
0000
0000
0000
0000
0000
0000
0001
0000
0000
0000
0000
0010
0000
0000
1000
0000
0000
0000
0000
0000
0000
0000
0001
0000
0000
0000
0000
0000
0000
0000
,
0010
0000
0000
0000
0000
0000
0000
0000
0000
0000
0000
0000
0000
0100
0000
0000
1000
0000
0000
0000
0000
0000
0000
0000
0001
0000
0000
0000
0000
0000
0000
0000
0010
0000
0000
0000
0000
0000
0000
0000
0100
0000
0000
0000
0000
1000
0000
0000
0001
0000
0000
0000
0000
0000
0000
0000
0010
0000
0000
0000
0000
0000
0000
0000
,
0100
0000
0000
0000
0000
0000
0000
0000
0000
0000
0000
0000
0000
0010
0000
0000
1000
0000
0000
0000
0000
0000
0000
0000
0010
0000
0000
0000
0000
0000
0000
0000
0001
0000
0000
0000
0000
0000
0000
0000
0010
0000
0000
0000
0000
1000
0000
0000
0010
0000
0000
0000
0000
0000
0000
0000
0001
0000
0000
0000
0000
0000
0000
0000
,
1000
0000
0000
0000
0000
0000
0000
0000
0000
0000
0000
0000
0000
0010
0000
0000
0100
0000
0000
0000
0000
0000
0000
0000
0001
0000
0000
0000
0000
0000
0000
0000
1000
0000
0000
0000
0000
0000
0000
0000
0010
0000
0000
0000
0000
0100
0000
0000
0001
0000
0000
0000
0000
0000
0000
0000
1000
0000
0000
0000
0000
0000
0000
0000
,
0010
0000
0000
0000
0000
0000
0000
0000
0000
0000
0000
0000
0000
0100
0000
0000
1000
0000
0000
0000
0000
0000
0000
0000
0100
0000
0000
0000
0000
0000
0000
0000
0001
0000
0000
0000
0000
0000
0000
0000
0100
0000
0000
0000
0000
1000
0000
0000
0100
0000
0000
0000
0000
0000
0000
0000
0001
0000
0000
0000
0000
0000
0000
0000
,
1000
0000
0000
0000
0000
0000
0000
0000
0100
0000
0000
0000
0000
0010
0000
0000
0000
0000
0000
0000
0000
0000
0000
0000
0001
0000
0000
0000
0000
0000
0000
0000
1000
0000
0000
0000
0000
0000
0000
0000
0100
0000
0000
0000
0000
0010
0000
0000
0001
0000
0000
0000
0000
0000
0000
0000
1000
0000
0000
0000
0000
0000
0000
0000
,
0100
0000
0000
0000
0000
0000
0000
0000
0001
0000
0000
0000
0000
0100
0000
0000
0000
0000
0000
0000
0000
0000
0000
0000
1000
0000
0000
0000
0000
0000
0000
0000
0001
0000
0000
0000
0000
0000
0000
0000
0100
0000
0000
0000
0000
0000
0000
0000
0001
0000
0000
0000
0000
0000
0000
0000
0100
0000
0000
0000
0000
0000
0000
0000
,
0010
0000
0000
0000
0000
0000
0000
0000
1000
0000
0000
0000
0000
0010
0000
0000
0000
0000
0000
0000
0000
0000
0000
0000
0100
0000
0000
0000
0000
0000
0000
0000
0001
0000
0000
0000
0000
0000
0000
0000
1000
0000
0000
0000
0000
0010
0000
0000
0100
0000
0000
0000
0000
0000
0000
0000
0001
0000
0000
0000
0000
0000
0000
0000
,
1000
0000
0000
0000
0000
0000
0000
0000
0010
0000
0000
0000
0000
0001
0000
0000
0000
0000
0000
0000
0000
0000
0000
0000
0010
0000
0000
0000
0000
0000
0000
0000
1000
0000
0000
0000
0000
0000
0000
0000
0100
0000
0000
0000
0000
0000
0000
0000
1000
0000
0000
0000
0000
0000
0000
0000
0100
0000
0000
0000
0000
0000
0000
0000
,
00M0
0000
0000
0000
0000
0000
0000
0000
0000
0000
0000
0000
0000
0001
0000
0000
0000
0000
0000
0000
0000
0000
0000
0000
0010
0000
0000
0000
0000
0000
0000
0000
0200
0000
0000
0000
0000
0000
0000
0000
0000
0000
0000
0000
0000
1000
0000
0000
0000
0000
0000
0000
0000
0000
0000
0000
0310
0000
0000
0000
0000
0000
0000
0000
,
0002
0000
0000
0000
0000
0000
0000
0000
0000
0000
0000
0000
0000
1000
0000
0000
0000
0000
0000
0000
0000
0000
0000
0000
0103
0000
0000
0000
0000
0000
0000
0000
0010
0000
0000
0000
0000
0000
0000
0000
0001
0000
0000
0000
0000
0010
0000
0000
1000
0000
0000
0000
0000
0000
0000
0000
0010
0000
0000
0000
0000
0000
0000
0000
,
0100
0000
0000
0000
0000
0000
0000
0000
0000
0000
0000
0000
0000
0001
0000
0000
0000
0000
0000
0000
0000
0000
0000
0000
0100
0000
0000
0000
0000
0000
0000
0000
0010
0000
0000
0000
0000
0000
0000
0000
0000
0000
0000
0000
0000
1000
0000
0000
0000
0000
0000
0000
0000
0000
0000
0000
0010
0000
0000
0000
0000
0000
0000
0000
,
0100
0000
0000
0000
0000
0000
0000
0000
0000
0000
0000
0000
0000
0001
0000
0000
0000
0000
0000
0000
0000
0000
0000
0000
0010
0000
0000
0000
0000
0000
0000
0000
0100
0000
0000
0000
0000
0000
0000
0000
1000
0000
0000
0000
0000
0001
0000
0000
1000
0000
0000
0000
0000
0000
0000
0000
0100
0000
0000
0000
0000
0000
0000
0000
,
0000
1000
0000
0001
0000
0200
0000
0310
,
MMMM
0000
0001
0000
1000
0001
0000
0000
0101
0000
0000
0001
1000
0000
0001
0000
,
MMMM
0000
1000
0000
0001
1000
0000
0000
1100
0000
0010
0100
4000
0000
0000
0000
,
3MMM
0000
0001
0000
1000
0001
0000
0000
0011
0000
0000
1000
0040
0000
0000
0000
,
MM3M
0000
1000
0000
0001
1000
0000
0000
1010
0000
0010
0100
0002
0000
0003
0000
,
MM2M
0000
0000
0000
0000
0000
0000
0000
0000
0000
0000
0030
1100
0000
0000
0000
0000
0000
0010
0000
0000
0000
0000
0000
0001
0000
0000
0000
0000
0000
0000
0000
0000
1010
0000
0000
0000
0000
0000
0000
0000
0000
0001
0000
0000
0000
0000
0000
,
0200
0000
0000
0000
0000
0000
0000
0000
0000
0000
0000
0300
1010
0000
0000
0000
0000
0000
0100
0000
0000
0000
0000
0000
0001
0000
0000
0000
0000
0000
0010
0000
0000
0100
0000
0000
2000
0000
0000
0000
0000
0000
0000
0000
0000
0000
0000
0000
,
3020
0000
0000
0000
0000
0000
0000
0000
0000
0000
0000
0030
0101
0000
0000
0000
0000
0000
0010
0000
0000
0000
0000
0000
1000
0000
0000
0000
0000
0000
0000
0000
0000
0010
0000
0000
0004
0000
0000
0000
0000
0000
1000
0000
0000
0000
0000
0000
,
M003
0000
1000
0000
0011
0000
0010
0000
0100
0000
1000
0000
1000
0001
0100
0001
,
1000
0100
0010
0002
1000
0000
0000
0000
0000
0000
0000
0000
0013
0000
0000
0000
00MM
0000
0100
0000
0000
0000
1000
0000
0001
0000
0000
0000
0100
0000
0000
0000
,
2020
0000
0000
0000
0000
0000
0000
0000
0000
0000
0000
3030
0100
0000
0000
0000
0000
0000
0001
0000
0000
0000
0000
0000
1000
0000
0000
0000
0000
0000
0001
0000
0000
0000
0000
0000
0001
0000
0000
0100
0000
0000
1000
0000
0000
0100
0000
0000
,
0002
0000
0000
0000
0013
0000
0100
0000
1000
0000
0001
1000
0040
0000
0000
0000
,
0230
0000
0000
0000
0301
0000
1000
0000
M00M
1000
0001
1000
0002
0000
1000
0000
,
0013
0000
0110
0000
0110
0000
1000
0000
0010
1000
0001
1000
0100
0000
0010
0000
,
00M2
0000
0000
0000
1003
0000
1010
0000
00M0
0000
0001
0000
1000
0100
0001
0100
,
1000
0010
1000
0000
0001
0000
0100
0000
000M
0000
0001
0000
0040
0000
0000
0000
,
0230
0000
0000
0000
0000
0000
0000
0000
0000
1300
0000
0000
0010
0000
0000
0000
0000
0000
1000
0000
0000
0000
0000
0000
0001
0000
0000
0000
0010
0000
0000
0000
0100
0000
0000
0000
1000
0000
0000
0000
0000
0000
0000
0000
0000
0000
0000
0000
,
0001
0000
0000
0000
0000
0000
0000
0000
0000
0000
0000
0000
0000
0100
0000
0000
0010
0000
0000
0000
0000
0000
0000
0000
1000
0000
0000
0000
0000
0000
0000
0000
0001
0000
0000
0000
0000
0000
0000
0000
0100
0000
0000
0000
0000
0010
0000
0000
1000
0000
0000
0000
0000
0000
0000
0000
0001
0000
0000
0000
0000
0000
0000
0000
,
0100
0000
0000
0000
0000
0000
0000
0000
0000
0000
0000
0000
0000
1000
0000
0000
0100
0000
0000
0000
0000
0000
0000
0000
0001
0000
0000
0000
0000
0000
0000
0000
0100
0000
0000
0000
0000
0000
0000
0000
1000
0000
0000
0000
0000
0100
0000
0000
0001
0000
0000
0000
0000
0000
0000
0000
1000
0000
0000
0000
0000
0000
0000
0000
,
0100
0000
0000
0000
0000
0000
0000
0000
0000
0000
0000
0000
0000
0010
0000
0000
0001
0000
0000
0000
0000
0000
0000
0000
1000
0000
0000
0000
0000
0000
0000
0000
0100
0000
0000
0000
0000
0000
0000
0000
0010
0000
0000
0000
0000
0001
0000
0000
1000
0000
0000
0000
0000
0000
0000
0000
0100
0000
0000
0000
0000
0000
0000
0000
,
0010
0000
0000
0000
0000
0000
0000
0000
0000
0000
0000
0000
0000
1000
0000
0000
0010
0000
0000
0000
0000
0000
0000
0000
0001
0000
0000
0000
0000
0000
0000
0000
0010
0000
0000
0000
0000
0000
0000
0000
1000
0000
0000
0000
0000
0010
0000
0000
0001
0000
0000
0000
0000
0000
0000
0000
1000
0000
0000
0000
0000
0000
0000
0000
,
0010
0000
0000
0000
0000
0000
0000
0000
0000
0000
0000
0000
0000
0100
0000
0000
0001
0000
0000
0000
0000
0000
0000
0000
1000
0000
0000
0000
0000
0000
0000
0000
0010
0000
0000
0000
0000
0000
0000
0000
0100
0000
0000
0000
0000
0001
0000
0000
1000
0000
0000
0000
0000
0000
0000
0000
0010
0000
0000
0000
0000
0000
0000
0000
,
0100
0000
0000
0000
0000
0000
0000
0000
0000
0000
0000
0000
0000
0010
0000
0000
0001
0000
0000
0000
0000
0000
0000
0000
0010
0000
0000
0000
0000
0000
0000
0000
1000
0000
0000
0000
0000
0000
0000
0000
0010
0000
0000
0000
0000
0001
0000
0000
0010
0000
0000
0000
0000
0000
0000
0000
1000
0000
0000
0000
0000
0000
0000
0000
,
0001
0000
0000
0000
0000
0000
0000
0000
0000
0000
0000
0000
0000
0010
0000
0000
0100
0000
0000
0000
0000
0000
0000
0000
1000
0000
0000
0000
0000
0000
0000
0000
0001
0000
0000
0000
0000
0000
0000
0000
0010
0000
0000
0000
0000
0100
0000
0000
1000
0000
0000
0000
0000
0000
0000
0000
0001
0000
0000
0000
0000
0000
0000
0000
,
0010
0000
0000
0000
0000
0000
0000
0000
0000
0000
0000
0000
0000
0100
0000
0000
0001
0000
0000
0000
0000
0000
0000
0000
0100
0000
0000
0000
0000
0000
0000
0000
1000
0000
0000
0000
0000
0000
0000
0000
0100
0000
0000
0000
0000
0000
0000
0000
0010
0000
0000
0000
0000
0000
0000
0000
0001
0000
0000
0000
0000
0000
0000
0000
,
2000
0M00
0000
00M0
0000
000M
0000
0000
,
3000
00M0
0000
0M00
0000
M000
0000
0000
;

//---------------dance-single - Telperion----------------
#NOTES:
     dance-single:
     Telperion:
     Hard:
     7:
     0.431334,0.400555,0.136553,0.326210,0.113794,337.000000,18.000000,43.000000,0.000000,0.000000,0.000000,0.431334,0.400555,0.136553,0.326210,0.113794,337.000000,18.000000,43.000000,0.000000,0.000000,0.000000:
0000
0000
0000
0000
,
0000
0000
0000
0000
,
0000
0000
0000
0000
,
0000
0000
0000
0000
,
0000
0000
0000
0000
,
0000
0000
0000
0000
,
0000
0000
0000
0000
,
0000
0000
0110
0000
,
1001
0000
0000
1000
0000
0000
0001
0000
0010
0000
0000
0000
0000
0000
0000
0000
,
1001
0000
0000
0001
0000
0000
1000
0000
0010
0000
0000
0000
0000
0000
0000
0000
,
0110
0000
0000
0100
0000
0000
0001
0000
1000
0000
0000
0000
0000
0000
0000
0000
,
1100
0000
0000
0010
0000
0000
0001
0000
0020
0000
0000
0000
0230
0000
1300
0000
,
0001
0000
0000
1000
0000
0000
0010
0000
0110
0000
0000
0000
0000
0000
0000
0000
,
1000
0000
0000
0001
0000
0000
0010
0000
0110
0000
0000
0000
0000
0000
0000
0000
,
0001
0000
0000
1000
0000
0000
0100
0000
1100
0000
0000
0000
0001
0000
0100
0000
,
0001
0000
1001
0000
0201
0000
0301
1000
,
0010
0000
0000
1000
0000
0000
0001
0000
0000
1000
0000
0000
0010
0000
0000
1000
,
0000
0000
0001
0000
0000
1000
0000
0000
0010
0000
1000
0000
0002
0000
0000
0000
,
0013
0000
0000
0001
0000
0000
0010
0000
0000
0100
0000
0000
0010
0000
0000
0001
,
0000
0000
0010
0000
0000
0100
0000
0000
0010
0000
0001
0000
2000
0000
0000
0000
,
3010
0000
0000
1000
0000
0000
0010
0000
0000
0100
0000
0000
0010
0000
0000
1000
,
0000
0000
0010
0000
0000
0100
0000
0000
0010
0000
1000
0000
0002
0000
0000
0000
,
0013
0000
0000
0001
0000
0000
1000
0000
0000
0001
0000
0000
0010
0000
0000
0110
,
0000
0000
1100
0000
0000
0101
0000
0000
1001
0000
0000
0000
0000
0000
0000
0000
,
1000
0100
0010
0001
0100
0010
1000
0001
,
0010
0100
1000
0010
0100
0100
0001
0001
,
1000
0010
0100
0001
0010
0100
1000
0001
,
0100
0010
1000
0001
0010
0010
0100
0100
,
0000
0000
1000
0100
0010
0001
0100
0010
,
1000
0001
0010
0001
1000
0010
1000
0010
,
0100
0001
0010
0100
1000
0001
0100
0010
,
1000
0001
0010
0001
1000
0100
1000
0100
,
0020
0000
0031
1000
0020
0000
0130
0001
,
2000
0000
3001
0010
1000
0010
1000
0010
,
0002
0000
0103
0010
2000
0000
3001
0010
,
0200
0000
1300
0010
0001
0010
0001
0010
,
0000
0000
1000
0001
0200
0000
0310
1000
,
0002
0000
0013
0100
0001
0100
0001
0100
,
2000
0000
3001
0100
0020
0000
1030
0100
,
0020
0000
0031
0100
1000
0100
1000
0100
,
0000
0000
0000
0000
,
0012
1000
0013
0200
,
2300
0001
3100
0012
,
2003
0001
3010
0200
,
0302
1000
0103
0200
,
0310
0000
0000
0000
1000
0000
0010
0000
1000
0000
0000
0011
0000
0000
1000
0000
,
0020
0000
0130
0001
1000
0001
0020
0000
,
0130
0000
0000
0000
0100
0000
0010
0000
0001
0000
0000
1010
0000
0000
0001
0000
,
0020
0000
0130
1000
0001
0000
0200
0000
,
1000
0000
0300
0100
0000
0010
1000
0200
,
0001
0000
0300
0100
0000
1000
0010
0200
,
1000
0000
0300
0100
0000
0001
0010
0001
,
2000
0000
0000
0000
3000
0000
1000
0000
0001
1000
0001
1000
0001
0000
0000
0000
,
0010
0010
0010
0000
0100
1000
0001
0200
,
0010
0000
0300
0100
0001
1000
0100
0010
,
0001
1000
0001
0000
0001
0000
0000
0000
1000
0000
0000
0000
0010
0000
0100
0000
,
0020
0000
0000
0030
0000
0000
1000
0100
0010
0002
0000
0000
,
2003
0000
3010
1000
0100
0010
0001
1000
,
0010
0100
0001
0010
0100
0100
0010
0010
,
0001
1000
0100
1000
0010
0100
0001
0100
,
0010
1000
0100
1000
0010
0010
0100
0100
,
0002
0000
0103
0010
2000
0000
3001
0010
,
0200
0000
1300
0100
0001
0100
0001
0100
,
2000
0000
3010
0100
0002
0000
1003
0100
,
0020
0000
0031
0100
1000
0100
1000
0100
,
0002
0000
0000
0000
,
0003
0000
0000
0000
;

//---------------dance-single - Telperion----------------
#NOTES:
     dance-single:
     Telperion:
     Medium:
     4:
     0.301284,0.345176,0.106208,0.235175,0.056897,233.000000,14.000000,31.000000,0.000000,0.000000,0.000000,0.301284,0.345176,0.106208,0.235175,0.056897,233.000000,14.000000,31.000000,0.000000,0.000000,0.000000:
0000
0000
0000
0000
,
0000
0000
0000
0000
,
0000
0000
0000
0000
,
0000
0000
0000
0000
,
0000
0000
0000
0000
,
0000
0000
0000
0000
,
0000
0000
0000
0000
,
0000
0000
0000
0000
,
1000
0000
0000
0010
0000
0000
1000
0000
0000
0000
0000
0000
0000
0000
0000
0000
,
0001
0000
0000
0100
0000
0000
0001
0000
0000
0000
0000
0000
0000
0000
0000
0000
,
1000
0000
0000
0100
0000
0000
1000
0000
0000
0000
0000
0000
0000
0000
0000
0000
,
0001
0000
1100
0000
,
0001
0000
0000
0010
0000
0000
0001
0000
0000
0000
0000
0000
0000
0000
0000
0000
,
1000
0000
0000
0100
0000
0000
1000
0000
0000
0000
0000
0000
0000
0000
0000
0000
,
0001
0100
0010
0000
,
1000
1000
0001
1000
,
1010
0000
0000
0000
,
0000
0000
0000
0000
0001
1000
0001
0000
,
0011
0000
0000
0000
,
0000
0000
0000
0000
1000
0001
1000
0000
,
1010
0000
0000
1000
0000
0000
0010
0000
0000
1000
0000
0000
0010
0000
0000
1000
,
0000
0000
0010
0000
0000
1000
0000
0000
0001
0000
0000
0000
0000
0000
0000
0000
,
0010
0000
0000
0001
0000
0000
0010
0000
0000
0001
0000
0000
0010
0000
0000
0100
,
0000
0000
0100
0000
0000
0100
0000
0000
0100
0000
0000
0000
0000
0000
0000
0000
,
1000
0001
0000
0010
0000
0001
0000
0010
,
0000
0100
0000
1000
0001
0001
1000
1000
,
0000
0010
0000
0100
0000
0001
0000
0100
,
0000
0010
0000
1000
0001
0001
1000
1000
,
0000
0001
0000
0010
0000
0100
0000
1000
,
0000
0100
0000
0010
0001
1000
0001
1000
,
0000
0010
0000
0100
0000
0001
0000
1000
,
0000
0010
0000
0100
0001
1000
0001
1000
,
0200
0000
0010
0000
1300
0000
0001
1000
,
0200
0000
0010
0000
1300
0100
1000
0100
,
0020
0000
0001
0000
0130
0000
1000
0001
,
0020
0000
0100
0000
0031
0100
0001
0100
,
0020
0000
1000
0000
0130
0000
0001
0100
,
0020
0000
0100
0000
1030
0001
1000
0001
,
0200
0000
0010
0000
0301
0000
1000
0001
,
0200
0000
0010
0000
0301
1000
0001
1000
,
0000
0000
0000
0000
,
0100
0110
0100
0110
,
1000
0000
1001
0000
0001
1000
0020
0000
,
0130
0110
0100
0210
,
0301
0000
1001
0000
1000
0001
0020
0000
,
0130
0000
1001
1000
0100
0000
0010
0001
,
0100
0000
1001
0001
0100
0000
0020
0000
,
0130
0000
1001
0001
0100
0000
0020
0000
,
1030
0000
1001
0000
1000
0000
0001
1000
,
0020
0030
0010
0010
,
0200
0000
0301
0000
1000
0000
0001
0010
,
0200
1300
0001
2000
,
3020
0000
1030
0000
0001
0010
0200
0000
,
0320
0001
0031
0000
1000
0000
0010
1000
,
0020
0000
0130
0000
0001
1000
0200
0000
,
0310
0001
0010
0000
0100
0000
1000
0001
,
0200
0000
0000
0310
0000
0000
1000
0001
1000
0001
0000
0000
,
0200
0000
0000
0000
,
0000
0000
0000
0300
0020
0000
2030
0000
,
3200
0000
0000
0000
0000
0000
0000
0300
,
0001
1000
0001
0010
,
0200
0000
0000
0000
,
0302
0103
2000
3001
,
0200
0000
0000
0000
0000
0000
0000
0300
,
0010
1000
0001
0010
,
0100
0000
0000
0000
;

//---------------dance-single - Telperion----------------
#NOTES:
     dance-single:
     Telperion:
     Easy:
     3:
     0.182071,0.197243,0.121380,0.068276,0.003793,143.000000,16.000000,9.000000,0.000000,0.000000,0.000000,0.182071,0.197243,0.121380,0.068276,0.003793,143.000000,16.000000,9.000000,0.000000,0.000000,0.000000:
0000
0000
0000
0000
,
0000
0000
0000
0000
,
0000
0000
0000
0000
,
0000
0000
0000
0000
,
0000
0000
0000
0000
,
0000
0000
0000
0000
,
0000
0000
0000
0000
,
0000
0000
0000
0000
,
1000
0000
1010
0000
,
0001
0000
0011
0000
,
1000
0000
1100
0000
,
0001
0000
0000
0000
0101
0000
0000
1000
,
1000
0000
1010
0000
,
0001
0000
1001
0000
,
1000
0000
1001
0000
,
0100
0010
0110
1000
,
0001
0000
0000
0000
,
0000
0000
0000
0000
,
1000
0000
0000
0000
,
0000
0000
0000
0000
,
0001
0000
0000
0000
,
0000
0000
0000
0000
,
0010
0000
0000
0000
0000
0000
0000
0000
0000
0000
0000
0000
0000
0000
0000
0100
,
0000
0000
0000
0000
,
0010
0100
1000
0001
,
0100
1000
0010
0010
,
0001
0010
0100
1000
,
0010
0001
0100
0100
,
1000
0100
0010
0001
,
0100
1000
0010
0010
,
0001
0100
0010
1000
,
0001
0010
0100
0100
,
1000
0001
0000
1001
,
0001
0100
0010
0010
,
0000
1000
0000
1001
,
1000
0100
0010
0010
,
0000
0001
0000
0011
,
0010
0100
1000
1000
,
0000
0010
0000
1010
,
1000
0001
0100
0100
,
0000
0000
0000
0000
,
0002
0003
0000
0000
,
2000
3000
0000
0000
,
0002
0003
0000
0000
,
2000
3000
0000
0000
,
0020
0030
0010
0010
,
0200
0300
0100
0100
,
0002
0003
0001
0001
,
2000
3000
1000
1000
,
0000
0000
0000
0000
,
0011
0100
1000
0010
,
0001
0000
0100
0000
,
1010
0100
0001
0010
,
1000
0000
0100
0000
,
0011
0100
1000
0010
,
0001
0000
0100
0000
,
0110
1000
0002
0003
,
1000
0010
0000
0010
,
0000
0010
1000
1000
,
0001
0010
0000
0010
,
0000
0010
0001
0001
,
1000
0100
0000
0100
,
0000
0100
1000
1000
,
0001
0100
0000
0100
,
0000
0010
1000
0001
,
0010
0000
0000
0000
;

//---------------dance-single - Telperion----------------
#NOTES:
     dance-single:
     Telperion:
     Beginner:
     1:
     0.070444,0.073966,0.030345,0.000000,0.000000,61.000000,4.000000,0.000000,0.000000,0.000000,0.000000,0.070444,0.073966,0.030345,0.000000,0.000000,61.000000,4.000000,0.000000,0.000000,0.000000,0.000000:
// measure 0
0000
0000
0000
0000
,  // measure 1
0000
0000
0000
0000
,  // measure 2
0000
0000
0000
0000
,  // measure 3
0000
0000
0000
0000
,  // measure 4
0000
0000
0000
0000
,  // measure 5
0000
0000
0000
0000
,  // measure 6
0000
0000
0000
0000
,  // measure 7
0000
0000
0000
0000
,  // measure 8
1000
0000
0000
0000
,  // measure 9
0001
0000
0000
0000
,  // measure 10
0100
0000
0000
0000
,  // measure 11
0010
0000
0000
0000
,  // measure 12
0001
0000
0000
0000
,  // measure 13
1000
0000
0000
0000
,  // measure 14
0100
0000
0000
0000
,  // measure 15
0010
0000
0000
0000
,  // measure 16
1001
0000
0000
0000
,  // measure 17
0000
0000
0000
0000
,  // measure 18
1001
0000
0000
0000
,  // measure 19
0000
0000
0000
0000
,  // measure 20
1001
0000
0000
0000
,  // measure 21
0000
0000
0000
0000
,  // measure 22
1001
0000
0000
0000
,  // measure 23
0000
0000
0000
0000
,  // measure 24
0001
0000
0000
0000
,  // measure 25
0100
0000
0000
0000
,  // measure 26
1000
0000
0000
0000
,  // measure 27
0010
0000
0000
0000
,  // measure 28
1000
0000
0000
0000
,  // measure 29
0100
0000
0000
0000
,  // measure 30
0001
0000
0000
0000
,  // measure 31
0010
0000
0000
0000
,  // measure 32
0001
0000
0000
0000
,  // measure 33
0100
0000
0000
0000
,  // measure 34
1000
0000
0000
0000
,  // measure 35
0010
0000
0000
0000
,  // measure 36
1000
0000
0000
0000
,  // measure 37
0100
0000
0000
0000
,  // measure 38
0001
0000
0000
0000
,  // measure 39
0010
0000
0000
0000
,  // measure 40
0000
0000
0000
0000
,  // measure 41
0100
0000
0000
0000
,  // measure 42
0100
0000
0100
0000
,  // measure 43
0100
0000
0000
0000
,  // measure 44
0100
0000
0100
0000
,  // measure 45
0100
0000
0000
0000
,  // measure 46
0001
0000
0001
0000
,  // measure 47
0001
0000
0000
0000
,  // measure 48
1000
0000
1000
0000
,  // measure 49
1000
0000
0000
0000
,  // measure 50
0010
0000
0010
0000
,  // measure 51
0010
0000
0000
0000
,  // measure 52
0100
0000
0100
0000
,  // measure 53
0100
0000
0000
0000
,  // measure 54
0001
0000
0001
0000
,  // measure 55
0001
0000
0000
0000
,  // measure 56
1000
0000
1000
0000
,  // measure 57
0001
0000
0000
0000
,  // measure 58
0010
0000
0000
0000
,  // measure 59
1000
0000
0000
0000
,  // measure 60
0100
0000
0000
0000
,  // measure 61
1000
0000
0000
0000
,  // measure 62
0010
0000
0000
0000
,  // measure 63
0001
0000
0000
0000
,  // measure 64
0100
0000
0000
0000
,  // measure 65
0010
0000
0000
0000
;
