#TITLE:いーあるふぁんくらぶ;
#SUBTITLE:;
#ARTIST:96猫×そらる;
#TITLETRANSLIT:Iaru Fanclub;
#SUBTITLETRANSLIT:;
#ARTISTTRANSLIT:96neko & Soraru;
#GENRE:;
#CREDIT:;
#BANNER:[Drop the Zero] - Iaru Fanclub.png;
#BACKGROUND:[Drop the Zero] - Iaru Fanclub-bg.png;
#LYRICSPATH:;
#CDTITLE:;
#MUSIC:[Drop the Zero] - Iaru Fanclub.mp3;
#OFFSET:-0.848;
#SAMPLESTART:67.022;
#SAMPLELENGTH:13.241;
#SELECTABLE:YES;
#DISPLAYBPM:73.000:145.000;
#BPMS:0.000=145.000
,31.000=725.000
,33.000=362.500
,33.500=181.250
,34.000=145.000
,65.000=725.000
,67.000=362.500
,67.500=181.250
,68.000=145.000
,96.000=72.500
,97.000=725.000
,101.500=145.000
,134.000=72.500
,150.000=145.000
;
#STOPS:101.500=0.259
;
#BGCHANGES:;
#KEYSOUNDS:;
#ATTACKS:;

//---------------dance-single - ----------------
#NOTES:
     dance-single:
     :
     Hard:
     9:
     0.644,0.805,0.331,0.144,0.340,475.000,39.000,17.000,0.000,0.000,0.000,0.644,0.805,0.331,0.144,0.340,475.000,39.000,17.000,0.000,0.000,0.000: // measure 0
0000
0000
0000
0000
,  // measure 1
0000
0000
0000
0000
,  // measure 2
0000
0000
0000
0000
,  // measure 3
0000
0000
0000
0000
,  // measure 4
1000
0000
0010
0000
0100
0100
0010
0100
,  // measure 5
0001
0000
0010
0000
0100
0100
1000
0001
,  // measure 6
0010
0000
0010
0000
0100
0000
0100
0000
1000
0100
1000
0100
1000
0001
1000
0001
,  // measure 7
1000
0010
0000
0010
0100
0000
0100
0000
0001
0000
1000
0000
0200
0000
0000
0000
,  // measure 8
0000
0000
0000
0000
0310
0001
1000
0010
,  // measure 9
0100
0100
0010
1000
0001
0001
0010
0010
,  // measure 10
1000
0000
0000
0010
0000
0000
0001
0000
0000
1000
0000
0000
0100
0000
0000
0010
0000
0000
0001
0000
1000
0000
0001
0000
,  // measure 11
1000
0010
0100
0001
1000
1000
0010
0010
,  // measure 12
0001
0001
0010
0010
2000
0000
3020
0000
,  // measure 13
0130
0000
0100
0000
0010
0000
0100
0000
0001
0000
1000
0001
1000
0000
0100
0000
,  // measure 14
0010
0000
0000
0001
0000
0000
0000
0000
0000
1000
0000
0000
0001
0000
0000
0000
0000
0000
0100
0000
0000
0000
0000
0000
0010
0000
0000
0000
1000
0000
0000
0000
0010
0000
0000
0000
1000
0000
0000
0000
0001
0000
0000
0000
1000
0000
0000
0000
,  // measure 15
0100
0000
0010
0000
0001
0010
0001
0000
1000
0000
0010
1000
0010
0000
0010
0000
,  // measure 16
0100
0100
0002
0000
0000
0000
0000
0000
,  // measure 17
1003
0000
0001
0000
0100
0000
0010
0100
0010
0000
0100
0000
0001
0000
1000
0001
,  // measure 18
1000
0001
0010
0000
0100
0100
1000
0000
,  // measure 19
0001
0000
0100
0000
0010
0000
1000
0010
1000
0000
0001
0000
0010
0000
0100
0000
,  // measure 20
1000
0000
1000
0000
0001
0000
0010
0001
0010
0000
0011
0000
1001
0000
0000
0000
,  // measure 21
1000
0000
0010
1000
0010
0000
1000
0001
1000
0000
0001
0000
0010
0000
0100
0000
,  // measure 22
1000
0000
1000
0000
0001
0000
0100
0001
0100
0000
0001
0000
1000
0000
1000
0000
,  // measure 23
0100
1000
0100
1000
0001
0010
0001
0010
0001
0000
0010
0000
0100
0000
1000
0000
,  // measure 24
2002
0000
0000
0000
,  // measure 25
0000
0000
0000
0000
0000
0000
3003
0000
0001
0000
0100
0000
0010
0000
1000
0010
,  // measure 26
1000
0000
0001
0000
1000
0000
0001
0010
0001
0000
1000
0000
0010
0000
0100
0000
,  // measure 27
0001
0000
0100
0000
1000
0000
0100
0000
0001
0000
0100
0000
0010
0000
1000
0010
,  // measure 28
1000
0001
0010
0100
1000
0100
0001
0100
,  // measure 29
1100
0000
1001
0000
0011
0000
0000
0000
0010
0000
0001
1000
0010
0000
0000
0000
,  // measure 30
1000
0010
0110
0000
0010
0100
0001
0000
,  // measure 31
0100
0001
1000
0000
0001
0001
0010
0010
,  // measure 32
0100
1000
0001
0000
0101
0000
1010
0000
,  // measure 33
0011
0000
0000
0000
1100
0000
0000
0000
0001
0100
0010
0100
1000
0000
1000
0100
,  // measure 34
0010
0100
0001
0000
0101
0000
1010
0000
1000
0100
0010
0100
0001
0000
0001
0100
,  // measure 35
0010
0100
2000
0000
3200
0000
0320
0000
0032
0000
0013
0001
1000
1000
0001
0000
,  // measure 36
2000
0000
3010
1000
0001
0001
1000
0000
0100
1000
0100
1000
0001
1000
0001
0000
,  // measure 37
1000
0010
0000
0010
0100
0000
0100
0000
0010
0000
0100
0000
0002
0000
0000
0000
1003
0000
0000
0000
0000
0000
0000
0000
0100
0000
0000
0000
0000
0000
0000
0000
,  // measure 38
0001
0000
0000
0000
0100
0000
1000
0000
0001
0000
0000
0000
1000
0000
0000
1000
,  // measure 39
0010
0010
1000
0010
0001
0000
0010
0000
,  // measure 40
0100
0000
0000
0000
0001
0000
1000
0000
0100
0000
0000
0000
1000
0000
0000
1000
,  // measure 41
0001
0100
0010
1000
0001
0000
1001
0000
,  // measure 42
0011
0000
0000
0000
0001
0000
0010
0000
0100
0000
0000
0000
1100
0000
0000
0100
,  // measure 43
1000
0001
1000
1000
0001
0000
1001
0000
,  // measure 44
1000
0010
0001
0010
1000
0000
1001
0000
,  // measure 45
0001
0000
1000
0100
0010
0000
0001
0000
0011
0000
0000
0000
1001
0000
0000
0000
,  // measure 46
0001
1000
1010
0000
1000
0010
0001
1000
,  // measure 47
0100
0100
0001
0000
0102
0000
1003
0000
,  // measure 48
2100
0000
3001
0000
1000
0100
0010
0001
,  // measure 49
1000
0010
0100
0001
1010
0000
1001
0000
,  // measure 50
0001
1000
1001
0000
1100
0000
1000
0100
,  // measure 51
0001
1000
0010
0000
0011
0000
1001
0000
,  // measure 52
1000
0010
0100
0000
0110
0000
0001
0000
,  // measure 53
0101
0000
0000
0000
1001
0000
0000
0000
1100
0000
0000
0000
0110
0000
0010
0001
,  // measure 54
0010
0100
1000
0001
1000
1000
0010
0010
,  // measure 55
0100
0000
0100
0000
0001
0000
0001
0000
1000
0000
0000
0000
1001
0000
0000
0001
,  // measure 56
0010
0000
0010
0000
0100
0000
2000
0000
0000
0000
3001
0000
0100
0001
0100
0000
,  // measure 57
0010
0000
0010
0000
1000
0000
1000
0000
0001
0000
1000
0001
1000
0000
0001
0000
,  // measure 58
1000
0000
0100
0000
0001
0000
0100
0000
1000
0000
0001
0100
0000
0010
0100
0000
,  // measure 59
0010
0000
0010
0000
0020
0000
0000
0000
1030
0000
0010
0100
0000
0100
0000
0001
,  // measure 60
1000
0100
0010
0001
0100
0010
1000
0001
1000
0000
0010
0200
0000
0000
0301
0000
,  // measure 61
1000
0000
1000
0000
0001
0000
0001
0000
0010
0001
0010
0001
0010
0100
0010
0100
,  // measure 62
0010
0100
0000
1100
0000
0000
1000
0000
0001
1000
0001
1000
0010
0100
0010
0100
,  // measure 63
0001
0000
1000
0000
0100
0000
0000
0000
0110
0000
0000
0000
0011
0000
0001
1000
,  // measure 64
0010
0010
1000
0010
0100
0100
0010
0010
,  // measure 65
0100
0001
1000
1001
0000
0000
0000
0000
;

//---------------dance-single - ----------------
#NOTES:
     dance-single:
     :
     Medium:
     7:
     0.455,0.500,0.204,0.229,0.025,324.000,24.000,27.000,0.000,0.000,0.000,0.455,0.500,0.204,0.229,0.025,324.000,24.000,27.000,0.000,0.000,0.000: // measure 0
0000
0000
0000
0000
,  // measure 1
0000
0000
0000
0000
,  // measure 2
0000
0000
0000
0000
,  // measure 3
0000
0000
0000
0000
,  // measure 4
0001
0000
0100
0000
0010
0000
1000
0010
,  // measure 5
1000
0000
0100
0000
0010
0000
0001
0010
,  // measure 6
0001
0000
1000
0000
0001
1000
0001
0000
,  // measure 7
1000
0000
0010
0000
0100
0100
0001
0000
,  // measure 8
0000
0000
1000
0100
,  // measure 9
0010
0000
0001
0000
0010
0001
0010
0001
,  // measure 10
1000
0001
1000
0001
1000
0000
0010
0000
,  // measure 11
0100
0000
0001
0000
0100
0001
0100
0001
,  // measure 12
1000
0001
1000
0001
1000
0000
0100
0000
,  // measure 13
0010
0100
0010
0000
0001
0000
0100
0000
,  // measure 14
0010
0100
0010
0000
1000
0010
0100
0001
,  // measure 15
1000
0100
0010
0001
1000
0010
0100
0100
,  // measure 16
0001
0001
1000
0000
0000
0000
0000
0000
,  // measure 17
0001
0010
0001
0000
1000
0010
1000
0000
,  // measure 18
0001
1000
0001
0000
1000
0000
1001
0000
,  // measure 19
0001
0010
0001
0000
1000
0100
1000
0000
,  // measure 20
0001
0100
0001
0000
0101
0000
1010
0000
,  // measure 21
1000
0010
0100
0000
0010
0100
0001
0000
,  // measure 22
1000
1000
1000
0000
0001
0001
0001
0000
,  // measure 23
1000
0000
0100
0000
0010
0001
1000
0000
,  // measure 24
2002
0000
0000
0000
,  // measure 25
0000
0000
0000
3003
0001
0000
0011
0000
,  // measure 26
1000
1010
0001
1001
,  // measure 27
1000
0100
0010
0001
1000
0000
1010
0000
,  // measure 28
0010
0000
0110
0000
0100
0001
0100
0000
,  // measure 29
0001
1000
0001
0000
1000
0100
0010
0000
,  // measure 30
0100
0100
0010
0000
0001
0010
0001
0000
,  // measure 31
1000
0001
1000
0000
0001
0001
1000
1000
,  // measure 32
0010
0010
0100
0000
0020
0000
0230
0000
,  // measure 33
0302
0000
0000
0000
2003
0000
0000
0000
3100
0000
0000
0100
0010
0000
0001
0000
,  // measure 34
1000
0000
0000
1000
0001
0000
1000
0000
0010
0000
0000
0010
1000
0000
0010
0000
,  // measure 35
0100
0000
0000
0100
0010
0000
0100
0000
0001
0000
0100
0001
0100
0000
0001
1000
,  // measure 36
0001
1000
0100
0000
0010
0010
0001
0001
,  // measure 37
1000
0001
1001
0000
1000
0000
0010
0000
,  // measure 38
0100
0010
0100
0000
0010
0000
0100
0000
,  // measure 39
0001
0100
0001
0000
2000
0000
0100
0000
,  // measure 40
3200
0010
0320
0032
,  // measure 41
2003
0000
3001
1000
0010
0000
0010
0000
,  // measure 42
0100
0100
0001
1000
,  // measure 43
0100
0010
0100
0000
0010
0000
0010
0000
,  // measure 44
0001
0010
0001
0000
0011
0000
1001
0000
,  // measure 45
1010
0000
0110
0101
,  // measure 46
0001
1000
0100
0000
1000
0100
0001
0000
,  // measure 47
0001
0100
1000
0000
2100
0000
3001
0000
,  // measure 48
1002
0103
0201
0320
,  // measure 49
2000
3030
1010
0101
,  // measure 50
0001
0100
2000
0000
3200
0000
0301
0100
,  // measure 51
0010
1000
0002
0000
0023
0000
0130
0000
,  // measure 52
0100
1000
0001
1000
0020
0000
1030
0000
,  // measure 53
1010
0110
0101
0000
,  // measure 54
0001
0001
1000
1000
0001
0000
0010
0000
,  // measure 55
0100
0000
1000
0100
2000
0000
0100
0000
,  // measure 56
3002
0100
2003
3020
,  // measure 57
0130
0010
0100
0000
0020
0000
0100
0000
,  // measure 58
0230
0301
0001
1000
,  // measure 59
0001
0001
0001
0000
0010
0001
0010
0001
,  // measure 60
1000
0100
1000
0100
1000
0001
1000
0001
,  // measure 61
0100
0010
0100
0010
1000
1000
0001
0001
,  // measure 62
0010
0010
0100
0000
1000
1000
1000
0000
,  // measure 63
0001
1000
1001
0000
,  // measure 64
0001
0100
0010
1000
,  // measure 65
0001
1000
0001
1000
0000
0000
0000
0000
;

//---------------dance-single - ----------------
#NOTES:
     dance-single:
     :
     Easy:
     4:
     0.320,0.360,0.119,0.238,0.000,222.000,14.000,28.000,0.000,0.000,0.000,0.320,0.360,0.119,0.238,0.000,222.000,14.000,28.000,0.000,0.000,0.000: // measure 0
0000
0000
0000
0000
,  // measure 1
0000
0000
0000
0000
,  // measure 2
0000
0000
0000
0000
,  // measure 3
0000
0000
0000
0000
,  // measure 4
1000
0001
1000
0001
,  // measure 5
0100
0010
0100
0010
,  // measure 6
1000
0001
0010
0100
,  // measure 7
1000
1000
0001
0001
,  // measure 8
0000
0000
1000
0010
,  // measure 9
0100
0100
0001
0100
,  // measure 10
0001
0100
0001
1000
,  // measure 11
0100
0100
0010
0001
,  // measure 12
0010
0001
1000
0001
,  // measure 13
0010
0010
0001
1000
,  // measure 14
0010
0010
0100
0010
,  // measure 15
1000
0001
1000
0100
,  // measure 16
0100
0100
0000
0000
,  // measure 17
0010
0000
0001
0000
,  // measure 18
1000
0000
0010
0010
,  // measure 19
1000
0010
0100
0100
,  // measure 20
0001
0000
1000
0000
,  // measure 21
0001
0000
1000
0000
,  // measure 22
0100
0100
0010
0010
,  // measure 23
0001
0010
0100
1000
,  // measure 24
0001
0000
0000
0000
,  // measure 25
0000
0000
0001
0001
,  // measure 26
1000
1000
0001
0100
,  // measure 27
0010
0000
1000
1000
,  // measure 28
0001
0001
1000
0100
,  // measure 29
0010
0010
0001
0001
,  // measure 30
1000
1000
0001
1000
,  // measure 31
0010
0010
0100
0010
,  // measure 32
0100
0010
1001
1001
,  // measure 33
1001
1001
1000
0100
,  // measure 34
1000
1000
1000
0000
0001
0000
0100
0000
,  // measure 35
0001
0001
0001
0000
1000
0000
0001
0000
,  // measure 36
1000
0001
1000
0000
0100
0000
0010
0000
,  // measure 37
0100
0010
0100
0000
1000
0000
1000
0000
,  // measure 38
0010
0010
0100
0001
,  // measure 39
1000
1000
0020
0000
,  // measure 40
0230
0000
0302
2003
,  // measure 41
3200
0320
0032
1000
,  // measure 42
2003
0010
3020
0100
,  // measure 43
0230
0302
2003
3000
,  // measure 44
0001
1000
1001
1001
,  // measure 45
1001
0000
1000
0001
,  // measure 46
0100
0100
0001
0100
,  // measure 47
1000
0100
0002
0000
,  // measure 48
2003
0000
3200
0320
,  // measure 49
0032
0003
1000
0100
,  // measure 50
0010
0010
0001
0010
,  // measure 51
1000
0010
0001
0000
,  // measure 52
0010
0001
1000
0000
,  // measure 53
0001
1000
0010
0000
,  // measure 54
1000
0010
0100
0100
,  // measure 55
0001
0001
2000
3100
,  // measure 56
0002
0013
2000
3020
,  // measure 57
0100
0130
0010
0100
,  // measure 58
0001
0001
0100
0001
,  // measure 59
1000
1001
0002
0013
,  // measure 60
0020
0130
0200
1300
,  // measure 61
2000
3001
0002
0203
,  // measure 62
0320
1030
0001
0100
,  // measure 63
0101
0110
1010
0000
,  // measure 64
1100
0110
0011
0001
,  // measure 65
1000
0001
0000
0000
;

//---------------dance-single - ----------------
#NOTES:
     dance-single:
     :
     Beginner:
     2:
     0.175,0.192,0.051,0.000,0.000,138.000,6.000,0.000,0.000,0.000,0.000,0.175,0.192,0.051,0.000,0.000,138.000,6.000,0.000,0.000,0.000,0.000: // measure 0
0000
0000
0000
0000
,  // measure 1
0000
0000
0000
0000
,  // measure 2
0000
0000
0000
0000
,  // measure 3
0000
0000
0000
0000
,  // measure 4
0001
0000
0001
0000
,  // measure 5
1000
0000
1000
0000
,  // measure 6
0001
0001
1000
1000
,  // measure 7
0001
0000
0000
0000
,  // measure 8
0000
0000
0010
0000
,  // measure 9
0010
0000
0100
0100
,  // measure 10
0100
0000
1000
0000
,  // measure 11
0001
0000
0100
0100
,  // measure 12
0100
0000
0010
0000
,  // measure 13
0010
0000
1000
0000
,  // measure 14
1000
0000
0001
0000
,  // measure 15
0001
0000
1000
0100
,  // measure 16
0010
0001
0000
0000
,  // measure 17
1000
0000
1000
0000
,  // measure 18
1000
0000
1001
0000
,  // measure 19
0001
0000
0001
0000
,  // measure 20
0010
0000
0010
0000
,  // measure 21
0100
0000
0100
0000
,  // measure 22
0100
0000
0110
0000
,  // measure 23
0010
0000
0001
0000
,  // measure 24
1000
0000
0000
0000
,  // measure 25
0000
0000
0001
0000
,  // measure 26
1000
0000
0001
0000
,  // measure 27
1001
0000
0100
0000
,  // measure 28
0010
0000
0110
0000
,  // measure 29
0110
0000
0100
0000
,  // measure 30
0100
0000
1000
0000
,  // measure 31
1000
0000
0001
0000
,  // measure 32
1000
0000
1001
0000
,  // measure 33
0000
0000
0001
0000
,  // measure 34
0100
0100
0100
0000
,  // measure 35
0010
0010
0010
1000
,  // measure 36
0001
0001
1000
0100
,  // measure 37
0010
0010
0001
0000
,  // measure 38
0001
0001
0001
0000
,  // measure 39
1000
1000
1000
0000
,  // measure 40
0010
0000
0100
0100
,  // measure 41
0100
0000
0001
0000
,  // measure 42
0001
0000
1000
0000
,  // measure 43
1000
0000
0100
0000
,  // measure 44
0010
0000
0001
0001
,  // measure 45
0001
0000
1000
0000
,  // measure 46
1000
0000
0010
0010
,  // measure 47
0010
0000
0100
0000
,  // measure 48
0010
0000
0100
0000
,  // measure 49
0001
0000
1000
0000
,  // measure 50
0100
0000
0010
0010
,  // measure 51
0010
0000
0100
0000
,  // measure 52
0010
0000
0001
0000
,  // measure 53
1000
1000
1000
0000
,  // measure 54
0001
0001
0001
0000
,  // measure 55
0000
0000
1000
0000
,  // measure 56
0010
0000
1000
0000
,  // measure 57
0001
0000
0010
0000
,  // measure 58
0010
0000
0100
0100
,  // measure 59
0100
0000
0010
0000
,  // measure 60
0100
0000
1000
0000
,  // measure 61
0001
0000
1000
1000
,  // measure 62
1000
0000
0010
0010
,  // measure 63
0010
0000
0100
0000
,  // measure 64
0001
0000
1000
0000
;
