#VERSION:0.82;
#TITLE:INSOMNIA;
#SUBTITLE:;
#ARTIST:Jakarta Funk Brothers;
#TITLETRANSLIT:;
#SUBTITLETRANSLIT:;
#ARTISTTRANSLIT:;
#GENRE:;
#ORIGIN:;
#CREDIT:;
#BANNER:[Drop the Zero] - INSOMNIA.png;
#BACKGROUND:[Drop the Zero] - INSOMNIA-bg.png;
#PREVIEWVID:;
#JACKET:[Drop the Zero] - INSOMNIA-jacket.png;
#CDIMAGE:;
#DISCIMAGE:;
#LYRICSPATH:;
#CDTITLE:cdtitle.png;
#MUSIC:[Drop the Zero] - INSOMNIA.mp3;
#OFFSET:-0.601000;
#SAMPLESTART:91.525108;
#SAMPLELENGTH:19.692307;
#SELECTABLE:YES;
#BPMS:0.000=195.000,
224.000=97.500,
240.000=195.000;
#STOPS:;
#DELAYS:;
#WARPS:;
#TIMESIGNATURES:0.000=4=4;
#TICKCOUNTS:0.000=4;
#COMBOS:0.000=1;
#SPEEDS:0.000=1.000=0.000=0;
#SCROLLS:0.000=1.000;
#FAKES:;
#LABELS:0.000=Song Start;
#BGCHANGES:;
#KEYSOUNDS:;
#ATTACKS:
;

//---------------dance-single - ----------------
#NOTEDATA:;
#CHARTNAME:;
#STEPSTYPE:dance-single;
#DESCRIPTION:;
#CHARTSTYLE:;
#DIFFICULTY:Challenge;
#METER:10;
#RADARVALUES:0.822991,0.897808,0.714921,0.232765,0.303426,579.000000,86.000000,28.000000,0.000000,0.000000,0.000000,0.000000,0.000000,0.822991,0.897808,0.714921,0.232765,0.303426,579.000000,86.000000,28.000000,0.000000,0.000000,0.000000,0.000000,0.000000;
#CREDIT:;
#NOTES:
0000
0000
0000
0000
,
0000
0000
0000
0000
,
0000
0000
0000
0000
,
0000
0000
0000
0000
,
0100
0000
0100
0000
1001
0000
1000
0010
,
0100
0001
0100
0000
1001
0000
0001
0010
,
0100
0000
0100
0000
1001
0000
1000
0010
,
0100
0000
0000
0100
0000
0000
0002
0000
0000
0000
0000
0000
0013
0000
0100
0000
0010
0000
0100
0000
0000
0000
0000
0000
,
1001
0000
0110
0000
1001
0000
1000
0001
,
0100
0000
0000
0000
1001
0000
0000
0000
0110
0000
0000
0000
0001
0000
1000
0001
,
1000
0000
1010
0000
0101
0000
0001
1000
,
0100
2001
0000
3100
,
1001
0000
0001
0100
0010
0000
1000
0100
,
1000
0010
0001
0010
1000
0100
0001
0100
,
1000
0000
0010
0100
0000
0010
0100
0001
,
1000
0100
1000
0100
1000
0000
0000
0000
0001
0100
0001
0100
0001
0000
0000
0000
,
1000
0000
0010
1000
0100
0010
0001
0000
,
1000
0100
0001
1000
0010
0001
0100
0010
,
1000
1000
1010
0011
,
0011
0000
0001
0000
1000
1000
1000
0000
,
0001
0000
0100
0010
1000
0000
0010
0000
1000
0000
0010
0000
0100
0000
0010
1000
,
0001
0100
1000
0100
0001
0010
0001
0100
,
0010
1000
0001
1000
0100
0001
0100
0010
,
0001
0100
0010
0010
0100
0100
0010
0010
,
1000
0000
0001
0010
0100
0000
1000
0010
0100
0000
0001
1000
0100
0000
1000
0010
,
0100
0000
0001
0000
1000
0000
0010
0000
0001
0000
0010
0000
0100
0000
0001
1000
,
0010
1000
0100
0001
0100
1000
0001
0010
,
0001
1000
0001
1000
0002
0000
1000
0000
2003
0000
0001
0000
3002
0000
0103
0000
,
0001
0000
0010
0100
1000
0000
0100
1000
0001
0000
0100
0000
0010
0000
1000
0001
,
0010
0100
0010
0001
0100
1000
0100
0001
,
0010
0100
1000
0100
0001
0100
0010
0001
,
0100
0000
0000
0100
0000
0000
0010
0000
0000
1000
0000
0000
0001
0000
0010
0000
0100
0000
1000
0000
0000
0001
0000
0000
,
1000
0000
0000
0000
1000
0000
0001
0100
0010
0000
1000
0100
0010
0000
0001
1000
,
0010
1000
0001
0010
1000
0010
0100
1000
,
0010
0100
0010
0100
0010
0000
0100
0000
0101
0000
0000
0000
1100
0000
0000
0000
,
1000
0010
0100
0001
0100
0010
1000
0001
,
1001
0000
1001
0000
,
1001
0000
1001
0000
,
1001
1001
1001
1001
,
1000
0000
0001
0000
1000
0000
0001
0000
1000
0001
1000
0001
0020
0000
0000
0000
,
0130
1000
1001
0000
0100
0001
1001
0000
,
0010
1000
1100
0000
0010
0001
0101
0000
,
0001
0100
0110
0000
0010
1000
1001
0000
,
0001
0000
0010
0000
0110
0000
0000
0000
1000
0001
1000
0001
2000
0000
0000
0000
,
3001
0010
0110
0000
0100
1000
1001
0000
,
0001
0100
0110
0000
0010
1000
1001
0000
,
0001
0010
0100
0000
1000
0010
0100
0000
,
0001
1000
0001
1000
0001
0000
0000
0000
1001
0000
1001
0000
1001
0000
0000
0000
,
1000
0100
0011
0000
0001
0100
1010
0000
,
1000
0010
0101
0000
0001
0010
1100
0000
,
1000
0100
1001
0000
0001
0100
1001
0000
,
1000
0000
0010
0000
0101
0000
0000
0000
0001
1000
0001
1000
0020
0000
0000
0000
,
1030
0010
0101
0000
0100
0001
1010
0000
,
1000
0100
0011
0000
0001
0010
1100
0000
,
1000
0010
0001
0000
1000
0100
0001
0000
,
0102
0000
0013
0100
1000
0010
1010
0000
,
0202
0303
2020
3030
,
1100
0202
0303
0110
,
2002
3003
0022
0033
,
1010
0202
0303
1001
,
1000
0000
0001
0000
1000
0000
1000
0001
,
1000
0000
0000
0000
0001
0000
0000
0000
1000
0000
0001
0000
1000
0000
0001
0100
,
0001
0000
1000
0000
0001
0000
0001
1000
,
0001
0000
0000
0000
1000
0000
0000
0000
0001
0000
1000
0000
0001
0000
1000
0100
,
1000
0000
0010
0000
0100
0000
0001
1000
,
0001
0000
0000
0000
0010
0000
0000
0000
0100
0000
1000
0000
0001
0000
1000
0001
,
0100
0000
0010
0000
0100
0000
0001
1000
,
0001
0010
1000
0010
0001
0100
1000
0100
,
0002
0003
0000
0000
,
0001
1000
0100
0010
0001
0000
1000
0001
,
0010
0011
0110
1100
,
1010
0000
0000
0000
1001
0000
0000
0001
1000
0000
0010
0000
1000
0001
1000
0001
,
2000
0000
0000
0000
3100
0000
1000
0000
0010
0000
1000
0001
1000
0000
0100
0000
,
0010
0000
0001
1000
0001
0000
0100
0000
0010
0000
0100
0000
1000
0000
0100
0000
,
0001
0011
0110
1100
,
1010
0000
0000
0000
1001
0000
0000
0001
1000
0000
0100
0000
0010
0000
0001
0000
,
0200
0000
0000
0000
0301
0000
0010
0000
0100
1000
0100
1000
0001
0000
0100
0000
,
0010
0000
0001
0000
0010
0000
0100
0000
0010
1000
0010
1000
0001
1000
0001
1000
,
0100
1100
1010
0110
,
0101
0000
0000
0000
1001
0000
0000
1000
0001
0000
0100
0000
0010
1000
0010
1000
,
0020
0000
0000
0000
0130
0000
0001
0000
0010
0000
0100
0000
1000
0100
1000
0100
,
2000
0000
0000
0000
3001
0100
0001
0100
0001
0000
1000
0000
0010
0000
1000
0000
,
1100
0110
0011
0101
,
0110
0000
0000
0000
1010
0000
0000
0010
1000
0000
0100
0000
0010
0000
0001
1000
,
0002
0000
0000
0000
0103
0000
0010
0000
1000
0001
1000
0001
0010
0000
0100
0000
,
0010
0001
0010
0000
0100
1000
0100
0000
1000
0001
1000
0001
0100
0001
0100
0001
,
1000
0000
0000
0000
0000
0000
0001
1000
0001
0000
0000
0000
0000
0000
1000
0001
,
1000
0000
0000
0000
0000
0000
0001
1000
0001
0000
0000
0000
1000
0001
1000
0001
,
1000
1001
0110
1001
,
0001
0000
0010
0000
0100
0000
1000
0000
0001
0010
0100
1000
0002
0000
0000
0000
,
0003
0000
0000
0000
;

//---------------dance-single - ----------------
#NOTEDATA:;
#CHARTNAME:;
#STEPSTYPE:dance-single;
#DESCRIPTION:;
#CHARTSTYLE:;
#DIFFICULTY:Hard;
#METER:9;
#RADARVALUES:0.729172,0.635947,0.556973,0.199513,0.024939,523.000000,67.000000,24.000000,0.000000,0.000000,0.000000,0.000000,0.000000,0.729172,0.635947,0.556973,0.199513,0.024939,523.000000,67.000000,24.000000,0.000000,0.000000,0.000000,0.000000,0.000000;
#CREDIT:;
#NOTES:
0000
0000
0000
0000
,
0000
0000
0000
0000
,
0000
0000
0000
0000
,
0000
0000
0000
0000
,
1000
0001
1001
0001
,
0100
0001
1001
1000
,
0010
1000
1001
1000
,
0100
0010
0002
0000
0103
0000
0100
0000
,
1001
0000
1001
0000
1001
0000
1000
0001
,
0100
0000
0110
0000
0110
0000
0010
1000
,
0001
0000
0011
0000
1100
0000
1000
0001
,
0100
1002
0000
0103
,
1001
0000
1000
0100
0010
0000
0100
1000
,
0001
0100
0001
0010
0001
1000
0001
0100
,
0001
0000
1000
0010
0000
0010
1000
0001
,
1000
0100
0001
0000
0001
0100
1000
0000
,
0001
0000
1000
0010
0100
0001
1000
0000
,
0010
1000
0001
0010
0100
1000
0010
0100
,
0001
0001
0110
1001
,
1001
0000
0001
0000
1000
0001
0010
0000
,
0001
0100
0010
0100
0010
0100
0010
0100
,
0001
0100
0010
1000
0001
0010
0100
1000
,
0001
0100
0010
0100
1000
0100
0010
0100
,
0001
1000
0001
0001
1000
1000
0001
0001
,
0000
0100
0010
0100
0010
0100
0010
0100
,
0001
0010
0100
1000
0010
0001
0010
1000
,
0100
0010
0100
0001
0100
0010
0100
1000
,
0001
0100
1000
0100
0001
0010
0001
0100
,
0000
0010
0100
1000
0100
0010
0100
0010
,
1000
0010
0100
0001
0010
0100
1000
0001
,
1000
0100
0010
0100
0001
0100
0010
0100
,
1000
0000
0000
0001
0000
0000
1000
0000
0000
0000
0000
0000
0001
0000
0100
0000
0001
0000
0100
0000
0000
0010
0000
0000
,
0100
0000
0100
0010
0100
0010
0100
0010
,
1000
0010
0001
0010
1000
0100
0001
0100
,
1000
1000
0100
0010
0001
0000
1000
0000
,
0001
0010
0100
1000
0010
0100
0001
1000
,
1001
0000
1001
0000
,
1001
0000
1001
0000
,
1001
1001
1001
1001
,
1000
0001
1000
0001
1000
0100
0012
0000
,
0103
0010
1000
0001
0100
0010
1000
0001
,
1000
0100
0010
0001
1000
0100
0010
0001
,
1000
0010
0100
0001
0010
0100
1000
0010
,
1000
0100
0010
0001
0100
0100
0200
0000
,
0301
0100
0010
1000
0001
0100
0010
1000
,
0001
0010
0100
1000
0001
0010
0100
1000
,
0001
0100
0010
1000
0100
0010
0001
0100
,
0010
0000
0100
0000
0001
1000
0001
0000
,
1000
0100
0001
0100
1000
0100
0001
0100
,
1000
0010
0001
0010
1000
0010
0001
0010
,
1000
0010
0100
0001
0010
0100
1000
0001
,
1000
0010
0100
0001
0010
0100
0020
0000
,
0031
0100
1000
0100
0001
0100
1000
0100
,
0001
0010
1000
0010
0001
0010
1000
0010
,
0001
0100
0010
1000
0100
0010
0001
0100
,
0010
0000
1000
0000
0001
1000
0001
0000
,
2200
3300
0022
0033
,
0101
2020
3030
0110
,
2020
3030
0202
0303
,
0011
2200
3300
1001
,
1000
0000
1000
0000
1000
0000
1000
0001
,
1000
0000
1000
0000
0001
1000
0100
0010
,
0001
0000
0001
0000
0001
0000
0001
1000
,
0001
0000
0001
0000
1000
0001
0010
0100
,
1000
0000
0100
0000
0010
0000
0001
0100
,
0010
0000
1000
0000
0001
0010
0100
1000
,
0001
0000
0100
0000
0010
0000
1000
0001
,
0010
1000
0010
0001
0100
1000
0100
0001
,
0020
0030
0000
0000
,
0001
1000
0100
0010
0001
0000
0110
0000
,
1001
1010
1001
0011
,
1001
0000
0000
0000
1100
0000
0000
1000
0100
0000
0010
0000
0001
0000
0100
0000
,
2000
0000
3100
0001
0100
1000
0100
0001
,
0100
1000
0100
0001
0010
0100
1000
0001
,
0011
1001
1010
1001
,
0101
0000
0000
0000
1001
0000
0000
0001
0100
0000
0010
0000
1000
0000
0001
0000
,
0020
0000
0031
0100
1000
0100
0001
0010
,
0100
1000
0010
1000
0001
0010
0100
1000
,
1001
1100
1001
1010
,
1001
0000
0000
0000
0011
0000
0000
0001
0010
0000
0100
0000
1000
0000
0100
0000
,
0002
0000
0103
1000
0100
0010
0100
0001
,
0200
0000
0301
0100
1000
0100
0010
0001
,
0011
1001
1010
1001
,
1100
0000
0000
0000
1001
0000
0000
1000
0010
0000
0100
0000
0001
0000
1000
0000
,
0200
0000
1300
0010
0001
0010
1000
0100
,
0010
0001
0100
0010
1000
0100
0010
0001
,
1001
0000
1001
0000
,
1001
0000
1001
0000
,
1001
1001
1001
1001
,
0001
0010
0100
1000
0001
0100
0020
0000
,
0030
0000
0000
0000
;

//---------------dance-single - ----------------
#NOTEDATA:;
#CHARTNAME:;
#STEPSTYPE:dance-single;
#DESCRIPTION:;
#CHARTSTYLE:;
#DIFFICULTY:Medium;
#METER:7;
#RADARVALUES:0.536785,0.486313,0.324208,0.157948,0.000000,394.000000,39.000000,19.000000,0.000000,0.000000,0.000000,0.000000,0.000000,0.536785,0.486313,0.324208,0.157948,0.000000,394.000000,39.000000,19.000000,0.000000,0.000000,0.000000,0.000000,0.000000;
#CREDIT:;
#NOTES:
0000
0000
0000
0000
,
0000
0000
0000
0000
,
0000
0000
0000
0000
,
0000
0000
0000
0000
,
1000
0100
0010
0010
,
0100
1000
0010
0010
,
0100
0001
0010
0010
,
0100
0010
0002
0000
0103
0000
0100
0000
,
0001
0000
0001
0000
0001
0000
0010
0001
,
1000
0000
1000
0000
1000
0000
0010
1000
,
0001
0000
0001
0000
0001
0000
1000
0100
,
0010
1002
0000
0103
,
1001
0001
1000
1000
,
0001
0010
0001
0010
0100
1000
0100
1000
,
0001
0001
1000
1000
,
0010
0100
0010
0000
0100
0010
0100
0000
,
0001
0001
1000
1000
,
0100
0010
0100
0010
0001
1000
0001
1000
,
0010
0010
1000
0001
,
0001
0000
0010
0000
0100
0010
0100
0000
,
1000
0000
0001
0100
0001
0000
0001
0100
,
0001
0000
0010
0000
0001
1000
0001
0000
,
1000
0000
0100
1000
0001
0000
0100
0001
,
1000
0000
0100
0010
0100
0010
0100
0010
,
0100
0000
1000
0100
1000
0000
1000
0100
,
1000
0000
0010
0000
1000
0001
1000
0000
,
0010
0000
0100
0001
1000
0000
0100
1000
,
0001
0100
0010
0000
1000
0100
0010
0000
,
0001
0000
1000
0010
1000
0000
1000
0010
,
1000
0000
0100
0000
0010
0001
0010
0000
,
0100
0000
1000
0001
0100
0000
0001
1000
,
0100
0010
0100
0000
1000
0001
1000
0001
,
1000
0000
0001
0010
0001
0000
0001
0010
,
0001
0000
0100
0000
0010
1000
0010
0000
,
1000
1000
0001
0001
,
1000
0100
0010
0001
,
1001
0000
1001
0000
,
1001
0000
1001
0000
,
1000
1000
0001
0001
,
1000
0001
1000
0002
2000
0000
3003
0000
,
1000
1100
1000
1001
,
0001
0101
0001
1001
,
1000
1010
0010
0110
,
0100
0000
0101
0000
1000
0010
0200
0000
,
0301
0101
0001
1001
,
1000
1100
1000
1001
,
0001
0010
0100
1000
,
1001
0000
1001
0000
1000
0001
0100
0000
,
0001
0011
0001
1001
,
1000
1010
1000
1001
,
0001
0101
0100
0110
,
0010
0000
1010
0000
0001
0010
0200
0000
,
1300
1010
1000
1001
,
0001
0011
0001
1001
,
1000
0010
0100
0001
,
1001
0000
1001
0000
0100
0010
0100
0000
,
2001
0000
3020
0000
,
0230
0302
0000
2003
,
3002
0000
0023
0000
,
0230
2300
0000
3002
,
1003
0100
1000
0100
,
0001
0100
0001
0100
,
1000
0010
1000
0010
,
0001
0010
0001
0010
,
1000
0100
0001
0100
,
1000
0010
0001
0010
,
1000
1000
0001
0001
,
1000
0001
1000
0001
1000
0001
1000
0001
,
2000
3000
0000
0000
,
0100
0000
0100
0000
1001
0000
0000
0001
,
1000
0010
1000
0001
,
0010
0000
0001
0000
0100
0010
1000
0000
,
0001
0000
1000
0100
1000
0000
1000
0100
,
1000
0000
1000
0100
1000
0000
0001
0000
,
1000
0010
1000
0001
,
0010
0000
0001
0000
1000
0001
0100
0000
,
0010
0000
0100
0000
0001
1000
0100
0000
,
0010
0001
0010
0001
0010
0001
1000
0000
,
0001
0100
0001
1000
,
0010
0000
1000
0000
0100
0010
0001
0000
,
1000
0000
0001
0100
0001
0000
1000
0010
,
1000
0000
1000
0010
1000
0000
0001
0000
,
1000
0100
0010
0001
,
1000
0000
0010
0000
0100
0001
1000
0000
,
0010
0000
1000
0000
0001
0010
0100
0000
,
0010
0000
0001
0000
0100
0010
1000
0000
,
1001
0000
1001
0000
,
1001
0000
1001
0000
,
1000
1000
0001
0001
,
1000
0001
1000
0001
1000
0000
0220
0000
,
0330
0000
0000
0000
;

//---------------dance-single - ----------------
#NOTEDATA:;
#CHARTNAME:;
#STEPSTYPE:dance-single;
#DESCRIPTION:;
#CHARTSTYLE:;
#DIFFICULTY:Easy;
#METER:5;
#RADARVALUES:0.396651,0.374087,0.108069,0.182887,0.000000,299.000000,13.000000,22.000000,0.000000,0.000000,0.000000,0.000000,0.000000,0.396651,0.374087,0.108069,0.182887,0.000000,299.000000,13.000000,22.000000,0.000000,0.000000,0.000000,0.000000,0.000000;
#CREDIT:;
#NOTES:
0000
0000
0000
0000
,
0000
0000
0000
0000
,
0000
0000
0000
0000
,
0000
0000
0000
0000
,
1000
0000
0010
0010
,
1000
0000
0010
0010
,
1000
0000
0010
0010
,
0200
0300
0001
0001
,
1000
1000
1000
0010
,
0100
0100
0100
0001
,
0010
0010
0010
0100
,
0010
2001
0000
3001
,
1000
0000
0001
0000
,
1000
0010
0100
0001
,
1000
0000
0010
0000
,
1000
1000
0001
0001
,
1000
0000
0001
0000
,
0010
0001
0010
0100
,
1000
1000
0001
0100
,
0100
0010
1000
0000
,
1000
0001
0001
0001
,
0010
0001
0100
0010
,
1000
0100
1000
0010
,
1000
0100
0100
0100
,
1000
0001
0001
0001
,
0010
0001
1000
0010
,
0100
0001
1000
0100
,
0010
0010
0001
0100
,
0001
1000
1000
1000
,
0010
1000
0100
0010
,
0001
0100
0001
0010
,
0001
0001
1000
0001
,
0000
1000
1000
1000
,
0010
1000
0001
0010
,
0100
0100
0010
0000
,
0001
0100
0010
1000
,
1001
0000
1001
0000
,
1001
0000
1001
0000
,
1000
1000
0001
0001
,
1000
0001
2002
3003
,
1000
0100
0100
1000
,
1000
0001
0001
0100
,
0100
0010
0010
0100
,
0100
0001
2000
3000
,
0001
0100
0100
0001
,
0001
1000
1000
0100
,
0010
0001
0100
0001
,
1000
0010
0220
0330
,
0001
0010
0010
0001
,
0001
1000
1000
0010
,
0010
0100
0100
0001
,
1000
1000
0200
0300
,
1000
0010
0010
1000
,
1000
0001
0001
0010
,
0100
1000
0010
0100
,
0001
1000
2002
3003
,
2000
0000
3020
0000
,
0230
0302
0000
2003
,
3002
0000
0023
0000
,
0230
2300
0000
3002
,
1003
0001
1000
0001
,
1000
0001
1000
0001
,
0010
0100
0010
0100
,
0010
0100
0010
0100
,
1000
1000
0001
0001
,
1000
1000
0001
0001
,
1000
0100
0010
0001
,
1000
0010
0100
0001
,
2000
3000
0000
0000
,
0100
0100
0110
0000
,
0001
0010
0100
1000
,
0010
1000
0001
0010
,
0100
0000
0100
0000
,
0100
0000
0100
0000
,
1000
0010
0100
0001
,
1000
0100
1000
0010
,
0100
0000
0001
1000
,
0100
0010
0001
0100
,
0010
1000
0100
0010
,
0001
0100
0010
1000
,
0001
0000
0001
1000
,
0100
0000
0100
0000
,
1000
1000
0001
0001
,
0100
0100
0010
1000
,
0001
0001
1000
1000
,
0100
0010
0001
0100
,
1001
0000
1001
0000
,
1001
0000
1001
0000
,
1000
1000
0001
0001
,
1000
0001
1000
0020
,
0030
0000
0000
0000
;

//---------------dance-single - ----------------
#NOTEDATA:;
#CHARTNAME:;
#STEPSTYPE:dance-single;
#DESCRIPTION:;
#CHARTSTYLE:;
#DIFFICULTY:Beginner;
#METER:3;
#RADARVALUES:0.263642,0.299269,0.099756,0.099756,0.000000,198.000000,12.000000,12.000000,0.000000,0.000000,0.000000,0.000000,0.000000,0.263642,0.299269,0.099756,0.099756,0.000000,198.000000,12.000000,12.000000,0.000000,0.000000,0.000000,0.000000,0.000000;
#CREDIT:;
#OFFSET:-0.601000;
#BPMS:0.000000=195.000000
,224.000000=97.500000
,240.000000=195.000000
;
#STOPS:;
#DELAYS:;
#WARPS:;
#TIMESIGNATURES:0.000000=4=4
;
#TICKCOUNTS:0.000000=4
;
#COMBOS:0.000000=1
;
#SPEEDS:0.000000=1.000000=0.000000=0
;
#SCROLLS:0.000000=1.000000
;
#FAKES:;
#LABELS:0.000000=Song Start
;
#NOTES:
// measure 0
0000
0000
0000
0000
,  // measure 1
0000
0000
0000
0000
,  // measure 2
0000
0000
0000
0000
,  // measure 3
0000
0000
0000
0000
,  // measure 4
1000
0000
1000
0000
,  // measure 5
1000
0000
1000
0000
,  // measure 6
0001
0000
0001
0000
,  // measure 7
0001
0000
0100
0000
,  // measure 8
0010
0010
0010
0000
,  // measure 9
0010
0010
0010
0000
,  // measure 10
0010
0010
0010
0000
,  // measure 11
1001
0000
0000
0000
,  // measure 12
1000
0000
0001
0000
,  // measure 13
0010
0010
0010
0010
,  // measure 14
0010
0000
0001
0000
,  // measure 15
0100
0000
0010
0000
,  // measure 16
1000
0000
0001
0000
,  // measure 17
1000
1000
1000
1000
,  // measure 18
1000
0000
0001
0001
,  // measure 19
0001
0000
0100
0000
,  // measure 20
0001
0001
0001
0000
,  // measure 21
0010
0000
0100
0000
,  // measure 22
1000
0000
0001
0000
,  // measure 23
1000
0000
0001
0000
,  // measure 24
1000
1000
1000
0000
,  // measure 25
0010
0000
0100
0000
,  // measure 26
0001
0000
1000
0000
,  // measure 27
0100
0000
0010
0000
,  // measure 28
0001
0001
0001
0000
,  // measure 29
1000
0000
0010
0000
,  // measure 30
1000
0000
0100
0000
,  // measure 31
0010
0000
0001
0000
,  // measure 32
1000
1000
1000
0000
,  // measure 33
0010
0000
0100
0000
,  // measure 34
0001
0001
0001
0000
,  // measure 35
1000
1000
1000
0000
,  // measure 36
1001
0000
1001
0000
,  // measure 37
1001
0000
1001
0000
,  // measure 38
1000
0000
0001
0000
,  // measure 39
1000
0000
2002
3003
,  // measure 40
0000
0001
0000
0010
,  // measure 41
0000
0001
0000
0100
,  // measure 42
0000
0010
0000
1000
,  // measure 43
0000
0100
0200
0300
,  // measure 44
0000
1000
0000
0010
,  // measure 45
0000
1000
0000
0100
,  // measure 46
0000
1000
0000
1000
,  // measure 47
2000
3000
0001
0001
,  // measure 48
0000
1000
0000
0010
,  // measure 49
0000
0100
0000
0001
,  // measure 50
0000
0010
0000
0001
,  // measure 51
0000
0100
0100
0100
,  // measure 52
0000
0010
0000
1000
,  // measure 53
0000
0001
0000
0010
,  // measure 54
0000
0001
0000
0001
,  // measure 55
0002
0003
1000
1000
,  // measure 56
2000
3000
0002
0003
,  // measure 57
0100
0200
0300
0001
,  // measure 58
0002
0003
0020
0030
,  // measure 59
0100
0200
0300
1000
,  // measure 60
1000
0000
1000
0000
,  // measure 61
1000
0000
0001
0001
,  // measure 62
0001
0000
0001
0000
,  // measure 63
0001
0000
1000
1000
,  // measure 64
1000
0000
0001
0000
,  // measure 65
1000
0000
0001
0000
,  // measure 66
0100
0000
0010
0000
,  // measure 67
0100
0100
0100
0000
,  // measure 68
1001
0000
0000
0000
,  // measure 69
0000
0000
0110
0000
,  // measure 70
1000
0000
0100
0000
,  // measure 71
0010
0000
0001
0001
,  // measure 72
0001
0000
0001
0000
,  // measure 73
0001
0000
0001
0000
,  // measure 74
1000
0000
0010
0000
,  // measure 75
0100
0000
0010
0010
,  // measure 76
0010
0000
1000
0000
,  // measure 77
0001
0000
0010
0000
,  // measure 78
0001
0000
0100
0000
,  // measure 79
0010
0000
1000
1000
,  // measure 80
1000
0000
0001
0000
,  // measure 81
1000
0000
1000
0000
,  // measure 82
0001
0000
0010
0000
,  // measure 83
0001
0000
0100
0100
,  // measure 84
0100
0000
0010
0000
,  // measure 85
1000
0000
0001
0000
,  // measure 86
1001
0000
1001
0000
,  // measure 87
1001
0000
1001
0000
,  // measure 88
1000
1000
1000
0000
,  // measure 89
0001
0001
0001
0002
,  // measure 90
0003
0000
0000
0000
;
