#TITLE:INFINITY OVERDRIVE;
#SUBTITLE:;
#ARTIST:DecisionS(kanone+nora2r);
#TITLETRANSLIT:;
#SUBTITLETRANSLIT:;
#ARTISTTRANSLIT:;
#GENRE:;
#CREDIT:;
#BANNER:[Drop The Zero] - INFINITY OVERDRIVE.png;
#BACKGROUND:[Drop The Zero] - INFINITY OVERDRIVE-bg.png;
#LYRICSPATH:;
#CDTITLE:cdtitle.png;
#MUSIC:INFINITY OVERDRIVE.ogg;
#OFFSET:-0.803000;
#SAMPLESTART:92.916862;
#SAMPLELENGTH:12.000000;
#SELECTABLE:YES;
#DISPLAYBPM:185.000000;
#BPMS:0.000000=185.000000
;
#STOPS:60.000000=0.973000,
281.000000=0.973000
;
#BGCHANGES:;
#KEYSOUNDS:;
#ATTACKS:;

//---------------dance-single - ----------------
#NOTES:
     dance-single:
     :
     Hard:
     8:
     0.527095,0.584267,0.033773,0.396829,0.004222,386.000000,4.000000,47.000000,22.000000,0.000000,0.000000,0.527095,0.584267,0.033773,0.396829,0.004222,386.000000,4.000000,47.000000,22.000000,0.000000,0.000000:
0000
0000
0000
0000
,
0000
0000
0000
0000
,
0000
0000
0000
0000
,
0000
0000
0000
0000
,
0000
0000
0000
0000
,
0000
0000
0000
0000
,
0000
0000
0000
0000
,
0000
0000
0000
0000
,
1001
0001
1000
0001
,
0100
0010
0100
0010
,
1000
0100
1000
0100
,
0010
0001
0010
0001
,
0100
0001
0100
0001
0010
0100
0010
0100
,
1000
0010
1000
0010
0100
0001
0100
0001
,
0020
0000
0200
0000
,
0330
0000
0100
1000
0010
0100
0001
0000
,
0010
0000
0100
1000
0010
0001
0020
0000
,
0100
0000
1M30
0001
0100
0010
1000
0000
,
0200
0000
0310
0001
0100
1000
0200
0000
,
0000
0000
0310
1000
0001
0010
0100
0000
,
2000
0000
3001
0100
1000
0100
0020
0000
,
1000
0000
M130
0001
0020
0000
0130
1000
,
0020
0230
0001
0301
,
1001
0000
1000
0010
0001
0010
0200
0000
,
0001
0000
031M
1000
0100
0001
0200
0000
,
2300
0000
3010
0001
0010
1000
0100
0000
,
0020
0000
0031
1000
0001
0100
0020
0000
,
2030
0000
3100
0010
0100
1000
0020
0000
,
0100
0000
1M30
0100
0010
0001
0200
0000
,
0000
0000
0301
1000
0020
0000
0130
0001
,
0020
0230
0000
0000
,
0000
0000
1300
0001
0000
0010
1000
0010
,
0001
0100
0000
0010
0100
0000
0002
0000
,
1000
0000
M103
0010
0000
1000
0100
0001
,
0100
1000
0010
0000
0100
0001
2000
0000
,
0000
0000
3100
0010
0000
0001
0100
1000
,
0100
0010
0000
0100
0001
0000
0020
0000
,
0100
0000
0M31
1000
0000
0100
0010
0000
,
0001
1000
0200
0000
0000
0000
0000
0000
,
0000
0000
0310
0001
0000
1000
0010
0001
,
0010
0100
0000
0010
1000
0000
0200
0000
,
0010
0000
13M0
0001
0000
0010
0001
0000
,
0100
0001
1000
0000
0010
0100
0000
0020
,
1000
0000
M130
0001
0000
0010
1000
0010
,
0001
0100
0000
0010
0100
0000
0002
0000
,
1000
0000
M013
0100
0000
0010
0001
0000
,
0100
0020
0000
0000
0000
0000
0000
0000
,
0000
0130
0001
0100
,
1000
0100
0010
1000
,
0001
0010
1000
0010
,
0001
0010
0100
0020
,
0001
013M
1000
0010
,
0100
0001
0010
1000
,
0010
0100
1000
0001
,
1000
0020
0100
2M30
,
0001
310M
0010
0100
,
1000
0010
0001
0010
,
0100
0001
1000
0010
,
0100
0001
0010
0200
,
1000
M310
0001
0010
,
1000
0010
0100
1000
,
0010
0100
0001
1000
,
0010
0000
0200
0000
0001
0001
0301
0000
,
0110
0000
0020
0000
0000
0000
1030
0001
,
1000
0200
0000
0010
0310
0000
0001
0000
,
0100
0000
0020
1000
0000
M100
0130
0000
,
0001
0010
0100
0000
1000
0010
0000
0100
,
0000
0001
0020
0000
0100
0000
0M32
0000
,
1000
M203
0010
03M2
,
0100
1M03
0001
1000
,
0001
0000
0200
0000
0310
1000
0000
0001
,
0010
1000
0010
0100
0000
1000
0001
0000
,
0200
0000
0010
0000
03M1
0100
0000
0010
,
0100
0000
0001
0010
0100
0000
1000
0010
,
0200
0000
0001
0000
031M
1000
0000
0100
,
0010
0001
0010
0100
0000
1000
0001
0000
,
0020
0000
0001
0000
013M
1000
0000
0010
,
0100
0000
0001
0010
0200
0000
0000
0000
,
0000
0000
0000
0000
1300
0001
0000
0100
,
0010
0001
0010
1000
0000
0100
0010
0000
,
0200
0000
1000
0000
M310
0001
0000
0100
,
0010
0000
1000
0100
0010
0001
1000
0010
,
0000
0100
0001
1000
0100
0010
0000
0001
,
1000
0010
0100
0010
0000
1000
0001
0000
,
0010
0000
0100
1000
0001
0100
0000
0010
,
1000
0000
0100
0010
0000
0001
0000
0100
,
0010
0000
0000
0100
0000
0000
0001
0000
1001
0000
0000
0000
0000
0000
0000
0000
;

//---------------dance-single - ----------------
#NOTES:
     dance-single:
     :
     Medium:
     6:
     0.435426,0.584267,0.084432,0.160420,0.004222,332.000000,10.000000,19.000000,0.000000,0.000000,0.000000,0.435426,0.584267,0.084432,0.160420,0.004222,332.000000,10.000000,19.000000,0.000000,0.000000,0.000000:
0000
0000
0000
0000
,
0000
0000
0000
0000
,
0000
0000
0000
0000
,
0000
0000
0000
0000
,
0000
0000
0000
0000
,
0000
0000
0000
0000
,
0000
0000
0000
0000
,
0000
0000
0000
0000
,
1000
0001
1000
0001
,
0100
0001
0100
0001
,
1000
0010
1000
0010
,
0100
0010
0100
0010
,
1000
0001
1000
0001
1000
0001
1000
0001
,
0100
0010
0100
0010
0100
0010
0100
0010
,
2000
0000
0000
0000
,
3000
0000
0001
0010
0001
0010
0100
0000
,
0000
0000
1000
0010
1000
0010
0100
0000
,
0000
0000
0010
1000
0010
1000
0001
0000
,
0000
0000
0010
0100
0010
0100
1000
0000
,
0000
0000
0001
1000
0001
1000
0010
0000
,
0000
0000
0100
0001
0100
0001
0010
0000
,
0000
0000
0100
1000
0001
0000
0010
0001
,
1000
0020
0000
0030
,
0110
0000
0100
0001
1000
0001
0010
0000
,
0000
0000
0100
1000
0010
0100
0001
0000
,
0000
0000
0100
0001
0010
0100
1000
0000
,
0000
0000
0010
0100
0001
0010
0100
0000
,
0000
0000
1000
0001
0100
0010
0100
0000
,
0000
0000
0010
1000
0001
0010
0100
0000
,
0000
0000
1000
0100
0010
0000
0001
0010
,
0100
2000
0000
0000
,
0000
3010
0100
0001
,
0100
0010
1000
0001
,
0020
0130
1000
0001
,
1000
0010
0100
0002
,
0003
0010
0100
0010
,
0001
1000
0010
1000
,
0200
0310
0001
1000
,
0001
0200
0000
0000
,
0000
0310
1000
0001
,
1000
0100
0010
0001
,
0200
0310
1000
0001
,
1000
0100
0010
0001
,
2000
3010
0100
0001
,
0100
0010
1000
0100
,
0010
0001
1000
0001
,
0100
0002
0000
0000
,
0000
0013
0100
0010
,
0100
1000
0001
1000
,
0001
0100
0010
0100
,
0010
1000
0100
2000
,
0000
3001
0100
0001
,
0010
0001
1000
0100
,
1000
0010
1000
0100
,
0010
0001
0011
0010
,
0110
0100
1000
0001
,
1000
0010
0100
0001
,
1000
0010
0100
0010
,
1000
0001
0010
0200
,
0000
1300
0010
0100
,
0001
0010
0100
1000
,
0001
0100
0010
0100
,
0001
2000
0000
3000
,
0100
0110
0000
0010
,
0000
0101
0000
0000
0000
0000
1000
0000
,
0100
0110
0000
0100
,
0000
1001
0000
0000
0101
0000
0010
0000
,
1100
0010
0001
0010
,
0001
1000
0001
1000
,
0010
0001
0010
0100
,
0002
0000
0000
0003
1000
0001
0000
1000
,
0010
1000
0010
0100
0000
0001
0010
0000
,
0100
0000
2000
0000
3001
0010
0000
0100
,
0010
0000
0100
1000
0001
0000
0100
0010
,
2000
0000
0000
0000
3010
0100
0000
0001
,
1000
0001
1000
0100
0000
0010
0001
0000
,
0100
0000
0020
0000
1030
0100
0000
0010
,
0001
0000
0100
0010
2000
0000
0000
0000
,
0000
0000
0000
0000
3100
0010
0000
0001
,
1000
0001
1000
0010
0000
0100
0001
0000
,
0010
0000
0200
0000
1300
0001
0000
0100
,
0010
0000
1000
0000
0001
0000
0010
0100
,
0000
1000
0000
0001
0010
0100
0000
1000
,
0010
1000
0010
0100
0000
0001
0010
0000
,
0100
0000
1000
0001
0100
0001
0000
0010
,
0100
0000
1000
0001
0000
0100
0000
0010
,
1000
0000
0000
0100
0000
0000
0010
0000
0011
0000
0000
0000
0000
0000
0000
0000
;

//---------------dance-single - ----------------
#NOTES:
     dance-single:
     :
     Easy:
     4:
     0.343757,0.365167,0.000000,0.151977,0.000000,267.000000,0.000000,18.000000,0.000000,0.000000,0.000000,0.343757,0.365167,0.000000,0.151977,0.000000,267.000000,0.000000,18.000000,0.000000,0.000000,0.000000:
// measure 0
0000
0000
0000
0000
,  // measure 1
0000
0000
0000
0000
,  // measure 2
0000
0000
0000
0000
,  // measure 3
0000
0000
0000
0000
,  // measure 4
0000
0000
0000
0000
,  // measure 5
0000
0000
0000
0000
,  // measure 6
0000
0000
0000
0000
,  // measure 7
0000
0000
0000
0000
,  // measure 8
1000
0001
1000
0001
,  // measure 9
0100
0010
0100
0010
,  // measure 10
1000
0001
1000
0001
,  // measure 11
0100
0001
0100
0001
,  // measure 12
1000
0010
0001
0010
,  // measure 13
1000
0100
0001
0100
,  // measure 14
1000
0010
1000
0010
,  // measure 15
0100
0001
1000
0001
,  // measure 16
0000
0010
0100
0010
,  // measure 17
0000
0100
1000
0100
,  // measure 18
0000
0010
0001
0010
,  // measure 19
0000
0100
1000
0001
,  // measure 20
0000
0100
0001
1000
,  // measure 21
0000
0010
0000
0100
,  // measure 22
0000
0001
0000
0000
,  // measure 23
0000
0010
0100
0010
,  // measure 24
0000
0100
1000
0001
,  // measure 25
0000
0010
0100
1000
,  // measure 26
0000
0010
0100
0001
,  // measure 27
0000
1000
0100
0010
,  // measure 28
0000
0001
1000
0100
,  // measure 29
0000
0010
0100
0010
,  // measure 30
0001
2000
0000
0000
,  // measure 31
0000
3001
0100
0001
,  // measure 32
0100
0010
1000
0010
,  // measure 33
0100
0001
1000
0001
,  // measure 34
1000
0100
0010
0200
,  // measure 35
0000
1300
0010
1000
,  // measure 36
0010
0100
0001
0100
,  // measure 37
0001
0010
0100
0010
,  // measure 38
0100
2000
0000
0000
,  // measure 39
0000
3001
0100
0001
,  // measure 40
0100
0010
1000
0100
,  // measure 41
0010
0001
1000
0001
,  // measure 42
1000
0100
0010
0001
,  // measure 43
0100
0010
1000
0010
,  // measure 44
0100
0001
0010
0100
,  // measure 45
1000
0010
0100
0010
,  // measure 46
1000
0020
0000
0000
,  // measure 47
0000
0130
0001
1000
,  // measure 48
0001
0100
0001
0010
,  // measure 49
0100
1000
0010
1000
,  // measure 50
0100
0010
0100
0020
,  // measure 51
0000
0031
0100
0010
,  // measure 52
0100
0001
0010
0100
,  // measure 53
1000
0010
1000
0010
,  // measure 54
0100
0002
1003
0200
,  // measure 55
0310
0001
1000
0100
,  // measure 56
1000
0010
0100
0010
,  // measure 57
1000
0001
1000
0100
,  // measure 58
0010
0001
1000
0200
,  // measure 59
0000
0310
0001
0010
,  // measure 60
0100
1000
0100
0010
,  // measure 61
0100
1000
0001
1000
,  // measure 62
0010
2000
0000
0000
,  // measure 63
0000
3002
0000
0003
,  // measure 64
0000
0200
0000
0000
0000
0300
0000
0000
,  // measure 65
0010
2000
0000
3000
,  // measure 66
0000
0100
0000
0000
0010
0000
0000
0000
,  // measure 67
0001
1000
0001
1000
,  // measure 68
0010
1000
0100
0010
,  // measure 69
0100
1000
0010
1000
,  // measure 70
0010
0100
0010
1000
,  // measure 71
0010
0100
0001
0010
,  // measure 72
0100
2000
3001
0100
,  // measure 73
0001
0010
0100
1000
,  // measure 74
0020
0000
0130
0001
,  // measure 75
0100
0010
1000
0010
,  // measure 76
0100
0002
1003
0100
,  // measure 77
1000
0010
0200
0000
,  // measure 78
0000
0000
0310
1000
,  // measure 79
0001
1000
0100
1000
,  // measure 80
0001
0200
0310
1000
,  // measure 81
0010
0100
0001
1000
,  // measure 82
0100
0010
0001
1000
,  // measure 83
0010
1000
0100
0010
,  // measure 84
0001
0100
0010
1000
,  // measure 85
0001
0100
0020
0000
,  // measure 86
0000
0000
0130
0000
;
