#TITLE:Hella Good;
#SUBTITLE:;
#ARTIST:No Doubt;
#TITLETRANSLIT:;
#SUBTITLETRANSLIT:;
#ARTISTTRANSLIT:;
#GENRE:;
#CREDIT:mf32892;
#BANNER:Hella Good-bn.png;
#BACKGROUND:Hella Good-bg.png;
#LYRICSPATH:;
#CDTITLE:;
#MUSIC:Hella Good.ogg;
#OFFSET:-0.086528;
#SAMPLESTART:41.627899;
#SAMPLELENGTH:12.000000;
#SELECTABLE:YES;
#BPMS:0.000000=115.119003
;
#STOPS:
;
#BGCHANGES:;
#KEYSOUNDS:;
#ATTACKS:;

//---------------dance-single - ----------------
#NOTES:
     dance-single:
     :
     Hard:
     8:
     0.509811,0.472909,0.119221,0.182805,0.238442,411.000000,15.000000,23.000000,0.000000,0.000000,0.000000,0.509811,0.472909,0.119221,0.182805,0.238442,411.000000,15.000000,23.000000,0.000000,0.000000,0.000000:
// measure 0
0000
0000
0000
0000
,  // measure 1
0000
0000
0000
0000
,  // measure 2
0000
0000
0000
0000
,  // measure 3
0000
0000
0000
0000
0000
0000
0000
0001
,  // measure 4
1000
0000
1000
0100
0001
0100
1000
0001
,  // measure 5
0100
0010
0000
0010
1000
0100
1002
0000
,  // measure 6
0013
0000
0001
0100
0000
0001
0100
0000
0010
0000
1000
0000
0001
0000
1000
0000
,  // measure 7
0100
0000
1000
0100
0000
1000
0100
0000
0010
0000
0001
0000
1000
0000
0001
0000
,  // measure 8
0200
0000
0301
0100
1000
0100
0001
0010
,  // measure 9
0100
0020
0000
0031
0100
0010
2001
0000
,  // measure 10
3010
0000
1000
0100
0000
1000
0100
0000
0010
0000
0001
0000
1000
0000
0001
0000
,  // measure 11
0100
0000
0001
0100
0000
0001
0100
0000
0010
0000
1000
0000
0001
0000
1000
0000
,  // measure 12
0100
0000
0010
0001
1000
0000
1000
0010
,  // measure 13
0100
0001
1000
0100
0010
0001
1000
0000
,  // measure 14
0010
0000
0100
0001
0000
0100
0001
0000
0010
0000
0001
0000
1000
0000
0001
0000
,  // measure 15
0100
0000
0010
1000
0000
0010
1000
0000
0100
0000
1000
0000
0001
0000
1000
0000
,  // measure 16
0010
0000
0010
0100
0001
0010
1000
0010
,  // measure 17
0001
0100
0000
0100
0010
1000
1002
0000
,  // measure 18
0013
0000
0100
1000
0000
0100
1000
0000
0010
0000
1000
0000
0001
0000
1000
0000
,  // measure 19
0100
0000
0010
0001
0000
0010
0001
0000
0100
0000
0001
0000
1001
0000
0001
0100
,  // measure 20
0001
0000
0100
0000
0010
0000
0100
0010
0000
0000
0010
0000
1000
0000
0100
1000
,  // measure 21
0001
0000
0000
0000
0011
0000
0000
0000
2010
0000
0000
0000
3100
0000
0000
0100
,  // measure 22
1000
0000
0001
0000
0100
0000
0010
0000
0010
0000
0000
0000
0100
0000
0001
1000
,  // measure 23
0001
0000
0001
0000
0010
0000
0100
0000
1000
0000
0000
0000
2001
0000
0000
3100
,  // measure 24
1000
0000
0010
0000
0100
0000
0010
0100
0000
0000
0100
0000
0001
0000
0100
0001
,  // measure 25
1000
0000
0000
0000
1010
0000
0000
0000
0012
0000
0000
0000
0103
0000
0000
0100
,  // measure 26
0001
0000
1000
0000
0100
0000
0010
0000
0010
0000
0000
0000
0100
0000
1000
0001
,  // measure 27
1000
1000
0010
0100
0001
0000
1000
0100
,  // measure 28
0100
0000
0010
0100
0010
0000
0200
0000
0000
0000
1000
0000
1000
0000
2300
0000
,  // measure 29
0100
0000
3001
0000
1000
0001
0100
0000
,  // measure 30
0010
1000
0100
0002
0000
0103
0010
0000
,  // measure 31
0001
0100
1000
0001
0010
1000
0100
0010
,  // measure 32
0010
0000
0100
0010
0100
0000
0020
0000
0000
0000
0001
0000
0001
0000
0032
0000
,  // measure 33
0010
0000
1003
0000
0001
1000
0100
0000
,  // measure 34
0010
0001
0100
0020
0000
1030
0001
0000
,  // measure 35
0010
0100
1000
0010
0001
0010
1000
0100
,  // measure 36
0010
0010
0001
0001
1000
0010
0001
0010
,  // measure 37
1000
1000
0001
1000
0100
0010
0002
0000
,  // measure 38
0103
0001
0010
0001
0100
0010
0100
0010
,  // measure 39
1000
0100
0001
0100
1000
0001
1000
0000
,  // measure 40
0010
0010
1000
1000
0001
0100
1000
0100
,  // measure 41
0001
0001
0010
0001
0100
0010
1000
0000
,  // measure 42
0100
1000
0010
1000
0100
0010
0100
0010
,  // measure 43
0001
0100
0000
0100
0010
0000
1000
0001
0000
0001
0010
0000
0100
0010
0001
0010
,  // measure 44
0001
0000
1000
0000
0001
0000
0100
0001
0000
0000
0001
0000
0100
0000
0010
1000
,  // measure 45
0001
0000
0000
0000
0011
0000
0000
0000
0201
0000
0000
0000
1300
0000
0000
1000
,  // measure 46
0100
0000
0001
0000
1000
0000
0100
0010
0100
0000
0000
0000
0010
0000
0001
1000
,  // measure 47
0001
0100
0001
0000
0100
0000
0010
0000
1000
0000
0000
0000
2001
0000
0000
3010
,  // measure 48
1000
0000
0001
0000
1000
0000
0100
1000
0000
0000
1000
0000
0100
0000
0010
0001
,  // measure 49
1000
0000
0000
0000
1010
0000
0000
0000
1200
0000
0000
0000
0301
0000
0000
0001
,  // measure 50
0100
0000
1000
0000
0001
0000
0100
0010
0100
0000
0000
0000
0010
0000
1000
0001
,  // measure 51
1000
0100
1000
0000
0100
0000
0010
0000
0001
0000
0000
0000
1002
0000
0000
0000
,  // measure 52
0103
0000
0001
0100
0000
0001
0100
0000
0010
0000
0000
0000
0000
0000
0000
0000
,  // measure 53
0000
0000
1000
0000
0000
0000
1000
0000
0100
0000
0000
0000
0000
0000
0000
0100
,  // measure 54
0010
0000
0010
0000
0000
0000
0010
0000
0001
0000
0000
0000
0000
0000
0001
0100
,  // measure 55
0001
0001
0100
0010
1000
0000
0002
0000
,  // measure 56
1003
0000
0100
0010
0000
0000
0010
0001
0020
0000
0030
0000
0000
0000
0000
0000
,  // measure 57
0000
0000
0100
1000
0000
0000
1000
0001
2000
0000
3000
0000
0000
0000
0000
0010
,  // measure 58
0100
0000
0100
0010
0100
0000
0010
1000
0020
0000
0030
0000
0000
0000
0000
0000
,  // measure 59
0000
0000
1000
0001
1000
0000
0010
1000
0100
0000
0000
0000
0000
0000
0000
0000
;

//---------------dance-single - ----------------
#NOTES:
     dance-single:
     :
     Medium:
     6:
     0.391725,0.331036,0.254338,0.087429,0.039740,302.000000,32.000000,11.000000,0.000000,0.000000,0.000000,0.391725,0.331036,0.254338,0.087429,0.039740,302.000000,32.000000,11.000000,0.000000,0.000000,0.000000:
0000
0000
0000
0000
,
0000
0000
0000
0000
,
0000
0000
0000
0000
,
0000
0000
0000
1002
,
2003
0000
3100
0000
0010
0100
1000
0000
,
0001
0100
0010
0000
0200
0000
0301
0000
,
0010
0000
0000
0010
0000
0000
0010
0000
0100
0000
0000
0000
1001
0000
0000
0000
,
0100
0000
0000
0100
0000
0000
0100
0000
0010
0000
0000
0000
2001
0000
0000
0000
,
3002
0000
0013
0000
0100
1000
0001
0000
,
0100
0010
1000
0000
0100
0000
0110
0000
,
1000
0000
0000
1000
0000
0000
1000
0000
0001
0000
0000
0000
0110
0000
0000
0000
,
0001
0000
0000
0001
0000
0000
0001
0000
1000
0000
0000
0000
0110
0000
0000
0000
,
1000
0000
1000
0001
0100
0000
0101
0000
,
0100
0100
0010
0100
0010
0000
1001
0000
,
0001
0000
0000
0001
0000
0000
0001
0000
0010
0000
0000
0000
0101
0000
0000
0000
,
1000
0000
0000
1000
0000
0000
1000
0000
0010
0000
0000
0000
1100
0000
0000
0000
,
0001
0000
0001
1000
0100
0000
1100
0000
,
0010
0010
0100
0010
0100
0000
1001
0000
,
1000
0000
0000
1000
0000
0000
1000
0000
0100
0000
0000
0000
1010
0000
0000
0000
,
0001
0000
0000
0001
0000
0000
0001
0000
0100
0000
0000
0000
0011
0000
0000
0000
,
1000
0100
0010
0100
1000
0000
1100
0000
,
0001
0100
0010
0100
0001
0000
0101
0000
,
0001
0010
0100
1000
0001
0000
0101
0000
,
0100
0100
0010
1000
0001
0000
1001
0000
,
0001
0010
0100
0010
0001
0000
0011
0000
,
1000
0010
0100
0010
1000
0000
1010
0000
,
1000
0100
0010
0001
1000
0000
1010
0000
,
0010
0010
0100
0001
1000
0000
1001
0000
,
0002
0000
0010
0000
1003
0001
0100
0002
,
1000
1000
0100
0103
,
0010
1000
0001
2000
0100
0000
3100
0000
,
0010
0001
0100
0000
0010
1000
0001
0000
,
2000
0000
0010
0000
3001
1000
0100
2000
,
0001
0001
0100
3100
,
0010
0001
1000
0002
0100
0000
0103
0000
,
0010
1000
0100
0000
0010
0001
1000
0000
,
1000
0100
1000
0000
1000
0010
1000
0000
,
0100
0010
0001
0100
0001
0000
0101
0000
,
0001
0001
0001
0000
1000
1000
1000
0000
,
0100
0100
0100
0000
0010
0010
0010
0000
,
0001
0100
0001
0000
0001
0010
0001
0000
,
0100
0010
1000
0100
1000
0000
1100
0000
,
1000
1000
1000
0000
0001
0001
0001
0000
,
0100
0000
0000
0100
0000
0000
0010
0000
0000
0010
0000
0000
1000
0000
0010
0000
,
0100
0001
1000
0001
0100
0000
0101
0000
,
0010
1000
0001
1000
0010
0000
1010
0000
,
0010
1000
0100
0010
0001
0000
0011
0000
,
0001
0001
1000
0010
0100
0000
0110
0000
,
0010
1000
0001
1000
0010
0000
1010
0000
,
0100
0001
1000
0001
0100
0000
0101
0000
,
0100
0001
0010
0100
1000
0000
1100
0000
,
1000
1000
0001
0100
0010
0000
0110
0000
,
1000
0100
0000
0100
0010
0000
0000
0000
,
0000
0100
0000
0100
1000
0000
0000
0000
,
0001
0001
0000
0100
0010
0000
0000
0010
,
0100
0100
0001
1000
0100
0000
0000
0000
,
0100
0010
0000
0010
0100
0000
0000
0000
,
0000
1000
0000
1000
0001
0000
0000
0000
,
0100
0100
0000
0100
0010
0000
0000
0000
,
0000
1000
0000
1000
0100
0000
0000
0000
;

//---------------dance-single - ----------------
#NOTES:
     dance-single:
     :
     Easy:
     4:
     0.249796,0.281361,0.206649,0.119221,0.000000,179.000000,26.000000,15.000000,0.000000,0.000000,0.000000,0.249796,0.281361,0.206649,0.119221,0.000000,179.000000,26.000000,15.000000,0.000000,0.000000,0.000000:
0000
0000
0000
0000
,
0000
0000
0000
0000
,
0000
0000
0000
0000
,
0000
0000
0000
0000
,
1000
0100
1000
0001
,
0100
0010
0200
0300
,
0001
0010
0100
1001
,
1000
0010
0100
1001
,
0001
0100
0001
1000
,
0100
0010
0200
0300
,
1000
0100
0010
1001
,
0001
0100
0010
1001
,
0001
0010
0001
0100
,
0010
1000
0200
0300
,
1000
0001
0100
0110
,
0001
1000
0100
0110
,
1000
0010
1000
0100
,
0010
0001
0100
0000
,
0001
1000
0010
0110
,
1000
0001
0010
0110
,
1000
0100
0001
0100
,
1100
1100
0011
0011
,
0001
0100
0010
0000
,
0100
0100
0100
0000
,
0001
0100
1000
0100
,
0101
0101
1010
1010
,
1000
0100
0010
0000
,
0100
0100
0100
0000
,
2000
0000
3001
0100
,
0002
0000
0103
0010
,
2000
0000
3100
0010
,
0200
0000
1300
0001
,
0200
0000
0310
1000
,
0200
0000
0310
0001
,
2000
0000
3001
0100
,
0020
0000
1030
0100
,
0010
0010
0001
0001
,
0100
0010
1001
0000
,
1000
0100
0001
0100
,
1000
0100
0010
0001
,
0100
0100
0001
0001
,
0010
0100
1001
0000
,
0001
0100
1000
0100
,
0001
0000
0000
1000
0000
0000
0001
0000
,
1000
0010
0001
0010
,
1010
1010
0101
0101
,
0001
0100
0010
0000
,
0100
0000
0100
0010
0100
0000
0000
0000
,
0001
0010
1000
0010
,
0011
0011
1100
1100
,
1000
0010
0100
0000
,
0010
0000
0010
0100
0010
0000
0000
0000
,
2000
0000
0000
3000
,
0002
0000
0000
0003
,
0020
0000
0000
0030
,
0200
0000
0000
0300
,
1000
0000
0000
0000
,
0001
0000
0000
0000
,
0100
0000
0000
0000
,
0010
0000
0000
0000
;
