#VERSION:0.82;
#TITLE:Get Another Boyfriend;
#SUBTITLE:;
#ARTIST:Backstreet Boys;
#TITLETRANSLIT:;
#SUBTITLETRANSLIT:;
#ARTISTTRANSLIT:;
#GENRE:;
#ORIGIN:;
#CREDIT:;
#BANNER:Get Another Boyfriend.png;
#BACKGROUND:Get Another Boyfriend-bg.png;
#PREVIEWVID:;
#JACKET:Get Another Boyfriend-jacket.png;
#CDIMAGE:;
#DISCIMAGE:;
#LYRICSPATH:;
#CDTITLE:cdtitle.png;
#MUSIC:Get Another Boyfriend.ogg;
#OFFSET:0.000000;
#SAMPLESTART:42.435471;
#SAMPLELENGTH:14.984390;
#SELECTABLE:YES;
#BPMS:0.000=96.100;
#STOPS:127.000=0.624;
#DELAYS:;
#WARPS:;
#TIMESIGNATURES:0.000=4=4;
#TICKCOUNTS:0.000=4;
#COMBOS:0.000=1;
#SPEEDS:0.000=1.000=0.000=0;
#SCROLLS:0.000=1.000;
#FAKES:;
#LABELS:0.000=Song Start;
#BGCHANGES:;
#KEYSOUNDS:;
#ATTACKS:
;

//---------------dance-single - S-CHALLENGE----------------
#NOTEDATA:;
#CHARTNAME:xRGTMx-CSP;
#STEPSTYPE:dance-single;
#DESCRIPTION:S-CHALLENGE;
#CHARTSTYLE:;
#DIFFICULTY:Challenge;
#METER:9;
#RADARVALUES:0.546178,0.555132,0.461744,0.129288,0.424805,350.000000,50.000000,14.000000,0.000000,0.000000,0.000000,0.000000,0.000000,0.546178,0.555132,0.461744,0.129288,0.424805,350.000000,50.000000,14.000000,0.000000,0.000000,0.000000,0.000000,0.000000;
#CREDIT:xRGTMx;
#NOTES:
0000
0000
0000
0000
,
0000
0000
0000
0000
,
0000
0000
0000
0000
,
1100
0000
0000
1000
0001
0000
0101
0000
0100
0000
0000
0000
0110
0000
0000
0000
,
1010
0000
0000
0000
1001
0000
0000
0011
0000
0000
0000
0000
0200
0000
0000
0000
,
0310
0011
1100
1001
,
0001
0000
0001
0000
1000
0000
1000
0020
0000
0000
0000
0000
0000
0000
0000
0000
,
0130
0000
0000
0100
0000
0000
0100
0000
0010
0000
0000
0000
1001
0000
0000
0000
,
1000
0001
1000
0100
1000
0000
0001
0100
0000
0000
0010
0000
1001
0000
1000
0000
,
0001
0010
0001
1000
0001
0000
0100
0000
0010
0000
1000
0001
0010
0000
0100
0000
,
1100
0000
1000
0000
1001
0000
0001
0100
0000
0010
0100
0010
0100
0001
1000
0000
,
0100
0010
0001
0010
0100
0000
1100
0000
0101
0000
0001
0000
1000
0000
0001
1000
,
0010
1000
0100
1000
0010
0000
0010
0100
0000
0000
0001
0000
1001
0000
1000
0000
,
0100
0010
0001
1000
0010
1000
0001
0000
0101
0000
0000
0000
1100
0000
0000
0000
,
1010
0000
1000
0000
1001
0000
0001
0010
0000
0010
0100
0010
0001
1000
0010
0100
,
0002
0000
0000
0010
0000
0000
1000
0000
0103
0000
0000
0000
1001
0000
0000
0000
,
1000
0010
0001
1000
0100
0001
0020
0000
0000
0000
0000
0000
0130
0000
0000
0000
,
1100
0000
1000
0001
0100
0000
0010
0000
1010
0000
1000
0000
0001
0000
0010
0001
,
0100
0000
0100
0000
0010
0000
1000
0000
1001
0000
0001
0000
0010
0001
0100
0000
,
0010
1000
0001
1000
0100
0000
0010
0000
0001
0000
0100
0000
0101
0000
0001
1000
,
0100
0100
0010
0001
0011
0000
1000
0010
,
1001
0000
0001
1000
0100
0000
1000
0000
0010
0100
0001
0000
0100
0000
0010
1000
,
0001
0000
0010
0000
0110
0000
0100
0000
1100
0000
1000
0000
0001
1000
0010
0100
,
0010
1000
0010
1000
0001
0000
0010
0000
0210
0000
1000
0300
2001
0000
0000
0000
,
3010
0000
0000
0000
0000
0000
0000
0000
0000
0010
0100
0010
0100
0010
0100
0010
,
1001
0000
1000
0001
0010
0000
0100
0000
1100
0000
1000
0000
1001
0000
0001
1000
,
0010
0100
0001
0100
0010
0000
1000
0100
0000
0000
0010
0000
0012
0000
0000
0000
,
0103
0001
1000
0001
0100
0000
0010
0000
1010
0000
1000
0000
1001
0000
0001
0000
,
0010
0000
0010
0000
0100
0000
1000
0001
0000
0100
0001
0100
0010
1000
0100
0010
,
2001
0000
0010
0000
3010
0000
1000
0001
1000
0000
0100
0000
0110
0000
0010
0000
,
0001
0010
0100
1000
0001
0000
0001
0100
0000
0000
0010
0000
1010
0000
1000
0000
,
0001
0000
0000
0000
0000
0000
0000
0000
0000
0000
0000
0000
0010
0000
0000
0000
0000
0000
0000
0000
0000
0000
0000
0000
0100
0000
0000
0000
0000
0000
0000
0000
0000
0000
0000
0000
0010
0000
0000
0000
0000
0000
0000
0000
0000
0000
0000
0000
0001
0000
0000
0000
0000
0000
0000
0000
0000
0000
0000
0000
0000
0000
0000
0000
0000
0000
0000
0000
0000
0000
0000
0000
1000
0000
0000
0000
0000
0000
0000
0000
0000
0000
0000
0000
0000
0000
0000
0000
0000
0000
0000
0000
0000
0000
0000
0000
0020
0000
0000
0000
0000
0000
0000
0000
0000
0000
0000
0000
0000
0000
0000
0000
0000
0000
0000
0000
0000
0000
0000
0000
0000
0000
0000
0000
0000
0000
0000
0000
0000
0000
0000
0000
0000
0000
0000
0000
0000
0000
0000
0000
0000
0000
0000
0000
0130
0001
0000
0000
0000
0000
0000
0000
0000
0000
0000
0000
1000
0000
0000
0000
0000
0000
0000
0000
0000
0000
0000
0000
0001
0000
0000
0000
0000
0000
0000
0000
0000
0000
0000
0000
1000
0000
0000
0000
0000
0000
0000
0000
0000
0000
0000
0000
,
0001
0000
1000
0100
0000
0000
0010
0100
0010
0001
1000
0010
2000
0000
0000
0010
,
0000
0000
0001
0000
0001
0000
0000
0000
3100
1000
0100
1000
0001
0010
1000
0001
,
0100
1000
0020
0000
0000
0000
0000
0000
0130
0000
0000
0000
0101
0000
0001
1000
,
0100
0000
0010
0000
0011
0000
0001
0000
1000
0000
0010
1000
0100
0000
0100
0000
,
0010
0000
0001
0000
1001
0000
1000
0000
0010
1000
0100
0000
0010
0001
1000
0001
,
0100
0000
0010
0000
1000
0000
0100
0000
1100
0000
1000
0001
0100
0000
0100
0000
,
0010
0000
1000
0000
1010
0000
0000
0000
0001
0000
0010
0000
1001
0000
1000
0001
,
0100
0000
0001
0000
0010
0100
1000
0000
0100
0000
0010
0001
1000
0000
0010
0000
,
0110
0000
0100
0000
0101
0000
0001
0000
1000
0001
0010
0100
2000
0000
0010
0000
,
0000
0000
0001
0000
3001
1000
0100
0000
0110
0000
0010
0000
2002
0000
0000
0000
,
0000
0000
0000
0000
3000
0000
0000
0000
0000
0000
0000
0000
0000
0000
0000
0003
;

//---------------dance-single - S-EXPERT----------------
#NOTEDATA:;
#CHARTNAME:xRGTMx-ESP;
#STEPSTYPE:dance-single;
#DESCRIPTION:S-EXPERT;
#CHARTSTYLE:;
#DIFFICULTY:Hard;
#METER:8;
#RADARVALUES:0.415570,0.436175,0.323221,0.092349,0.110819,270.000000,35.000000,10.000000,0.000000,0.000000,0.000000,0.000000,0.000000,0.415570,0.436175,0.323221,0.092349,0.110819,270.000000,35.000000,10.000000,0.000000,0.000000,0.000000,0.000000,0.000000;
#CREDIT:xRGTMx;
#NOTES:
0000
0000
0000
0000
,
0000
0000
0000
0000
,
0000
0000
0000
0000
,
0001
0000
0000
1000
0000
0000
0100
0000
0100
0000
0000
0000
0000
0000
0000
0000
,
0010
0000
0000
0000
0001
0000
0000
1000
0000
0000
0000
0000
0010
0000
0000
0000
,
1100
1001
0101
1001
,
0001
0000
0001
0000
1000
0000
1000
0002
0000
0000
0000
0000
0000
0000
0000
0000
,
0103
0000
0000
0100
0000
0000
0100
0000
0010
0000
0000
0000
1001
0000
0000
0000
,
1000
0000
0100
0000
1000
0000
0001
0100
0000
0000
0010
0000
0110
0000
0100
0000
,
0001
0010
1000
0010
0001
1000
0010
0000
,
1010
0000
1000
0000
0001
0000
0001
0010
0000
0000
0010
0000
0100
0000
0000
0000
,
1100
0001
0100
0010
1010
0001
0010
0000
,
0100
0000
0100
0000
1000
0000
0001
0100
0000
0000
0010
0000
1001
0000
0000
0000
,
1000
0010
0001
0010
1000
0100
0001
0000
,
0101
0000
0100
0000
1100
0000
1000
0001
0000
0000
0100
0000
0010
0100
0010
0000
,
1000
0000
0000
1000
0000
0000
1000
0000
2000
0000
0000
0000
3001
0000
0000
0000
,
0100
0010
0100
0010
0100
0010
0200
0000
0000
0000
0000
0000
0310
0000
0000
0000
,
1001
0001
1000
0100
0010
0010
0001
1000
,
0010
0010
1000
0100
0011
0010
1010
0010
,
0001
0010
0100
1000
0001
0001
0100
0010
,
1000
1000
0010
0100
0001
0010
1000
0100
,
1001
1000
0001
0100
0010
0010
1000
0001
,
0011
0010
0110
0100
1100
1000
0001
0100
,
0010
0100
0010
0000
1000
0000
0001
0000
0010
0000
0200
0000
1000
0000
0000
0000
,
0310
0000
0000
0000
,
0101
1000
0100
0010
0011
1000
0010
0100
,
0001
0000
0010
0000
1000
0000
0010
0100
0000
0000
1000
0000
1001
0000
0000
0000
,
0001
0100
1000
0010
1000
0100
0001
0010
,
0110
0000
0100
0000
1100
0000
1000
0001
0000
0000
0100
0000
0010
0100
0010
0000
,
2000
0001
3001
1000
0100
0010
0110
0000
,
0001
0000
1000
0000
0100
0000
0010
0100
0000
0000
1000
0000
1001
0000
0000
0000
,
0001
0100
0010
1000
0100
0000
1001
1000
,
0001
0000
0001
0100
0000
0000
0010
0000
1000
0001
1000
0000
0100
0000
0000
0100
,
0000
0000
0100
0000
0020
0000
0000
0000
0031
0000
0000
0000
0001
1000
0001
1000
,
0001
1000
0002
0000
0000
0000
0000
0000
0103
0000
0000
0000
1001
0000
0001
0000
,
1000
0010
0100
0100
0001
1000
0100
0100
,
1000
0010
0101
0100
1100
0100
0001
0100
,
0010
1000
0001
0001
0010
0100
1000
1000
,
0100
0010
0001
0100
1000
0010
1001
1000
,
0001
0010
0100
0100
1000
0001
0101
0100
,
0110
0010
1010
1000
0001
0010
0200
0000
,
0000
1000
0001
0000
0310
0000
2002
0000
,
0000
0000
0000
0000
0003
0000
0000
0000
0000
0000
0000
0000
0000
0000
0000
3000
;

//---------------dance-single - S-DIFFICULT----------------
#NOTEDATA:;
#CHARTNAME:xRGTMx-DSP;
#STEPSTYPE:dance-single;
#DESCRIPTION:S-DIFFICULT;
#CHARTSTYLE:;
#DIFFICULTY:Medium;
#METER:6;
#RADARVALUES:0.304751,0.337045,0.230872,0.055409,0.050792,200.000000,25.000000,6.000000,0.000000,0.000000,0.000000,0.000000,0.000000,0.304751,0.337045,0.230872,0.055409,0.050792,200.000000,25.000000,6.000000,0.000000,0.000000,0.000000,0.000000,0.000000;
#CREDIT:xRGTMx;
#NOTES:
0000
0000
0000
0000
,
0000
0000
0000
0000
,
0000
0000
0000
0000
,
1000
0000
0000
1000
0000
0000
0001
0000
0001
0000
0000
0000
0000
0000
0000
0000
,
0010
0000
0000
0000
0001
0000
0000
1000
0000
0000
0000
0000
0000
0000
0000
0000
,
0010
1001
0100
1001
,
1000
0000
0001
0000
1000
0000
0000
0020
0000
0000
0000
0000
0000
0000
0000
0000
,
0130
0000
0000
0010
0010
0000
1001
0000
,
1000
0001
0100
0000
1000
0001
0010
0000
,
1000
1100
0001
0101
,
1000
0000
0001
0000
1000
0000
0000
0100
0000
0000
0010
0000
1001
0000
0000
0000
,
0001
1000
0100
0000
0001
1000
0010
0000
,
0001
0000
0100
0000
0010
0000
0000
1000
0000
0000
0001
0000
0010
0000
0000
0000
,
0001
0101
1000
1100
,
0001
0000
1000
0000
0001
0000
0000
0100
0000
0000
0010
0000
0010
0000
0000
0000
,
1000
0000
0000
0001
0000
0000
0001
0000
1000
0000
0000
0000
0110
0000
0000
0000
,
0001
0100
1000
0020
0000
0000
0130
0000
,
1001
1000
0100
0000
0010
0001
1000
0000
,
0001
0100
1000
0010
,
0001
0010
0100
0000
1000
0001
0100
0000
,
0010
1000
0010
0100
0010
0000
1001
0000
,
1100
1000
0010
0000
0101
0001
0010
0000
,
0100
0000
1000
0000
0010
0100
0010
0000
,
1000
0001
0010
0000
0100
0000
0110
0000
,
1001
0000
0000
0000
,
1000
0001
0010
0000
1000
0001
0100
0000
,
1000
1010
0001
0011
,
1000
0010
0100
1000
0100
0001
1000
0000
,
0001
0000
1000
0000
0001
0000
0000
0100
0000
0000
0010
0000
1001
0000
0000
0000
,
1000
0001
0100
0000
1000
0001
0010
0000
,
1000
0000
0100
0000
0010
0000
0000
0001
0000
0000
1000
0000
0010
0000
0000
0000
,
1000
0110
0001
1001
,
1000
0000
0000
0100
0000
0000
0010
0000
0010
0000
0000
0000
0001
0000
0000
1000
,
0000
1000
0001
0000
0110
0000
1000
0010
,
0001
0200
0000
0000
0310
0000
1001
1000
,
0010
0000
0100
0001
1000
0000
0001
0000
,
0010
0000
1000
0000
0100
0000
0001
0100
,
0010
0000
1000
0001
0010
0000
0100
1000
,
0100
0010
0100
0000
1001
0000
1010
1000
,
0100
0000
0010
0001
0100
0000
0010
1000
,
0001
1000
0100
0100
0010
0001
0020
0000
,
0000
0100
0130
0000
0010
0000
2002
0000
,
0000
0000
3000
0000
0000
0000
0000
0000
0000
0000
0000
0000
0000
0000
0000
0003
;

//---------------dance-single - S-BASIC----------------
#NOTEDATA:;
#CHARTNAME:xRGTMx-BSP;
#STEPSTYPE:dance-single;
#DESCRIPTION:S-BASIC;
#CHARTSTYLE:;
#DIFFICULTY:Easy;
#METER:3;
#RADARVALUES:0.167547,0.253613,0.092349,0.064644,0.000000,110.000000,10.000000,7.000000,0.000000,0.000000,0.000000,0.000000,0.000000,0.167547,0.253613,0.092349,0.064644,0.000000,110.000000,10.000000,7.000000,0.000000,0.000000,0.000000,0.000000,0.000000;
#CREDIT:xRGTMx;
#NOTES:
0000
0000
0000
0000
,
0000
0000
0000
0000
,
0000
0000
0000
0000
,
1000
0000
1000
0000
,
0001
0000
0001
0000
,
0010
0010
0100
0100
,
0010
0001
1000
0000
,
0010
0000
0000
1001
,
1000
1000
0100
0000
,
0010
0000
0010
0000
,
0001
1000
0001
0000
,
1000
1000
0010
0000
,
1000
0001
0010
0000
,
0100
0100
1000
1000
,
0001
1000
0010
0100
,
0002
0000
1003
0000
,
0001
0020
0000
0130
,
1001
0000
1000
0000
,
0010
0100
0010
0000
,
0001
0000
0001
0000
,
0010
0100
0010
0000
,
1001
1000
0100
0000
,
1000
0001
0100
0000
,
0010
1000
0001
0010
,
1001
0000
0000
0000
,
0001
0100
0010
0000
,
0001
1000
0100
0000
,
0001
0000
1000
0000
,
0100
0010
0100
0000
,
1000
0100
0010
0000
,
1000
0001
0100
0000
,
1000
0001
0100
1001
,
0000
0100
0000
2000
,
0000
0000
3001
1000
,
0020
0000
0130
1001
,
0000
0001
0000
0010
,
0100
0010
0000
1001
,
0000
1000
0000
0010
,
0100
0010
0000
1001
,
0001
0100
0100
0001
,
1000
0100
0100
0020
,
0000
0130
0110
2002
,
0000
3003
0000
0000
;

//---------------dance-single - BEGINNER----------------
#NOTEDATA:;
#CHARTNAME:xRGTMx-BEG;
#STEPSTYPE:dance-single;
#DESCRIPTION:BEGINNER;
#CHARTSTYLE:;
#DIFFICULTY:Beginner;
#METER:1;
#RADARVALUES:0.081795,0.096389,0.064644,0.000000,0.000000,55.000000,7.000000,0.000000,0.000000,0.000000,0.000000,0.000000,0.000000,0.081795,0.096389,0.064644,0.000000,0.000000,55.000000,7.000000,0.000000,0.000000,0.000000,0.000000,0.000000,0.000000;
#CREDIT:xRGTMx;
#NOTES:
// measure 0
0000
0000
0000
0000
,  // measure 1
0000
0000
0000
0000
,  // measure 2
0000
0000
0000
0000
,  // measure 3
1000
0000
0000
0000
,  // measure 4
0001
0000
0000
0000
,  // measure 5
0100
0000
0100
0000
,  // measure 6
0100
0000
0000
0000
,  // measure 7
0010
0000
0000
1001
,  // measure 8
0000
0000
1000
0000
,  // measure 9
0001
0000
0000
0000
,  // measure 10
0010
0000
0010
0000
,  // measure 11
0001
0000
0000
0000
,  // measure 12
0100
0000
0100
0000
,  // measure 13
0010
0000
0000
0000
,  // measure 14
1000
0000
1000
0000
,  // measure 15
0001
0000
0000
0010
,  // measure 16
0000
0000
0000
0000
,  // measure 17
1001
0000
1000
0000
,  // measure 18
0100
0000
0000
0000
,  // measure 19
1000
0000
0001
0000
,  // measure 20
0100
0000
0000
0000
,  // measure 21
0010
0000
0100
0000
,  // measure 22
0010
0000
0000
0000
,  // measure 23
1000
0000
0001
0000
,  // measure 24
0110
0000
0000
0000
,  // measure 25
1000
0000
1000
0000
,  // measure 26
0100
0000
0000
0000
,  // measure 27
0001
0000
0001
0000
,  // measure 28
0100
0000
0000
0000
,  // measure 29
1000
0000
0000
0000
,  // measure 30
0001
0000
1000
0000
,  // measure 31
0010
0000
0000
1001
,  // measure 32
0000
0000
0000
1000
,  // measure 33
0000
0000
0010
0000
,  // measure 34
0000
0000
0000
1001
,  // measure 35
0000
0001
0000
0010
,  // measure 36
0000
0000
0000
0001
,  // measure 37
0000
1000
0000
0010
,  // measure 38
0000
0000
0000
1001
,  // measure 39
0000
1000
0000
0010
,  // measure 40
0000
0000
0000
0100
,  // measure 41
0000
0000
0000
1001
;
