#VERSION:0.81;
#TITLE:GRANDE AMORE;
#SUBTITLE:;
#ARTIST:IL VOLO;
#TITLETRANSLIT:;
#SUBTITLETRANSLIT:;
#ARTISTTRANSLIT:;
#GENRE:;
#ORIGIN:;
#CREDIT:;
#BANNER:Grande Amore.png;
#BACKGROUND:Grande Amore-bg.png;
#PREVIEWVID:;
#JACKET:Grande Amore-jacket.png;
#CDIMAGE:;
#DISCIMAGE:;
#LYRICSPATH:;
#CDTITLE:;
#MUSIC:Grande Amore.ogg;
#OFFSET:-0.060000;
#SAMPLESTART:74.439842;
#SAMPLELENGTH:15.000007;
#SELECTABLE:YES;
#BPMS:0.000=71.000;
#STOPS:;
#DELAYS:;
#WARPS:;
#TIMESIGNATURES:0.000=4=4;
#TICKCOUNTS:0.000=4;
#COMBOS:0.000=1;
#SPEEDS:0.000=1.000=0.000=0;
#SCROLLS:0.000=1.000;
#FAKES:;
#LABELS:0.000=Song Start;
#BGCHANGES:;
#KEYSOUNDS:;
#ATTACKS:
;

//---------------dance-single - ----------------
#NOTEDATA:;
#CHARTNAME:;
#STEPSTYPE:dance-single;
#DESCRIPTION:;
#CHARTSTYLE:;
#DIFFICULTY:Beginner;
#METER:1;
#RADARVALUES:0.117423,0.112916,0.016605,0.041513,0.000000,92.000000,2.000000,5.000000,0.000000,0.000000,0.000000,0.000000,0.000000,0.117423,0.112916,0.016605,0.041513,0.000000,92.000000,2.000000,5.000000,0.000000,0.000000,0.000000,0.000000,0.000000;
#CREDIT:;
#NOTES:
// measure 0
0000
0000
0000
0000
,  // measure 1
0000
0000
0000
0000
,  // measure 2
0100
0000
0010
0000
,  // measure 3
1000
0000
0001
0000
,  // measure 4
0010
0000
0010
0000
,  // measure 5
1000
0000
1000
0000
,  // measure 6
0001
0000
0001
0000
,  // measure 7
0100
0000
0100
0000
,  // measure 8
1000
0000
0001
0000
,  // measure 9
0010
0000
0100
0000
,  // measure 10
0100
0000
0100
0000
,  // measure 11
0010
0000
0010
0000
,  // measure 12
1000
0000
1000
0000
,  // measure 13
0002
0000
0003
0000
,  // measure 14
0100
0100
0100
0100
,  // measure 15
0010
0010
0010
0010
,  // measure 16
1000
1000
1000
1000
,  // measure 17
0001
0001
0001
0001
,  // measure 18
0100
0010
1000
0001
,  // measure 19
0010
0001
1000
0010
,  // measure 20
0200
0000
0000
0300
,  // measure 21
0020
0000
0030
0110
,  // measure 22
0010
0010
0100
0100
,  // measure 23
0001
0001
1000
1000
,  // measure 24
0100
0100
0010
0010
,  // measure 25
1000
1000
0001
1000
,  // measure 26
0001
0100
0010
0000
,  // measure 27
0100
0010
1000
0000
,  // measure 28
0001
0100
0010
0000
,  // measure 29
1000
0010
0100
0100
,  // measure 30
0010
1000
0001
0100
,  // measure 31
0001
1000
0100
0010
,  // measure 32
0001
1000
0010
0100
,  // measure 33
2002
0000
0000
0000
,  // measure 34
3003
0000
0000
0000
;

//---------------dance-single - ----------------
#NOTEDATA:;
#CHARTNAME:;
#STEPSTYPE:dance-single;
#DESCRIPTION:;
#CHARTSTYLE:;
#DIFFICULTY:Easy;
#METER:3;
#RADARVALUES:0.218240,0.225831,0.024908,0.199263,0.000000,157.000000,3.000000,24.000000,0.000000,0.000000,0.000000,0.000000,0.000000,0.218240,0.225831,0.024908,0.199263,0.000000,157.000000,3.000000,24.000000,0.000000,0.000000,0.000000,0.000000,0.000000;
#CREDIT:;
#NOTES:
// measure 0
0000
0000
0000
0000
,  // measure 1
0000
0000
0000
0000
,  // measure 2
0010
0100
0001
1000
,  // measure 3
0100
1000
0010
0100
,  // measure 4
0001
0010
0001
0100
,  // measure 5
0020
0000
2030
0000
,  // measure 6
3001
0100
0001
1000
,  // measure 7
0100
1000
0010
0100
,  // measure 8
0001
0010
0100
0010
,  // measure 9
0002
0000
2003
0000
,  // measure 10
3020
0000
0230
0000
,  // measure 11
0302
0000
2003
0000
,  // measure 12
3200
0000
0320
0000
,  // measure 13
0032
0000
1003
0000
,  // measure 14
0001
0001
0001
0001
0001
0001
0001
0001
,  // measure 15
0100
0100
0100
0100
0100
0100
0100
0100
,  // measure 16
0010
0010
0010
0010
0010
0010
0010
0010
,  // measure 17
1000
1000
1000
1000
1000
1000
1000
1000
,  // measure 18
0100
1000
0100
1000
0001
0010
0001
0010
,  // measure 19
0001
0100
0001
0100
0010
1000
0010
1000
,  // measure 20
0002
0000
0000
0000
,  // measure 21
0200
0000
0303
1010
,  // measure 22
0011
0010
0001
0100
0010
1000
0100
0000
,  // measure 23
1000
0100
0010
0001
0100
0001
1000
0000
,  // measure 24
0100
1000
0010
0100
0001
0010
0100
0000
,  // measure 25
0010
0001
0100
0000
0020
0000
0230
0000
,  // measure 26
0301
1000
0100
1000
0020
0000
0030
0000
,  // measure 27
0100
0001
1000
0100
2000
0000
3000
0000
,  // measure 28
0100
1000
0010
0100
0002
0000
0003
0000
,  // measure 29
0100
0001
1000
0010
0200
0000
0020
0330
,  // measure 30
1000
0001
0100
0001
0010
0100
1000
0010
,  // measure 31
0100
0010
1000
0001
0100
0001
0010
0001
,  // measure 32
0100
0010
1000
0001
0200
0000
0020
0330
,  // measure 33
2002
0000
0000
0000
,  // measure 34
3003
0000
0000
0000
;

//---------------dance-single - ----------------
#NOTEDATA:;
#CHARTNAME:;
#STEPSTYPE:dance-single;
#DESCRIPTION:;
#CHARTSTYLE:;
#DIFFICULTY:Medium;
#METER:5;
#RADARVALUES:0.297708,0.352861,0.033210,0.141144,0.145296,230.000000,4.000000,17.000000,0.000000,0.000000,0.000000,0.000000,0.000000,0.297708,0.352861,0.033210,0.141144,0.145296,230.000000,4.000000,17.000000,0.000000,0.000000,0.000000,0.000000,0.000000;
#CREDIT:;
#NOTES:
// measure 0
0000
0000
0000
0000
,  // measure 1
0000
0000
0000
0000
,  // measure 2
1000
0001
0100
0001
0000
0100
0001
1000
,  // measure 3
0000
0100
1000
0010
0000
0100
0001
0010
,  // measure 4
0000
0100
0010
0001
0000
0100
0001
1000
,  // measure 5
0200
0000
0020
0330
,  // measure 6
0010
0001
0100
0001
0000
0100
0010
1000
,  // measure 7
0000
0100
1000
0001
0000
0100
0001
1000
,  // measure 8
0000
0100
1000
0010
0000
0100
0010
1000
,  // measure 9
0002
0000
2000
3003
,  // measure 10
0200
0010
0001
0010
,  // measure 11
0302
1000
0100
0010
,  // measure 12
2003
0100
0010
0100
,  // measure 13
3002
0100
2000
3003
,  // measure 14
0010
0100
0010
1000
0001
0100
0001
1000
,  // measure 15
0100
0010
0001
0100
0010
1000
0001
0100
,  // measure 16
0001
1000
0100
0010
0001
0100
0010
1000
,  // measure 17
0100
1000
0010
0100
0001
1000
0100
0010
,  // measure 18
0001
0100
0010
1000
0100
1000
0001
0100
,  // measure 19
0010
1000
0001
0100
0001
0010
0100
1000
,  // measure 20
0100
1000
0100
0010
0001
0100
0010
1000
,  // measure 21
0001
0000
0100
0000
0001
0000
0010
0000
0100
1000
0001
1000
1001
0000
0000
0000
,  // measure 22
0100
0000
0010
1000
0100
0000
0010
0000
0001
0000
0100
0000
0010
1000
0100
1000
,  // measure 23
0100
0000
0010
0001
0100
0000
0010
0000
1000
0000
0001
0000
0100
0000
0001
0000
,  // measure 24
1000
0000
0100
0010
0001
0000
0100
0000
0010
0000
1000
0000
0100
1000
0100
0010
,  // measure 25
0001
0000
0100
0010
1000
0000
0000
0100
2000
0000
0000
0000
0002
0000
3003
0000
,  // measure 26
0100
0001
1000
0100
0010
0000
0100
0000
1000
0000
0000
0000
0010
0100
0001
1000
,  // measure 27
0001
0000
0010
0100
1000
0000
0001
0000
0100
0000
0000
0000
0010
0000
0000
1000
,  // measure 28
0000
0000
0010
0100
0001
0000
1001
0000
0110
0000
0000
0000
0010
0100
1000
0100
,  // measure 29
0010
0001
0100
0001
0000
0000
0100
0010
2000
0000
0000
0000
0002
0000
3003
0000
,  // measure 30
0100
0000
0001
1000
0010
0100
0001
0000
1000
0000
0100
0010
0001
0100
0010
0000
,  // measure 31
1000
0000
0010
1000
0001
0100
0001
0000
0010
0000
0100
0010
0001
1000
0001
0100
,  // measure 32
0010
1000
0001
0100
0000
0000
0001
1000
0200
0000
0000
0000
0020
0000
0330
0000
,  // measure 33
2002
0000
0000
0000
,  // measure 34
3003
0000
0000
0000
;

//---------------dance-single - ----------------
#NOTEDATA:;
#CHARTNAME:;
#STEPSTYPE:dance-single;
#DESCRIPTION:;
#CHARTSTYLE:;
#DIFFICULTY:Hard;
#METER:9;
#RADARVALUES:0.594230,0.903324,0.365315,0.747235,0.676663,367.000000,44.000000,90.000000,0.000000,0.000000,0.000000,0.000000,0.000000,0.594230,0.903324,0.365315,0.747235,0.676663,367.000000,44.000000,90.000000,0.000000,0.000000,0.000000,0.000000,0.000000;
#CREDIT:;
#NOTES:
// measure 0
0000
0000
0000
0000
,  // measure 1
0000
0000
0000
0000
,  // measure 2
0100
0001
1000
0100
0010
0100
2000
0000
0000
0000
3010
0100
0001
1000
0002
0000
,  // measure 3
0000
0103
0001
1000
0001
0010
0200
0000
0000
0000
0310
0001
1000
0001
0200
0000
,  // measure 4
0000
0000
0310
0000
1000
0000
0001
0000
0100
0000
0000
0001
0000
0000
0010
0000
0000
0000
0200
0000
0000
0000
0000
0300
1000
0100
0020
0000
0000
0000
0032
0000
,  // measure 5
0000
0003
0200
0000
0000
0000
0000
0000
0020
0000
0000
0000
0330
0000
0000
0010
,  // measure 6
0000
0000
0000
0000
0000
0000
0000
0000
0000
0000
0000
0000
1000
0000
0000
0000
0000
0000
0000
0000
0000
0000
0000
0000
0001
0000
0000
0000
0000
0000
0000
0000
0000
0000
0000
0000
0100
0000
0000
0000
0000
0000
0000
0000
0000
0000
0000
0000
0001
0000
0000
0000
0000
0000
0000
0000
0000
0000
0000
0000
0000
0000
0000
0000
0010
0000
0000
0000
0000
0000
0000
0000
0200
0000
0000
0000
0000
0000
0000
0000
0000
0000
0000
0000
0000
0000
0000
0000
1000
0000
0000
0000
0000
0000
0000
0000
0000
0000
0000
0000
0000
0000
0000
0000
0000
0000
0000
0000
0000
0000
0000
0000
0000
0000
0300
0000
0000
0000
0000
0000
1000
0000
0000
0000
0000
0000
0000
0000
0000
0000
0000
0000
0100
0000
0000
0000
0000
0000
0000
0000
0000
0000
0000
0000
0010
0000
0000
0000
0000
0000
0000
0000
0000
0000
0000
0000
0001
0000
0000
0000
0000
0000
0000
0000
0000
0000
0000
0000
0200
0000
0000
0000
0000
0000
0000
0000
0000
0000
0000
0000
0000
0000
0000
0000
0000
0000
0000
0000
0000
0000
0000
0000
,  // measure 7
0000
0000
0301
0000
0100
0000
0001
0000
1000
0000
0000
0100
0000
0000
0020
0000
0000
0000
0000
0000
0000
0031
0000
0000
0010
0000
0001
0000
1000
0000
0200
0000
,  // measure 8
0000
0000
0000
0000
0000
0000
0000
0000
0000
0000
0000
0000
1000
0000
0000
0000
0000
0000
0300
0000
0000
0000
0000
0000
0100
0000
0000
0000
0000
0000
0000
0000
0000
0000
0000
0000
0010
0000
0000
0000
0000
0000
0000
0000
0000
0000
0000
0000
0001
0000
0000
0000
0000
0000
0000
0000
0000
0000
0000
0000
0000
0000
0000
0000
0000
0000
1000
0000
0000
0000
0000
0000
0000
0000
0000
0000
0000
0000
0000
0000
0000
0000
0000
0000
0020
0000
0000
0000
0000
0000
0000
0000
0000
0000
0000
0000
0000
0000
0000
0000
0000
0000
0030
0000
0000
0000
0000
0000
0100
0000
0000
0000
0000
0000
0000
0000
0000
0000
0000
0000
0000
0000
0000
0000
0000
0000
0000
0000
0000
0000
0000
0000
0000
0000
0000
0000
0000
0000
0000
0000
0000
0000
0000
0000
0010
0000
0000
0000
0000
0000
0000
0000
0000
0000
0000
0000
0000
0000
0000
0000
1000
0000
0000
0000
0000
0000
0000
0000
0001
0000
0000
0000
0000
0000
0000
0000
0000
0000
0000
0000
0000
0000
0000
0000
0000
0000
0000
0000
0000
0000
0000
0000
,  // measure 9
0100
0002
0000
0000
2000
0000
3003
0000
,  // measure 10
0100
2000
0100
0000
0100
0000
0100
0000
0020
0000
0000
3000
0130
0000
0010
0000
,  // measure 11
1000
0002
0100
0000
0100
0000
0100
0000
0200
0000
0000
0000
0303
0000
0000
0010
,  // measure 12
2000
0000
0100
0000
0010
0000
0001
0000
0200
0000
0000
0000
3300
0000
0000
0010
,  // measure 13
0002
0100
1000
0010
2000
0000
3003
0000
,  // measure 14
1001
0110
1100
1010
0110
0101
0011
0110
,  // measure 15
1100
1010
0110
0101
1001
0110
1100
0011
,  // measure 16
0010
0001
0100
0001
0010
0001
0100
0001
0010
0100
1000
0100
0010
0100
1000
0100
,  // measure 17
0010
0001
0100
0001
1000
0001
0010
0100
1000
0010
0100
0010
1000
0001
0100
0001
,  // measure 18
0022
0033
0220
0330
2200
3300
2020
3030
0220
0330
2020
3030
0202
0303
0022
0033
,  // measure 19
0220
0330
2200
3300
2020
3030
0220
0330
2002
3003
0022
0033
0220
0330
2200
3300
,  // measure 20
0200
0320
0032
2003
3002
0203
0320
2030
3002
0203
0302
0023
0230
2300
3020
0230
,  // measure 21
0302
0000
2003
0000
3002
0000
0023
0000
0230
0000
2300
0000
3200
0000
0320
0000
0032
0000
2003
0000
3002
0000
0203
0300
0220
0000
0000
0000
0330
0000
0000
0000
,  // measure 22
1010
0000
1000
0010
0100
0000
0001
1000
0001
0000
0010
0100
0110
1000
0100
0010
,  // measure 23
0001
0000
0100
0001
1001
0000
1000
0100
0010
0000
0001
1000
0101
0100
0001
0100
,  // measure 24
0010
0000
0000
1000
0000
0000
0001
0000
0101
0000
0000
0000
0001
0000
1000
0000
0100
0000
0000
0000
1000
0000
0100
0000
0011
0000
0010
0000
0100
0000
1000
0000
,  // measure 25
0010
0000
0000
0100
0000
0000
0001
0000
1000
0000
0000
0000
0000
0000
0100
0000
1000
0100
1000
0100
1000
0100
1000
0100
0010
0001
0010
0001
0010
0000
0000
0000
,  // measure 26
0100
0010
0001
1000
0010
1000
0001
0000
0110
0000
0100
0001
1000
0001
0100
0010
,  // measure 27
1000
0000
0100
0010
0001
0000
1000
0010
0100
0000
0010
1000
0101
0001
1000
0100
,  // measure 28
0010
0000
0100
1000
0001
0100
1001
0000
0210
0000
0310
0100
0001
1000
0010
0100
,  // measure 29
0001
0000
0100
0000
0010
0000
1000
0000
0000
0000
0000
0000
0001
0000
1000
0001
0100
0001
0100
0001
0100
0001
0100
0001
1000
0010
1000
0010
1000
0010
1000
0010
,  // measure 30
0100
0001
1000
0010
1000
0100
0010
0001
0010
0100
1000
0010
0100
0001
1000
0010
,  // measure 31
1000
0100
0010
0001
0100
0010
0100
0001
1000
0010
1000
0100
0010
0001
1000
0100
,  // measure 32
1000
0000
0010
0000
0100
0000
0002
0000
0000
0000
0000
0000
0103
0000
0001
0000
1000
0010
1000
0010
1000
0010
1000
0010
0100
0001
0100
0001
0100
0001
0100
0001
,  // measure 33
2002
0000
0000
0000
,  // measure 34
3003
0000
0000
0000
;
