#TITLE:Dirty Mouth;
#SUBTITLE:;
#ARTIST:Unknown artist;
#TITLETRANSLIT:;
#SUBTITLETRANSLIT:;
#ARTISTTRANSLIT:;
#GENRE:;
#CREDIT:;
#BANNER:;
#BACKGROUND:;
#LYRICSPATH:;
#CDTITLE:;
#MUSIC:09 Dirty Mouth.mp3;
#OFFSET:-0.080;
#SAMPLESTART:100.000;
#SAMPLELENGTH:12.000;
#SELECTABLE:YES;
#BPMS:0.000=128.000;
#STOPS:;
#BGCHANGES:;
#KEYSOUNDS:;

//---------------dance-single - Blank----------------
#NOTES:
     dance-single:
     Blank:
     Beginner:
     1:
     0.095,0.159,0.042,0.000,0.000:
0000
0000
0000
0000
,
0000
0000
0000
0000
,
0000
0000
0000
0000
,
0000
0000
0000
0000
,
0001
0000
0000
0000
,
0001
0000
0000
0000
,
0100
0000
0000
0100
,
0000
0000
0000
0000
,
0010
0000
0000
0010
,
1000
0000
0000
1000
,
0001
0000
0000
0001
,
0100
0000
0000
0100
,
0000
0000
0000
0010
,
0000
0000
0000
0010
,
0000
0000
0000
1000
,
0000
0000
0000
1000
,
0000
0000
0000
1001
,
0000
0000
0000
0001
,
0000
0000
0000
0100
,
0000
0000
0000
0100
,
0000
0000
0000
0010
,
1000
0000
0000
0000
,
1000
0000
0000
0000
,
0001
0000
0000
0000
,
0001
0000
0000
0000
,
0100
0100
0000
0000
,
0001
0001
0000
0000
,
0001
0001
0000
0000
,
1000
1000
0000
0000
,
0010
0000
0000
0000
,
1000
0000
0000
0000
,
0001
0000
0000
0000
,
0100
0000
0100
0000
,
0010
0000
0000
0000
,
1000
0000
0000
0000
,
0001
0000
0000
0000
,
0100
0000
0100
0010
,
0100
0000
0000
0000
,
0000
0000
0000
0000
,
0001
0000
0000
0000
,
0000
0000
0000
0000
,
1000
0000
0001
0000
,
0000
0000
0000
0000
,
0100
0000
0000
0000
,
0010
0000
1000
0001
,
1000
0000
0000
0000
,
0010
0000
0000
0000
,
0100
0000
0000
0000
,
0001
0000
0000
0000
,
1000
0100
0000
0000
,
0001
0010
0000
0000
,
0100
0010
0000
0000
,
0000
0000
0000
0000
,
1001
0000
0000
0000
,
0000
0000
0000
0000
,
1001
0000
0000
0000
,
0000
0000
0000
0000
,
0110
0000
0000
0000
,
0000
0000
0000
0000
,
1000
0000
0010
0000
,
0100
0000
0001
0000
,
0100
0100
0100
0100
,
0000
0000
0000
1001
;

//---------------dance-single - Novice----------------
#NOTES:
     dance-single:
     Novice:
     Easy:
     4:
     0.226,0.212,0.068,0.008,0.000:
0000
0000
0000
0000
,
0000
0000
0000
0000
,
0000
0000
0000
0000
,
0000
0000
0000
0000
,
0001
0100
0000
0100
,
0001
1000
0000
1000
,
0010
0100
0000
0100
,
0000
0000
0000
0000
,
0010
1000
0010
0000
,
0100
0001
0100
0000
,
0001
1000
0001
0000
,
1000
0001
0100
0100
,
0000
0010
0010
0100
,
0001
0000
1000
0010
,
0100
0000
0001
1000
,
0010
0000
0010
1000
,
0100
0100
1000
0001
,
0100
0000
0001
0100
,
0010
0000
1000
0010
,
0100
0000
0001
1000
,
0001
0001
0100
0010
,
1000
0000
0001
0000
,
0100
0000
0010
0000
,
0100
0000
0001
0000
,
0010
0000
0100
1000
,
0001
0001
0010
0000
,
0001
0001
1000
0000
,
1000
1000
0010
0000
,
1000
0100
0010
0001
,
1001
0000
0010
0000
,
0110
0000
1000
0000
,
1001
0000
0010
0000
,
0100
0010
0100
0001
,
1010
0000
1000
0000
,
0101
0000
0001
0000
,
0110
0000
0100
0000
,
0020
0000
0000
0000
,
0130
0100
0100
0000
,
0001
0001
0001
0000
,
0010
0010
0010
0000
,
1000
1000
1000
0000
,
0001
0100
0001
0000
,
0100
0010
0100
0000
,
0010
1000
0010
0000
,
1000
0001
0100
0010
,
1000
0000
0000
1000
,
0010
0000
0000
0100
,
0001
0000
0000
1000
,
0001
0000
0001
0100
,
0100
0010
0010
1000
,
1000
0010
0010
0100
,
0100
0001
0001
1000
,
0001
0100
0001
1000
,
0001
0010
0001
1000
,
0010
0100
0010
1000
,
0100
1000
0100
0010
,
1000
0001
1000
0010
,
0100
1000
0100
0010
,
0001
0010
0100
0010
,
0001
0001
0001
0001
,
0100
0100
0100
0100
,
1000
1000
1000
1000
,
0000
0110
0000
0110
;

//---------------dance-single - Blank----------------
#NOTES:
     dance-single:
     Blank:
     Hard:
     9:
     0.504,0.533,0.076,0.059,0.178:
0000
0000
0000
0000
,
0000
0000
0000
0000
,
0000
0000
0000
0000
,
0000
0000
0000
0000
0000
0000
0000
0000
0100
0000
0000
0010
0000
0000
0000
0000
,
1000
1000
0000
0010
0000
0010
1000
0001
,
0100
0100
0000
0001
0000
0001
0100
0001
,
0010
0010
0000
0100
0000
0100
0010
0100
,
0000
0000
0000
0000
,
1000
0000
0001
0000
0010
0000
0100
0010
0000
0000
0100
0000
0000
0000
0000
0000
,
1000
0000
0001
0000
0100
0000
0010
0100
0000
0000
0010
1000
0000
0000
0100
0000
,
0010
0000
0001
0000
0100
0000
0010
1000
0000
0000
0001
0000
0000
0000
0000
0000
,
0001
0000
0100
0000
0010
0000
1000
0010
0000
0000
0100
0010
0000
0000
0100
0000
,
0000
0000
0001
0001
0100
0000
0010
0000
,
1000
0000
0010
1000
0010
1000
0001
0000
,
0100
0000
0001
1000
0001
1000
0010
0000
,
0100
0000
0001
1000
0010
0000
1010
0000
,
1000
0100
0001
0100
1000
0010
0100
0000
,
0001
0100
0010
1000
0010
0100
0001
0000
,
1000
0010
0100
0010
1000
0001
0010
0000
,
0100
1000
0100
0010
0001
0010
0100
0000
,
1000
0001
0100
0000
0101
0000
1001
0000
,
0010
0000
1000
0000
0000
0000
0001
0000
0100
0000
0010
0000
1000
0000
0010
0100
,
0010
0000
0100
0000
0000
0000
0001
0000
0100
0000
0010
0000
1000
0000
0100
0010
,
0100
0000
0010
0000
0000
0000
0001
0000
0100
0000
0001
0000
1000
0000
0001
0100
,
0001
0100
0000
0010
1000
0100
1000
0000
,
1000
0000
0010
0000
0100
0000
0010
1000
0010
0000
0100
0000
0001
0000
0000
0000
,
1000
0010
0100
0001
2000
0001
3001
0000
,
0001
0000
0100
0000
0010
0000
0100
0001
0100
0000
0001
0000
1000
0000
0000
0000
,
0020
1030
0100
2000
0001
3001
0100
0000
,
0101
0000
0000
0001
0100
0010
1000
0000
,
0101
0000
0000
0001
0010
0100
1000
0000
,
1010
0000
0000
1000
0100
0001
0010
0000
,
0010
0000
0100
0000
0001
0000
1000
0001
1000
0000
0001
0000
0100
0000
0000
0000
,
0011
0000
0000
1000
0010
0100
0001
0000
,
0011
0000
0000
0001
0010
0100
1000
0000
,
1100
0000
0000
1000
0001
0100
0010
0000
,
0000
0000
0010
0000
0100
0000
0010
0100
0010
0000
1000
0000
0100
0000
0000
0000
,
1000
0000
0001
0000
0100
0000
0100
0010
0000
0010
0000
0010
0100
0000
0100
0001
,
0100
0000
0010
0000
1000
0000
1000
0010
0000
0000
0010
0000
0100
0000
0001
0000
,
1000
0000
0010
0000
1000
0000
0010
1000
0000
1000
0000
1000
0001
0000
1000
0010
,
0100
0000
0001
0000
0010
0000
0100
0010
0100
0000
1000
0000
0001
0000
0000
0000
,
0100
0000
0001
0000
1000
0000
0001
0010
0000
0010
0000
0010
0100
0000
0100
1000
,
0010
0000
0100
0000
0001
0000
0100
0010
0000
0000
1000
0000
0010
0000
1000
0000
,
0100
0000
0010
0000
0001
0000
0001
0100
0000
0100
0000
0100
0010
0000
1000
0000
,
0000
0000
0100
0000
1000
0000
0001
1000
0001
0000
0100
0000
0001
0000
0000
0000
,
0001
1000
0000
0001
0001
1000
0100
1000
,
0001
0100
0000
0100
0100
0001
0100
0010
,
1000
0100
0000
0100
0100
1000
0100
0010
,
0001
1000
0000
0001
1000
0001
0010
0000
,
0100
1000
0000
1000
0000
0010
0100
0010
,
0100
0001
0000
0001
0000
0100
0001
0000
,
1000
0010
0000
0010
0000
0100
0001
0100
,
0000
0002
0000
0203
0000
2300
0000
3010
,
0100
0000
0010
0001
0010
0100
0000
0000
,
1000
0000
1000
0000
0001
0000
0000
0000
0010
0100
0010
0000
0100
0000
0010
0000
,
0001
0000
1000
0010
0100
0010
0000
0000
,
1000
0000
0001
0000
1000
0000
0001
0100
0001
0000
1000
0000
0010
0000
0000
0000
,
1000
0001
0100
0010
1000
1000
0000
0000
,
0001
0000
1000
0000
1000
0000
0000
0000
0001
0100
0001
0100
0001
0000
1000
0000
,
0010
0010
0100
0001
0001
1000
0010
0010
,
1000
0100
0100
1000
0001
0001
0100
0010
,
1000
0010
1000
0000
0010
0100
0010
0000
0100
0010
0100
0000
0001
0100
0001
0000
,
0000
0000
0001
0000
0100
0000
0001
0010
0100
0000
1000
0000
0002
0000
0000
0000
,
0003
0000
0000
0000
;

//---------------dance-single - Easy----------------
#NOTES:
     dance-single:
     Easy:
     Medium:
     5:
     0.319,0.345,0.008,0.152,0.000:
0000
0000
0000
0000
,
0000
0000
0000
0000
,
0000
0000
0000
0000
,
0000
0000
0000
0000
,
0001
0000
0100
0000
0000
0000
0100
0001
,
1000
0000
0010
0000
0000
0000
0010
1000
,
0001
0000
1000
0000
0000
0000
1000
0010
,
0000
0000
0000
0000
,
1000
0000
0001
0000
0100
0001
0100
0000
,
0010
1000
0001
0100
,
0010
0000
1000
0000
0001
0100
0001
0000
,
1000
0000
0001
0000
0100
0010
0100
0010
,
0000
0100
0100
0010
,
1000
0000
0001
0000
0100
0001
0100
0000
,
0010
0000
0100
0000
0001
1000
0001
0000
,
0100
0000
0001
0000
1000
0010
0100
0000
,
0002
0203
2300
3020
,
0130
0000
1000
0000
0001
1000
0001
0000
,
0100
0000
0001
0000
1000
0100
0001
0000
,
0100
0000
1000
0000
0001
0100
1000
0000
,
0002
0023
0230
2300
,
3001
0000
0000
0000
0001
1000
0000
0000
,
1000
0000
0000
0000
1000
0010
0000
0000
,
0010
0000
0000
0000
0100
0010
0000
0000
,
1000
0000
0001
1001
,
0100
0000
0100
0000
0010
1000
0010
0000
,
1000
0000
1000
0000
0001
0100
0001
0000
,
0010
0000
0010
0000
0001
0100
0001
0000
,
2000
3002
0203
0302
,
1003
0000
0000
0000
0010
1000
0001
0000
,
0100
0000
0000
0000
0001
1000
0100
0000
,
0010
0000
0000
0000
0001
0100
0001
0000
,
0100
0010
1000
0001
,
0001
0000
0000
0000
1000
0001
1000
0000
,
0100
0000
0000
0000
0010
0100
0010
0000
,
0100
0000
0000
0000
0100
1000
0010
0000
,
2000
0000
0000
3001
,
0100
1000
0100
0010
,
0001
0100
0001
1000
,
0001
0010
0100
1000
,
0010
1000
0100
1000
,
0100
0010
0100
0010
,
0001
0100
0001
1000
,
0001
0100
0010
1000
,
0100
1000
0010
1000
,
0002
0100
0000
0103
,
2000
0010
0000
3010
,
0200
1000
0000
0301
,
0020
1000
0000
0031
,
0001
0100
0001
0000
1000
0010
1000
0000
,
0001
1000
0001
0000
0100
0010
0100
0000
,
0001
0010
0100
0000
1000
0100
0010
0000
,
0001
1000
0010
1000
,
0001
0100
0000
0001
0000
0100
0000
0000
,
0010
0000
1000
0000
1000
0010
0001
0000
,
0100
0001
0000
0100
0000
0010
0000
0000
,
1000
0000
0010
0000
1000
0001
1000
0000
,
0100
0010
0000
0100
0000
0010
0000
0000
,
1000
0000
0001
0000
0100
0010
0100
0000
,
0001
0100
0001
0100
,
0010
0100
0010
0100
,
1000
0001
1000
0001
1000
0001
1000
0001
,
2000
0000
0000
3001
;
