#VERSION:0.81;
#TITLE:C\:/This Feelin';
#SUBTITLE:;
#ARTIST:ALPHA CENTAURI アルファ;
#TITLETRANSLIT:C This Feelin';
#SUBTITLETRANSLIT:;
#ARTISTTRANSLIT:ALPHA CENTAURI;
#GENRE:;
#ORIGIN:;
#CREDIT:;
#BANNER:[Drop the Zero] - C This Feelin'-bn.png;
#BACKGROUND:[Drop the Zero] - C This Feelin'-bg.png;
#PREVIEWVID:;
#JACKET:[Drop the Zero] - C This Feelin'-jacket.png;
#CDIMAGE:;
#DISCIMAGE:;
#LYRICSPATH:;
#CDTITLE:cdtitle.png;
#MUSIC:[Drop the Zero] - C This Feelin'.ogg;
#OFFSET:0.027000;
#SAMPLESTART:37.490002;
#SAMPLELENGTH:13.000000;
#SELECTABLE:YES;
#BPMS:0.000=128.000;
#STOPS:;
#DELAYS:;
#WARPS:;
#TIMESIGNATURES:0.000=4=4;
#TICKCOUNTS:0.000=4;
#COMBOS:0.000=1;
#SPEEDS:0.000=1.000=0.000=0;
#SCROLLS:0.000=1.000;
#FAKES:;
#LABELS:0.000=Song Start;
#BGCHANGES:;
#KEYSOUNDS:;
#ATTACKS:
;

//---------------dance-single - ----------------
#NOTEDATA:;
#CHARTNAME:;
#STEPSTYPE:dance-single;
#DESCRIPTION:;
#CHARTSTYLE:;
#DIFFICULTY:Hard;
#METER:7;
#RADARVALUES:0.397740,0.421548,0.215676,0.274496,0.034312,234.000000,22.000000,28.000000,0.000000,0.000000,0.000000,0.000000,0.000000,0.397740,0.421548,0.215676,0.274496,0.034312,234.000000,22.000000,28.000000,0.000000,0.000000,0.000000,0.000000,0.000000;
#CREDIT:;
#NOTES:
// measure 0
0000
0000
0000
0000
,  // measure 1
0000
0000
0000
0000
,  // measure 2
0000
0000
0000
0000
,  // measure 3
2000
3010
0002
0013
,  // measure 4
1000
1000
0001
0001
,  // measure 5
1000
0100
0001
0000
0010
0000
1000
0000
,  // measure 6
1100
0011
2002
3003
,  // measure 7
0001
0100
0010
1000
,  // measure 8
0001
0010
1000
0000
0100
0000
0001
0000
,  // measure 9
0011
1100
2002
3003
,  // measure 10
1000
0010
0100
0001
,  // measure 11
1000
0100
0010
0100
1000
0000
1000
0000
,  // measure 12
0101
0011
0220
0330
,  // measure 13
1000
0010
0100
0100
,  // measure 14
0001
0010
0100
0010
0001
0000
0001
0000
,  // measure 15
1100
1010
0220
0330
,  // measure 16
0100
0001
1000
1000
,  // measure 17
0002
0023
0230
0000
,  // measure 18
2300
0000
3002
0000
,  // measure 19
2003
3020
0230
0000
,  // measure 20
0301
1000
0010
0100
0010
0000
0100
0000
,  // measure 21
0001
0000
0000
0001
0000
0000
0001
0000
0000
0000
1000
0000
0001
0000
1000
0000
,  // measure 22
0100
0011
0100
1010
,  // measure 23
0001
0010
0001
0100
0010
0000
1000
0000
,  // measure 24
0100
0000
0000
0100
0000
0000
0100
0000
0000
0000
0010
0000
0010
0000
0001
0000
,  // measure 25
1000
0101
1000
0011
,  // measure 26
0100
1000
0100
0010
0001
1000
0001
0000
,  // measure 27
0100
0000
0000
0100
0000
0000
0100
0000
0000
0000
0010
0000
1000
0000
0001
0000
,  // measure 28
1000
0110
0001
0110
,  // measure 29
2000
0010
3010
0100
,  // measure 30
0002
0000
2003
0000
,  // measure 31
3001
0010
1000
0010
,  // measure 32
0001
0100
1000
0010
,  // measure 33
0001
0100
0000
0100
,  // measure 34
1000
0100
0000
0010
,  // measure 35
0001
1000
0100
0001
,  // measure 36
1000
1000
0001
0001
,  // measure 37
0010
0100
0000
0100
,  // measure 38
0010
0001
0100
0010
,  // measure 39
1000
0100
0010
0001
,  // measure 40
0010
0100
1000
0001
,  // measure 41
1000
0010
0100
0001
0010
0100
1000
0000
,  // measure 42
0010
0000
0000
0010
0000
0000
0220
0000
0000
0000
0000
0000
0330
0000
1000
0000
,  // measure 43
0001
1000
0100
0000
1000
0001
0100
0000
,  // measure 44
0010
0100
0001
1000
0001
0010
0100
0000
,  // measure 45
1000
0000
0000
1000
0000
0000
2020
0000
0000
0000
0000
0000
3030
0000
0001
0000
,  // measure 46
0100
0010
0100
0000
0001
1000
0001
0000
,  // measure 47
0010
0100
0010
0100
1000
0001
1000
0010
,  // measure 48
0100
0000
0000
0010
0000
0000
1002
0000
0000
0000
1000
0000
1003
0000
0100
0000
,  // measure 49
1000
0010
0001
0000
0001
0010
1000
0000
,  // measure 50
0100
0010
0100
0010
0001
1000
0001
0100
,  // measure 51
0010
0000
0000
0100
0000
0000
1002
0000
0000
0000
1000
0000
1003
0000
0001
0000
,  // measure 52
1000
0100
0001
0000
0001
0100
1000
0010
,  // measure 53
0200
0000
0000
0300
;

//---------------dance-single - ----------------
#NOTEDATA:;
#CHARTNAME:;
#STEPSTYPE:dance-single;
#DESCRIPTION:;
#CHARTSTYLE:;
#DIFFICULTY:Medium;
#METER:5;
#RADARVALUES:0.331917,0.368854,0.098034,0.539189,0.000000,172.000000,10.000000,55.000000,0.000000,0.000000,0.000000,0.000000,0.000000,0.331917,0.368854,0.098034,0.539189,0.000000,172.000000,10.000000,55.000000,0.000000,0.000000,0.000000,0.000000,0.000000;
#CREDIT:;
#NOTES:
0000
0000
0000
0000
,
0000
0000
0000
0000
,
0000
0000
0000
0000
,
2000
0000
3002
0000
,
0103
0100
0100
0100
,
0010
0100
0010
0000
1000
0000
0001
0000
,
0200
0000
0302
0000
,
1003
0100
0001
0010
,
1000
0001
1000
0000
0100
0000
0010
0000
,
0002
0000
2003
0000
,
3010
0001
0100
1000
,
0010
0100
0010
0000
1000
0000
0001
0000
,
0020
0000
0230
0000
,
1300
0010
0100
0001
,
1000
0001
1000
0000
0001
0000
0010
0000
,
0200
0000
2300
0000
,
3001
0100
1000
0010
,
0002
0000
0203
0000
,
0320
0000
0000
0000
,
2030
0000
3002
0000
,
0013
0100
1000
0000
0001
0000
0001
0000
,
0100
0010
1020
0000
,
1030
0001
0100
0001
,
1000
0100
0010
0000
0001
0000
0001
0000
,
1000
0010
0210
0000
,
0301
0010
1000
0010
,
0001
0100
0010
0000
1000
0000
1000
0000
,
0100
0010
0021
0000
,
0031
1000
0010
0100
,
0102
0000
2003
0000
,
3200
0000
0000
0300
,
1200
0000
2300
0000
,
3002
0000
0000
0003
,
1020
0000
0032
0000
,
0203
0000
2300
0000
,
3002
0000
0023
0000
,
2030
0000
3200
0000
,
0302
0023
0032
0000
,
2003
3200
2300
0000
,
3020
0230
0320
2030
,
3200
0302
0203
2300
,
3001
0100
0001
1000
0100
0000
0010
0000
,
0001
0100
0202
0303
,
1000
0100
0010
0100
,
1000
0100
1000
0001
0100
0000
0010
0000
,
1000
0100
2200
3300
,
0001
0100
1000
0010
,
0001
1000
0001
1000
0100
0000
0001
0000
,
0100
0010
0220
0330
,
1000
0010
0100
0010
,
1000
0001
1000
0001
0100
0000
1000
0000
,
0100
0010
0220
0330
,
0001
0100
1000
0010
,
0002
0000
0000
0003
;

//---------------dance-single - ----------------
#NOTEDATA:;
#CHARTNAME:;
#STEPSTYPE:dance-single;
#DESCRIPTION:;
#CHARTSTYLE:;
#DIFFICULTY:Easy;
#METER:2;
#RADARVALUES:0.217076,0.210774,0.107838,0.431351,0.000000,100.000000,11.000000,44.000000,0.000000,0.000000,0.000000,0.000000,0.000000,0.217076,0.210774,0.107838,0.431351,0.000000,100.000000,11.000000,44.000000,0.000000,0.000000,0.000000,0.000000,0.000000;
#CREDIT:;
#NOTES:
0000
0000
0000
0000
,
0000
0000
0000
0000
,
0000
0000
0000
0000
,
1000
0000
1000
0000
,
0001
0001
0001
0001
,
0100
0000
0100
0000
,
0220
0000
0330
0000
,
0001
0000
1000
0000
,
0100
0000
0100
0000
,
0220
0000
0330
0000
,
0001
0000
1000
0000
,
0010
0010
0010
0000
,
2020
0000
3030
0000
,
1000
0000
0010
0000
,
0100
0100
0100
0000
,
0202
0000
0303
0000
,
0001
0000
0010
0000
,
0002
0000
0000
0000
,
2003
0000
0000
0000
,
3020
0000
0000
0000
,
1030
1000
1000
0000
,
2200
0000
3300
0000
,
0001
0000
1000
0000
,
0001
0001
0001
0000
,
0202
0000
0303
0000
,
1000
0000
0001
0000
,
0010
0010
0010
0000
,
0220
0000
0330
0000
,
0100
0000
1000
0000
,
0002
0000
0000
0000
,
2003
0000
0000
0000
,
3002
0000
0203
0000
,
0320
0000
0000
0000
,
2030
0000
0000
0000
,
3002
0000
0000
0000
,
2003
0000
3200
0000
,
0320
0000
0000
0000
,
0032
0000
0203
0000
,
0320
0000
2030
0000
,
3200
0000
0320
0000
,
0032
0000
2003
0000
,
3001
0001
0100
0000
,
0001
1000
1001
0000
,
2000
0000
3002
0000
,
1003
1000
0100
0000
,
1000
0001
1001
0000
,
0002
0000
2003
0000
,
3001
0100
0001
0000
,
1000
0100
1100
0000
,
0200
0000
0320
0000
,
0031
1000
0001
0000
,
0100
0010
0110
0000
,
0020
0000
0230
0000
,
0302
0000
0000
0003
;
