#TITLE:Brother;
#SUBTITLE:;
#ARTIST:NEEDTOBREATHE;
#TITLETRANSLIT:;
#SUBTITLETRANSLIT:;
#ARTISTTRANSLIT:;
#GENRE:;
#CREDIT:;
#BANNER:[Drop the Zero] - Brother.png;
#BACKGROUND:[Drop the Zero] - Brother-bg.png;
#LYRICSPATH:;
#CDTITLE:;
#MUSIC:[Drop the Zero] - Brother.mp3;
#OFFSET:-0.300000;
#SAMPLESTART:37.235970;
#SAMPLELENGTH:14.999999;
#SELECTABLE:YES;
#BPMS:0.000000=78.000000
;
#STOPS:
;
#BGCHANGES:;
#KEYSOUNDS:;
#ATTACKS:;

//---------------dance-single - ----------------
#NOTES:
     dance-single:
     :
     Hard:
     7:
     0.411806,0.461223,0.222924,0.361291,0.465066,299.000000,29.000000,47.000000,0.000000,0.000000,0.000000,0.411806,0.461223,0.222924,0.361291,0.465066,299.000000,29.000000,47.000000,0.000000,0.000000,0.000000:
// measure 0
0000
0000
0000
0000
,  // measure 1
0000
0000
0000
0000
,  // measure 2
0000
0000
0000
0000
,  // measure 3
0000
0000
0000
0000
,  // measure 4
2000
0000
0010
0000
0000
0100
3010
0000
,  // measure 5
0002
0000
0100
0000
0000
0010
0103
0000
,  // measure 6
2000
0000
0010
0000
0000
0100
3010
0000
,  // measure 7
0002
0000
0100
0000
0000
0010
0103
0000
,  // measure 8
1000
0000
0100
0000
1000
0000
0000
0001
0000
0001
1000
0000
0010
1000
0000
0000
,  // measure 9
0001
0000
0100
0000
0001
0000
0000
1000
0000
1000
0001
0000
0010
0001
0010
0100
,  // measure 10
1000
0000
0010
0000
1000
0000
0000
0100
0000
0100
0010
0000
0001
1000
0001
1000
,  // measure 11
0020
0000
0000
0130
,  // measure 12
1002
0000
0000
1003
0001
0000
0000
0201
0000
0310
0100
0010
0100
0010
0000
2010
,  // measure 13
0000
0000
3100
0000
0011
0000
0000
2000
0000
3010
0100
0001
0020
0000
0130
1000
,  // measure 14
0002
0000
0000
1003
0001
0000
0000
2010
0000
3100
0010
0100
1000
0000
0001
1000
,  // measure 15
0020
0000
0000
0130
0010
0000
0010
2000
0000
3100
1000
0000
0001
0100
0001
0000
,  // measure 16
2001
0000
0000
3001
1000
0000
0000
0021
0000
0130
0010
0100
0010
0100
0000
2100
,  // measure 17
0000
0000
3010
0000
0101
0000
0001
0010
0000
0010
0001
0100
0020
0000
0130
0001
,  // measure 18
2000
0000
0000
3001
1000
0000
0000
0012
0000
0103
0010
0100
0001
0000
1000
0010
,  // measure 19
0200
0000
0000
0301
0010
0000
0100
2000
0000
3100
1000
0000
0001
0100
0001
0000
,  // measure 20
1001
0000
1000
0010
0100
0000
0000
0001
0010
0000
0100
1000
0000
0000
0010
0000
,  // measure 21
0100
0001
0000
1000
0010
1000
0100
0000
0100
0000
0000
0010
0001
0000
1000
0000
,  // measure 22
1002
0000
0000
0000
0010
0000
0000
0010
0000
0000
0013
0000
1010
0000
0000
0100
,  // measure 23
0101
0000
0010
0011
0000
0000
0000
0100
1100
0000
0010
1010
0000
0000
0000
0100
,  // measure 24
0120
0000
1000
0000
0000
0100
1000
0000
,  // measure 25
0130
0000
0000
0100
0001
0000
0000
0000
2000
0000
0100
0000
3020
0000
0100
0000
,  // measure 26
1030
0000
0000
1000
0001
0000
0000
0000
0000
0001
0010
0000
0001
1000
0000
0000
,  // measure 27
0002
0000
0000
0000
0100
0000
0000
0000
0003
0100
0001
0000
1000
0010
0000
1000
,  // measure 28
0001
0000
0000
0000
0100
0000
0000
0001
0000
1000
0010
0000
0100
0000
0010
0000
,  // measure 29
1000
0000
0000
0000
0100
0000
0000
0010
0002
0000
0100
0000
0023
0000
0100
0000
,  // measure 30
0031
0000
0000
0001
0010
0000
0000
0100
0000
0100
1000
0000
0010
0000
0100
0000
,  // measure 31
0001
0010
0000
0001
0100
0000
0100
0010
0000
1000
0100
1000
0001
0010
0100
1000
,  // measure 32
2001
0000
0000
3001
1000
0000
0000
0012
0000
0103
0010
0100
0010
0100
0000
2010
,  // measure 33
0000
0000
3001
0000
0101
0000
0000
2000
0000
3001
0010
0100
2000
0000
3010
0100
,  // measure 34
0002
0000
0000
1003
0010
0000
0000
0210
0000
0301
1000
0001
0020
0000
0130
1000
,  // measure 35
0002
0000
0000
1003
0001
0000
0001
2000
0000
3100
1000
0000
0001
0100
0001
0000
,  // measure 36
1002
0000
0000
1003
0001
0000
0000
2100
0000
3001
0010
0001
0010
0001
0000
0201
,  // measure 37
0000
0000
0310
0000
1010
0000
1000
0001
0000
1000
0001
0010
0200
0000
0310
0001
,  // measure 38
2000
0000
0000
3001
0100
0000
0000
0012
0000
1003
0010
1000
0200
0000
0310
0001
,  // measure 39
1000
0010
0000
1000
0100
0000
0010
0002
0000
0013
0001
0000
1000
0010
1000
0000
,  // measure 40
1001
0000
0000
0000
;

//---------------dance-single - ----------------
#NOTES:
     dance-single:
     :
     Beginner:
     1:
     0.095539,0.122993,0.053809,0.084557,0.000000,69.000000,7.000000,11.000000,0.000000,0.000000,0.000000,0.095539,0.122993,0.053809,0.084557,0.000000,69.000000,7.000000,11.000000,0.000000,0.000000,0.000000:
0000
0000
0000
0000
,
0000
0000
0000
0000
,
0000
0000
0000
0000
,
0000
0000
0000
0000
,
1000
0000
0000
0000
,
0001
0000
0000
0000
,
0100
0000
0000
0000
,
0010
0000
0000
0000
,
1000
1000
0000
0000
,
0001
0001
0000
0000
,
0100
0100
0000
0000
,
0020
0000
0000
0030
,
1001
0000
0100
0000
,
0010
0000
2000
3000
,
1000
0000
0001
0000
,
0100
0000
0020
0030
,
0110
0000
1000
0000
,
0001
0000
0200
0300
,
0100
0000
0001
0000
,
1000
0000
0020
0030
,
0010
0010
0000
0000
,
0100
0100
0000
0000
,
0001
0001
0000
0000
,
1000
1000
0000
0000
,
1001
0001
0000
0001
,
0000
0010
0000
0010
,
0000
0100
0000
0100
,
0000
1000
0000
1000
,
1001
0000
0010
0000
,
0100
0000
0002
0003
,
0001
0000
1000
0000
,
0010
0000
0200
0300
,
0110
0000
1000
0000
,
0001
0000
0200
0300
,
0100
0000
0010
0000
,
1000
0000
0002
0003
,
1001
0000
0010
0000
,
0100
0000
2000
3000
,
1000
0000
0001
0000
,
0100
0000
0020
0030
,
0110
0000
0000
0000
;

//---------------dance-single - ----------------
#NOTES:
     dance-single:
     :
     Easy:
     2:
     0.150446,0.153741,0.061496,0.061496,0.000000,121.000000,8.000000,8.000000,0.000000,0.000000,0.000000,0.150446,0.153741,0.061496,0.061496,0.000000,121.000000,8.000000,8.000000,0.000000,0.000000,0.000000:
0000
0000
0000
0000
,
0000
0000
0000
0000
,
0000
0000
0000
0000
,
0000
0000
0000
0000
,
2000
0000
0000
3000
,
0002
0000
0000
0003
,
0200
0000
0000
0300
,
0020
0000
0000
0030
,
2000
0100
0000
3100
,
0002
0100
0000
0103
,
2000
0100
0000
3100
,
0020
0000
0000
0130
,
1001
1000
0001
0010
,
0001
1000
0100
0010
,
0001
0001
1000
0010
,
1000
1000
0100
0010
,
0110
0100
1000
0100
,
0001
0010
0100
1000
,
0001
0001
0010
0001
,
1000
1000
0010
1000
,
1001
0100
0100
0010
,
0010
1000
1000
0001
,
0001
0010
0010
0100
,
0100
1000
1000
0001
,
1001
0010
0000
0010
,
0000
0100
0000
0100
,
0000
1000
0000
1000
,
0000
0001
0000
0001
,
0110
0001
0010
0001
,
0100
1000
0100
1000
,
0001
1000
0001
1000
,
0010
0100
0010
0100
,
0110
1000
0100
0010
,
0001
1000
0010
1000
,
0001
0001
0100
0001
,
1000
1000
0010
1000
,
0110
1000
0100
1000
,
0001
0100
0010
1000
,
0001
0001
0100
0010
,
1000
1000
0100
0010
,
1001
0000
0000
0000
;

//---------------dance-single - ----------------
#NOTES:
     dance-single:
     :
     Medium:
     4:
     0.274537,0.307482,0.130680,0.368978,0.073027,185.000000,17.000000,48.000000,0.000000,0.000000,0.000000,0.274537,0.307482,0.130680,0.368978,0.073027,185.000000,17.000000,48.000000,0.000000,0.000000,0.000000:
0000
0000
0000
0000
,
0000
0000
0000
0000
,
0000
0000
0000
0000
,
0000
0000
0000
0000
,
2000
0000
0010
0000
0000
0100
3010
0000
,
0002
0000
0100
0000
0000
0010
0103
0000
,
2000
0000
0010
0000
0000
0100
3010
0000
,
0002
0000
0100
0000
0000
0010
0103
0000
,
1000
0100
1000
0000
0001
0000
0001
0000
,
1000
0010
1000
0000
0001
0000
0001
0000
,
1000
0100
1000
0000
0001
0000
0001
0000
,
0020
0000
0000
0130
,
1002
0000
0000
0000
1003
0000
0000
0002
0000
0000
1003
0000
0001
0000
0100
0000
,
0020
0000
0000
0000
0130
0000
0000
2000
0000
0000
3001
0000
0010
0000
0100
0000
,
2000
0000
0000
0000
3010
0000
0000
0200
0000
0000
0301
0000
0010
0000
0100
0000
,
2000
0000
0000
0000
3001
0000
0000
0020
0000
0000
0031
0000
2000
0000
3010
0000
,
0210
0000
0000
0000
0301
0000
0000
2000
0000
0000
3001
0000
0100
0000
0010
0000
,
0200
0000
0000
0000
0301
0000
0000
0020
0000
0000
0130
0000
1000
0000
0100
0000
,
0020
0000
0000
0000
0031
0000
0000
0200
0000
0000
0310
0000
1000
0000
0001
0000
,
2000
0000
0000
0000
3010
0000
0000
0200
0000
0000
0301
0000
0020
0000
0031
0000
,
1001
0100
1000
1000
0001
0100
0001
0000
,
1000
0010
1000
1000
0001
0010
0001
0000
,
2001
0000
0000
0000
0010
0000
0000
0010
0000
0000
3010
0000
0101
0000
0000
0000
,
0011
0000
0000
0101
0000
0000
0000
0000
1010
0000
0000
1100
0000
0000
0000
0000
,
2001
0000
0010
0000
0000
0100
3010
0000
,
0001
0000
0100
0000
0000
0010
0100
0000
,
1000
0000
0010
0000
0000
0100
0010
0000
,
0002
0000
0100
0000
0003
0010
0100
0000
,
2001
0000
0010
0000
0000
0100
3010
0000
,
1002
0000
0010
0000
0000
0100
0013
0000
,
0120
0000
0001
0000
0000
0100
0031
0000
,
0210
0000
1000
0000
0000
0010
1300
0000
,
2001
0000
0000
0000
3010
0000
0000
0200
0000
0000
0301
0000
0010
0000
0100
0000
,
2000
0000
0000
0000
3001
0000
0000
0200
0000
0000
0310
0000
1000
0000
0001
0000
,
0020
0000
0000
0000
0031
0000
0000
0200
0000
0000
0310
0000
0100
0000
0001
0000
,
0020
0000
0000
0000
0031
0000
0000
2000
0000
0000
3010
0000
0002
0000
0013
0000
,
2001
0000
0000
0000
3100
0000
0000
2000
0000
0000
3001
0000
0100
0000
0010
0000
,
0200
0000
0000
0000
0301
0000
0000
0020
0000
0000
0031
0000
0100
0000
0010
0000
,
2000
0000
0000
0000
3100
0000
0000
0020
0000
0000
0031
0000
0100
0000
0001
0000
,
0020
0000
0000
0000
0031
0000
0000
0200
0000
0000
0301
0000
2000
0000
3100
0000
,
1001
0000
0000
0000
;
