#TITLE:Bounce;
#SUBTITLE:;
#ARTIST:Boyfriend;
#TITLETRANSLIT:Bounce;
#SUBTITLETRANSLIT:;
#ARTISTTRANSLIT:Boyfriend;
#GENRE:;
#CREDIT:Lisek;
#BANNER:[Drop the Zero] - Bounce.png;
#BACKGROUND:[Drop the Zero] - Bounce-bg.png;
#LYRICSPATH:;
#CDTITLE:cdtitle.png;
#MUSIC:[Drop the Zero] - Bounce.ogg;
#OFFSET:-0.925000;
#SAMPLESTART:59.669998;
#SAMPLELENGTH:9.759999;
#SELECTABLE:YES;
#BPMS:0.000000=98.000000
;
#STOPS:144.000000=2.449000
;
#BGCHANGES:0.000=[Drop the Zero] - Bounce.avi=1.000=0=0=1=====,
99999=-nosongbg-=1.000=0=0=0 // don't automatically add -songbackground-
;
#KEYSOUNDS:;
#ATTACKS:;

//---------------dance-single - Lisek----------------
#NOTES:
     dance-single:
     Lisek:
     Hard:
     8:
     0.465216,0.432254,0.354670,0.032243,0.544096,356.000000,44.000000,4.000000,0.000000,0.000000,0.000000,0.465216,0.432254,0.354670,0.032243,0.544096,356.000000,44.000000,4.000000,0.000000,0.000000,0.000000:
// measure 0
0000
0000
0000
0000
,  // measure 1
0000
0000
0000
0000
,  // measure 2
0000
0000
0000
0000
,  // measure 3
0000
0000
0000
0000
,  // measure 4
1000
0000
0000
0000
0001
0010
0000
0001
0000
0000
0000
0000
1000
0010
0000
0000
,  // measure 5
0100
0000
0001
1000
0100
0010
0000
0001
0000
0000
0000
0000
0010
0100
0000
0000
,  // measure 6
1000
0000
0000
0000
0010
0100
0000
0010
0000
0000
0000
0000
1000
0010
0000
0000
,  // measure 7
1000
0000
0001
0010
0100
1000
0000
0010
0000
0000
0000
0000
0100
0010
1000
0001
,  // measure 8
1000
0000
0001
0100
0010
0000
0100
0010
1000
0000
0001
0010
0100
0000
1000
0000
,  // measure 9
0001
0000
1000
0010
0100
0000
0001
0100
0010
0000
1000
0100
0010
0000
0001
0000
,  // measure 10
1000
0000
0010
0100
0001
0000
0100
0010
1000
0000
0010
0100
1000
0000
0100
0000
,  // measure 11
0001
0000
1000
0010
0100
0000
0001
0100
0010
0000
1000
0100
0001
0000
0100
0000
,  // measure 12
1000
0000
0010
0100
0010
0000
1000
0100
0010
0000
0001
0010
0100
0000
1000
0000
,  // measure 13
0001
0000
0100
0001
0100
0000
0010
1000
0010
0000
1000
0100
0010
0000
0001
0000
,  // measure 14
1000
0000
0001
0100
0010
0000
1000
0010
0100
0000
0001
0100
0010
0000
1000
0000
,  // measure 15
1001
0000
0000
0000
0110
0000
0000
2000
0000
0000
3002
0000
0000
0000
0003
0000
,  // measure 16
0000
0000
1000
0100
0010
0000
0010
0001
1000
0000
1000
0100
0010
0000
0110
0000
,  // measure 17
0000
0000
0001
0010
0100
0000
0100
1000
0001
0000
0001
0010
0100
0000
0110
0000
,  // measure 18
0000
0000
1000
0001
0100
0000
0100
0010
1000
0000
1000
0100
0010
0000
0110
0000
,  // measure 19
0000
0000
0010
0001
0100
0000
0100
0010
1000
0000
1000
0100
0010
0000
0001
1000
,  // measure 20
0001
0010
0100
1000
0001
0000
0100
0000
0000
0000
0010
0000
0010
0000
0010
0000
,  // measure 21
1000
0001
0100
0001
1000
0000
0010
0000
0000
0000
0100
0000
0100
0000
0100
0000
,  // measure 22
0001
0010
0100
1000
0001
0000
0000
1000
0000
0000
0000
0000
0001
0000
1000
0100
,  // measure 23
1000
0010
0100
0000
0000
0000
0001
0100
0010
0000
0100
0000
0110
0000
0000
0000
,  // measure 24
1001
0000
0000
1000
1000
0100
0000
0110
0000
0000
0000
0010
0010
0001
0000
0000
,  // measure 25
0011
0000
0001
1000
0010
1000
0000
1010
0000
0000
0000
1000
1000
0001
0000
0000
,  // measure 26
0100
0000
0010
1000
0100
0010
0000
0110
0000
0000
0000
0010
0010
0001
0000
0000
,  // measure 27
1001
0110
1001
0110
,  // measure 28
1001
0000
0000
0001
0001
0100
0000
0110
0000
0000
0000
0100
0100
0001
0000
0000
,  // measure 29
0101
0000
0001
1000
0100
1000
0000
1010
0000
0000
0000
0010
0010
0100
0000
0000
,  // measure 30
0001
0000
1000
0100
0010
0100
0000
1100
0000
0000
0000
1000
1000
0001
0000
0000
,  // measure 31
1001
0110
1001
0110
,  // measure 32
0001
0000
0100
0010
0000
0000
0000
0000
0000
0000
1000
0100
0010
0000
0010
0001
,  // measure 33
0000
0010
0000
0000
0000
0000
0001
1000
,  // measure 34
0001
0010
0100
2000
0000
3001
0100
0020
,  // measure 35
1000
0000
0000
0000
0100
0000
0000
0000
0000
0000
1000
0000
0130
0010
0100
0010
,  // measure 36
0000
0000
0000
0000
,  // measure 37
1000
0000
0000
0000
0001
0010
0000
0001
0000
0000
0000
0000
1000
0010
0000
0000
,  // measure 38
0100
0000
0010
1000
0100
0010
0000
0001
0000
0000
0000
0000
1000
0010
0000
0000
,  // measure 39
0100
0000
0000
0000
0001
0010
0000
0001
0000
0000
0000
0000
1000
0010
0000
0000
,  // measure 40
1010
0101
0011
1100
,  // measure 41
1001
0000
0000
1000
1000
0001
0000
0101
0000
0000
0000
0001
0001
1000
0000
0000
,  // measure 42
0010
0000
0100
0010
1000
0010
0000
0110
0000
0000
0000
0100
0100
0001
0000
0000
,  // measure 43
1000
0000
0010
0100
0010
1000
0000
1010
0000
0000
0000
1000
1000
0100
0000
0000
,  // measure 44
1001
0110
1001
0110
,  // measure 45
1001
0000
0000
0001
0010
0100
0000
1001
0000
0000
0000
1000
0100
0010
0000
0000
,  // measure 46
0001
0000
1000
0001
1000
0001
0000
1001
0000
0000
0000
0001
1000
0010
0000
0000
,  // measure 47
0010
0000
0100
0010
1000
0001
0000
1001
0000
0000
0000
1000
0001
1000
0000
0000
,  // measure 48
1001
0110
1001
0110
;

//---------------dance-single - Lisek----------------
#NOTES:
     dance-single:
     Lisek:
     Beginner:
     1:
     0.050667,0.038691,0.000000,0.000000,0.000000,44.000000,0.000000,0.000000,0.000000,0.000000,0.000000,0.050667,0.038691,0.000000,0.000000,0.000000,44.000000,0.000000,0.000000,0.000000,0.000000,0.000000:
// measure 0
0000
0000
0000
0000
,  // measure 1
0000
0000
0000
0000
,  // measure 2
0000
0000
0000
0000
,  // measure 3
0000
0000
0000
0000
,  // measure 4
1000
0000
0000
0000
,  // measure 5
0001
0000
0000
0000
,  // measure 6
1000
0000
0000
0000
,  // measure 7
0001
0000
0000
0000
,  // measure 8
0100
0000
0000
0000
,  // measure 9
0010
0000
0000
0000
,  // measure 10
1000
0000
0000
0000
,  // measure 11
0001
0000
0000
0000
,  // measure 12
0100
0000
0000
0000
,  // measure 13
0010
0000
0000
0000
,  // measure 14
1000
0000
0000
0000
,  // measure 15
0001
0000
0000
0000
,  // measure 16
1000
0000
0000
0000
,  // measure 17
0100
0000
0000
0000
,  // measure 18
0010
0000
0000
0000
,  // measure 19
0001
0000
0000
0000
,  // measure 20
1000
0000
0000
0000
,  // measure 21
0100
0000
0000
0000
,  // measure 22
0010
0000
0000
0000
,  // measure 23
0001
0000
0000
0000
,  // measure 24
1000
0000
0000
0000
,  // measure 25
0001
0000
0000
0000
,  // measure 26
1000
0000
0000
0000
,  // measure 27
0001
0000
0000
0000
,  // measure 28
0100
0000
0000
0000
,  // measure 29
0010
0000
0000
0000
,  // measure 30
0100
0000
0000
0000
,  // measure 31
0010
0000
0000
0000
,  // measure 32
1000
0000
0000
0000
,  // measure 33
0010
0000
0000
0000
,  // measure 34
1000
0000
0000
0000
,  // measure 35
0001
0000
0000
0000
,  // measure 36
0000
0000
0000
0000
,  // measure 37
1000
0000
0000
0000
,  // measure 38
0001
0000
0000
0000
,  // measure 39
0100
0000
0000
0000
,  // measure 40
0010
0000
0000
0000
,  // measure 41
1000
0000
0000
0000
,  // measure 42
0100
0000
0000
0000
,  // measure 43
0010
0000
0000
0000
,  // measure 44
0001
0000
0000
0000
,  // measure 45
1000
0000
0000
0000
,  // measure 46
0001
0000
0000
0000
,  // measure 47
0100
0000
0000
0000
,  // measure 48
0010
0000
0000
0000
;

//---------------dance-single - Lisek----------------
#NOTES:
     dance-single:
     Lisek:
     Easy:
     2:
     0.105940,0.117887,0.000000,0.064485,0.000000,84.000000,0.000000,8.000000,0.000000,0.000000,0.000000,0.105940,0.117887,0.000000,0.064485,0.000000,84.000000,0.000000,8.000000,0.000000,0.000000,0.000000:
// measure 0
0000
0000
0000
0000
,  // measure 1
0000
0000
0000
0000
,  // measure 2
0000
0000
0000
0000
,  // measure 3
0000
0000
0000
0000
,  // measure 4
1000
0000
0000
0000
,  // measure 5
0001
0000
0000
0000
,  // measure 6
0100
0000
0000
0000
,  // measure 7
0010
0000
0000
0000
,  // measure 8
1000
0000
0001
0000
,  // measure 9
0100
0000
0010
0000
,  // measure 10
1000
0000
0100
0000
,  // measure 11
0010
0000
0001
0000
,  // measure 12
1000
0000
0001
0000
,  // measure 13
0010
0000
0001
0000
,  // measure 14
0100
0000
0010
0000
,  // measure 15
1000
0001
1000
0000
,  // measure 16
0001
0000
0010
0000
,  // measure 17
0001
0000
1000
0000
,  // measure 18
0010
0000
1000
0000
,  // measure 19
0001
0000
0100
0000
,  // measure 20
0020
0000
0000
0030
0000
0000
0000
0000
,  // measure 21
0200
0000
0000
0300
0000
0000
0000
0000
,  // measure 22
0002
0000
0000
0003
0000
0000
0000
0000
,  // measure 23
1000
0000
0001
0000
,  // measure 24
1000
0000
0001
0000
,  // measure 25
0200
0000
0300
0000
,  // measure 26
0001
0000
0100
0000
,  // measure 27
0001
0001
1000
1000
,  // measure 28
0001
0000
1000
0000
,  // measure 29
0020
0000
0030
0000
,  // measure 30
1000
0000
0001
0000
,  // measure 31
1000
1000
0001
0001
,  // measure 32
1000
0000
0000
0000
,  // measure 33
0001
0000
0000
0000
,  // measure 34
0100
0000
0000
0000
,  // measure 35
0020
0000
0000
0030
,  // measure 36
0000
0000
0000
0000
,  // measure 37
1000
0000
0001
0000
,  // measure 38
0100
0000
0010
0000
,  // measure 39
1000
0000
0100
0000
,  // measure 40
1000
0001
1000
0001
,  // measure 41
1000
0000
0010
0000
,  // measure 42
0200
0000
0300
0000
,  // measure 43
0001
0000
1000
0000
,  // measure 44
0001
0001
1000
1000
,  // measure 45
0001
0000
0100
0000
,  // measure 46
0020
0000
0030
0000
,  // measure 47
0100
0000
0001
0000
,  // measure 48
1000
1000
0001
0001
;

//---------------dance-single - Lisek----------------
#NOTES:
     dance-single:
     Lisek:
     Medium:
     4:
     0.242972,0.255423,0.137032,0.120910,0.004030,179.000000,17.000000,15.000000,0.000000,0.000000,0.000000,0.242972,0.255423,0.137032,0.120910,0.004030,179.000000,17.000000,15.000000,0.000000,0.000000,0.000000:
// measure 0
0000
0000
0000
0000
,  // measure 1
0000
0000
0000
0000
,  // measure 2
0000
0000
0000
0000
,  // measure 3
0000
0000
0000
0000
,  // measure 4
1000
0100
0010
0001
,  // measure 5
1000
0010
0100
0001
,  // measure 6
1000
0010
0100
0010
,  // measure 7
1000
0000
0001
0000
0100
0000
0001
1000
,  // measure 8
0001
0000
0100
0000
1000
0000
0100
0100
,  // measure 9
0000
0000
0001
0000
0100
0000
0010
0010
,  // measure 10
0000
0000
1000
0000
0100
0000
0010
0010
,  // measure 11
0000
0000
0001
0000
1000
0000
0001
0001
,  // measure 12
0000
0000
1000
0000
0100
0000
0001
0001
,  // measure 13
0000
0000
0100
0000
1000
0000
0001
0001
,  // measure 14
0000
0000
1000
0000
0001
0000
1000
1000
,  // measure 15
0010
0000
0000
0000
0100
0000
0000
0010
0000
0000
0100
0000
0000
0000
0000
0000
,  // measure 16
0001
0000
1000
0000
0100
0000
2002
3003
,  // measure 17
0000
0000
0001
0000
0100
0000
2002
3003
,  // measure 18
0000
0000
1000
0000
0100
0000
2002
3003
,  // measure 19
0000
0001
0100
1001
,  // measure 20
1000
0000
1000
0000
0000
0001
0001
0001
,  // measure 21
1000
0000
1000
0000
0000
0001
0001
0001
,  // measure 22
1000
0002
0000
0003
,  // measure 23
1000
0000
1001
0000
,  // measure 24
0001
1000
0010
1000
,  // measure 25
0001
1000
0001
0000
0100
0000
0010
0000
,  // measure 26
1000
0001
0010
0001
,  // measure 27
1002
1003
0210
0310
,  // measure 28
1000
0100
1000
0001
,  // measure 29
0100
0001
0100
0000
0001
0000
1000
0000
,  // measure 30
0010
0100
0001
0010
,  // measure 31
2001
3001
0120
0130
,  // measure 32
0001
0010
0100
1000
,  // measure 33
0001
0100
0010
1000
,  // measure 34
0001
0100
0010
0000
1000
0100
0010
0000
,  // measure 35
0001
1000
0010
0100
,  // measure 36
0000
0000
0000
0000
,  // measure 37
0001
1000
0010
0100
,  // measure 38
0010
1000
0001
0010
,  // measure 39
0001
1000
0100
0010
,  // measure 40
1001
0110
1001
0110
,  // measure 41
1000
0001
0100
0010
,  // measure 42
1000
0100
0010
0000
0001
0000
1000
0000
,  // measure 43
0001
0100
0010
1000
,  // measure 44
2010
3010
0102
0103
,  // measure 45
0001
0100
0010
1000
,  // measure 46
0001
1000
0001
0000
1000
0000
0010
0000
,  // measure 47
0100
0001
1000
0001
,  // measure 48
1002
1003
0210
0310
;
