#TITLE:BETTER OFF ALONE;
#SUBTITLE:;
#ARTIST:ALICE DEEJAY;
#TITLETRANSLIT:;
#SUBTITLETRANSLIT:;
#ARTISTTRANSLIT:;
#GENRE:;
#CREDIT:;
#BANNER:[Drop the Zero] - BETTER OFF ALONE.png;
#BACKGROUND:[Drop the Zero] - BETTER OFF ALONE-bg.png;
#LYRICSPATH:;
#CDTITLE:;
#MUSIC:[Drop the Zero] - BETTER OFF ALONE.ogg;
#OFFSET:0.000000;
#SAMPLESTART:59.563999;
#SAMPLELENGTH:18.500000;
#SELECTABLE:YES;
#DISPLAYBPM:137.000000;
#BPMS:0.000000=137.000000
;
#STOPS:
;
#BGCHANGES:;
#KEYSOUNDS:;
#ATTACKS:;

//---------------dance-single - ----------------
#NOTES:
     dance-single:
     :
     Hard:
     8:
     0.507251,0.503341,0.095195,0.066636,0.080915,373.000000,363.000000,10.000000,7.000000,0.000000,0.000000,0.507251,0.503341,0.095195,0.066636,0.080915,373.000000,363.000000,10.000000,7.000000,0.000000,0.000000:
0000
0000
0000
0000
,
0000
0000
0000
0000
,
0000
0000
0000
0000
,
0000
0000
0000
0000
,
0000
0000
0000
0000
,
0000
0000
0000
0000
,
1000
0100
1000
0000
0010
0100
0001
0000
,
0010
0001
0010
0000
0001
0100
0010
0000
,
1000
0100
0010
0000
0001
0100
0010
0000
,
0220
0000
0000
0330
,
1010
0000
0100
0100
0001
0010
0001
0100
,
0010
0000
1000
0000
0001
0000
1000
0000
0010
0000
0000
0010
0000
0000
0100
0000
,
0010
1000
0010
0100
0001
0010
0100
1000
,
0001
0000
0100
0000
0001
0000
0010
0000
0001
0000
0000
0001
0000
0000
0010
0000
,
0001
0100
0010
1000
0100
0010
0100
1000
,
0001
0000
0100
0000
0010
0000
1000
0000
0100
0000
0000
0100
0000
0000
0010
0000
,
0001
0100
0010
1000
0100
0010
0001
0100
,
2002
0000
0000
3003
,
0010
0000
0010
0100
0000
0001
0000
1000
,
0000
0000
0100
0000
0000
0000
1000
0000
0010
0000
0000
0010
0000
0000
0100
0000
,
0001
0000
0001
1000
0000
0100
0000
0010
,
0000
0000
0001
0000
0000
0000
0100
0000
0001
0000
0000
0001
0000
0000
0010
0000
,
0100
0000
0010
0001
0000
1000
0000
0001
,
0000
0000
0010
0000
0000
0000
0001
0000
0100
0000
0000
0100
0000
0000
0010
0000
,
1000
0000
1000
0001
0000
0010
0000
0100
,
2100
0000
0000
0000
0000
0000
0100
0000
0010
0000
0000
0010
3000
0000
0001
0000
,
0010
0100
0010
0100
0010
0100
0010
0100
,
1000
0100
1000
0100
1000
0100
1000
0100
,
1000
0010
1000
0010
1000
0010
1000
0010
,
0100
0001
0100
0001
0100
0001
0100
0001
,
0010
0001
0010
0001
0010
0001
0010
0001
,
0100
0001
0100
0001
0100
0001
0100
0001
,
1000
0010
0100
0001
0010
0001
0100
0010
,
1100
1010
0101
0011
,
1001
0000
1000
0010
0100
0001
0010
0001
,
0100
0000
0010
0000
0100
0000
0001
0000
0010
0000
0100
1000
0000
1000
0100
0000
,
0010
0001
0100
0010
1000
0100
0001
0100
,
1000
0000
0010
0000
0100
0000
0001
0000
0010
0000
0001
0100
0000
0000
0010
0000
,
0100
0010
1000
0100
0001
0100
1000
0010
,
0100
0000
0001
0000
0010
0000
0001
0000
0100
0000
0010
0100
0000
0100
0010
0000
,
1000
0100
1000
0010
0001
0010
1000
0100
,
0010
0001
0100
1000
0100
0001
0010
0001
,
1000
0000
0001
0100
0010
1000
0100
1000
,
0010
0000
0100
0000
0010
0000
1000
0000
0100
0000
0010
0001
0000
0001
0010
0000
,
0100
1000
0010
0100
0001
0010
1000
0010
,
0001
0000
0100
0000
0010
0000
1000
0000
0100
0000
1000
0010
0000
0000
0100
0000
,
0010
0100
0001
0010
1000
0010
0001
0100
,
0010
0000
1000
0000
0100
0000
1000
0000
0010
0000
0100
0010
0000
0010
0100
0000
,
0001
0010
0001
0100
1000
0100
0001
0010
,
0100
1000
0010
0001
0010
1000
0100
0010
,
0001
0010
0001
0100
0010
0100
0001
1000
,
0100
0010
0001
1000
0010
1000
0100
0010
,
0001
0100
0001
0010
0100
0001
0100
1000
,
0010
0100
0001
0010
0100
1000
0010
0100
,
0001
0010
0001
0100
1000
0100
0001
0010
,
0001
1000
0010
0100
0001
0010
0100
1000
,
0010
0100
0001
0010
0100
1000
0001
0001
,
0000
0010
0000
1000
0000
0100
0000
0001
,
2002
0000
0000
3003
;

//---------------dance-single - ----------------
#NOTES:
     dance-single:
     :
     Medium:
     6:
     0.299183,0.503341,0.104714,0.228467,0.023799,220.000000,209.000000,11.000000,24.000000,0.000000,0.000000,0.299183,0.503341,0.104714,0.228467,0.023799,220.000000,209.000000,11.000000,24.000000,0.000000,0.000000:
0000
0000
0000
0000
,
0000
0000
0000
0000
,
0000
0000
0000
0000
,
0000
0000
0000
0000
,
0000
0000
0000
0000
,
0000
0000
0000
0000
,
1000
0000
0001
0000
,
0100
0000
0000
0000
0010
0000
0000
1000
,
0100
0000
1000
0000
,
2002
0000
0000
3003
,
0100
0000
0100
0010
0000
0000
0010
0000
,
0000
0000
0000
0000
0010
0000
0000
0000
1000
0000
0000
0100
0000
0000
0000
0000
,
1000
0000
1000
0010
0000
0000
0100
0000
,
0000
0000
0000
0000
0001
0000
0000
0000
0010
0000
0000
0010
0000
0000
0000
0000
,
0001
0000
0100
0010
0000
0000
0010
0000
,
0000
0000
0000
0000
1000
0000
0000
0000
0100
0000
0000
0100
0000
0000
0000
0000
,
0010
0000
0001
0100
0000
0000
0010
0000
,
0000
0000
0000
0000
1000
0000
0000
0000
0100
0000
0000
0100
0000
0000
0000
0000
,
0020
0000
0002
0033
,
0002
0000
0200
0303
,
0200
0000
0020
0330
,
0020
0000
2000
3030
,
2000
0000
0200
3300
,
0200
0000
0020
0330
,
0020
0000
0002
0033
,
1001
0000
0000
0000
0000
0000
0100
0000
0010
0000
0000
0010
0000
0000
0000
0000
,
1000
0100
1000
0000
0010
0100
0001
0000
,
0010
0001
0100
0000
0010
1000
0100
0000
,
1000
0100
1000
0000
0010
0100
0001
0000
,
0010
0001
0010
0000
0001
0100
0001
0000
,
0010
0001
0100
0000
0010
1000
0100
0000
,
1000
0010
0100
0000
0001
0010
0001
0000
,
0100
0100
0110
0000
1000
1000
1100
0000
,
0101
1010
0011
1001
,
0110
0000
0010
1000
0100
0000
1000
0000
,
0010
0010
0100
0100
,
0001
0010
0001
0000
0100
0000
0100
0000
,
0010
1000
0100
0000
1000
0000
1000
0000
,
0010
0100
0001
0000
0010
0000
0010
0000
,
0001
1000
0001
0000
1000
0001
1000
0000
,
0010
0100
0001
0000
0010
0000
0010
0000
,
0002
0100
2000
3003
,
0010
0000
0100
0000
0010
1000
0100
0000
,
0010
0000
0010
0000
0001
0100
0001
0000
,
0010
0000
0010
0000
0001
1000
0010
0000
,
0100
0000
0100
0000
0001
0100
0001
0000
,
1000
0100
0010
0001
,
0100
0010
1000
0000
0100
1000
0100
0000
,
1000
0010
0100
0001
,
0010
0010
0100
0100
,
0011
0000
0001
0000
0100
0010
1000
0000
,
0200
0000
0000
2000
0000
0000
3300
0000
,
0010
0000
0100
0001
0010
0000
0001
0000
,
0100
0100
0010
0010
,
1000
0000
0100
1000
0010
0000
0100
0000
,
0002
0000
0000
0020
0000
0000
0033
0000
,
0100
0000
1000
0000
0010
0100
0001
0000
,
0010
0001
0100
0010
,
2002
0000
0000
3003
;

//---------------dance-single - ----------------
#NOTES:
     dance-single:
     :
     Easy:
     3:
     0.183590,0.251671,0.104714,0.209428,0.000000,135.000000,124.000000,11.000000,22.000000,0.000000,0.000000,0.183590,0.251671,0.104714,0.209428,0.000000,135.000000,124.000000,11.000000,22.000000,0.000000,0.000000:
0000
0000
0000
0000
,
0000
0000
0000
0000
,
0000
0000
0000
0000
,
0000
0000
0000
0000
,
0000
0000
0000
0000
,
0000
0000
0000
0000
,
0110
0000
0000
0000
,
0000
0000
0000
0000
0000
0000
0000
1000
,
0001
0000
0000
0000
,
2002
0000
0000
3003
,
1000
1000
0100
0000
,
0010
0000
0001
0000
,
1000
0010
0001
0000
,
0010
0000
0100
0000
,
0001
0001
0010
0000
,
0100
0000
1000
0000
,
0001
0100
1000
0000
,
0100
0000
0010
0000
,
2000
0000
0000
3000
,
0002
0000
0000
0003
,
2000
0000
0000
3000
,
0002
0000
0000
0003
,
0200
0300
0020
0030
,
0200
0300
0020
0030
,
1000
0010
0100
0001
,
0220
0000
0000
0330
,
1000
0100
1000
0000
,
0100
1000
0001
0000
,
0010
0010
0001
0000
,
0010
0001
1000
0000
,
0100
1000
0100
0000
,
1000
0010
0100
0000
,
0001
0001
0010
0000
,
0100
0010
0001
0100
,
1001
0010
0010
0000
,
1000
0000
0001
0000
,
0010
0000
0100
0000
,
1000
0010
0100
0100
,
0110
0000
1000
0000
,
0001
0000
1000
0000
,
0100
0000
0010
0001
,
2002
0000
0000
3003
,
0101
0000
0001
0000
,
1000
1000
0100
0010
,
0010
0000
0001
0000
,
1000
0010
0100
0001
,
0011
0000
0100
0000
,
1000
0000
0010
0100
,
0100
0000
0001
0000
,
0011
0010
0022
0033
,
1000
0000
1000
0000
,
0020
0000
0200
0330
,
0001
0000
0010
0000
,
0100
0010
0001
1000
,
0001
0000
0001
0000
,
2000
0000
0002
3003
,
0100
0000
0010
0000
,
1000
0100
0010
0001
,
2002
0000
0000
3003
;

//---------------dance-single - ----------------
#NOTES:
     dance-single:
     :
     Beginner:
     1:
     0.107434,0.165639,0.019039,0.000000,0.000000,79.000000,77.000000,2.000000,0.000000,0.000000,0.000000,0.107434,0.165639,0.019039,0.000000,0.000000,79.000000,77.000000,2.000000,0.000000,0.000000,0.000000:
0000
0000
0000
0000
,
0000
0000
0000
0000
,
0000
0000
0000
0000
,
0000
0000
0000
0000
,
0000
0000
0000
0000
,
0000
0000
0000
0000
,
0010
0000
0000
0000
,
0000
0000
0000
0000
,
0100
0000
0000
0000
,
0000
0000
0000
0000
,
1000
1000
0000
0000
,
0000
0000
0000
0000
,
0001
0001
0000
0000
,
0000
0000
0000
0000
,
1000
1000
0000
0000
,
0000
0000
0000
0000
,
0001
0001
0000
0000
,
0000
0000
0000
0000
,
0010
0000
0000
0000
,
0100
0000
0000
0000
,
1000
0000
0000
0000
,
0010
0000
0000
0000
,
0100
0000
0000
0000
,
0001
0000
0000
0000
,
0010
0000
0000
0000
,
1001
0000
0000
0000
,
1000
0000
1000
0000
,
1000
0000
0000
0000
,
0001
0000
0001
0000
,
0001
0000
0000
0000
,
1000
0000
1000
0000
,
1000
0000
0000
0000
,
0001
0000
0001
0000
,
0001
0000
0000
0000
,
0100
0100
0100
0000
,
0001
0000
1000
0000
,
1000
0000
0000
0000
,
0001
0000
0000
0000
,
0010
0010
0010
0000
,
0001
0000
1000
0000
,
0100
0000
0000
0000
,
0010
0000
0000
0000
,
0001
0000
0001
0000
,
1000
0000
1000
0000
,
0001
0000
0001
0000
,
1000
0000
1000
0000
,
0100
0000
0010
0000
,
0100
0000
0010
0000
,
0100
0000
1000
0000
,
0010
0000
0100
0000
,
0001
0000
0010
0000
,
1000
0000
0010
0000
,
0001
0000
0100
0000
,
0010
0000
1000
0000
,
1000
0000
0100
0000
,
0001
0000
0100
0000
,
1000
0000
0010
0000
,
0100
0000
0001
0000
,
1001
0000
0000
0000
;

//---------------dance-double - ----------------
#NOTES:
     dance-double:
     :
     Beginner:
     1:
     0.114233,0.165639,0.028558,0.000000,0.000000,84.000000,81.000000,3.000000,0.000000,0.000000,0.000000,0.114233,0.165639,0.028558,0.000000,0.000000,84.000000,81.000000,3.000000,0.000000,0.000000,0.000000:
00000000
00000000
00000000
00000000
,
00000000
00000000
00000000
00000000
,
00000000
00000000
00000000
00000000
,
00000000
00000000
00000000
00000000
,
00000000
00000000
00000000
00000000
,
00000000
00000000
00000000
00000000
,
00100000
00000000
00000000
00000000
,
00000000
00000000
00000000
00000000
,
00000100
00000000
00000000
00000000
,
00000000
00000000
00000000
00000000
,
10000000
10000000
00000000
00000000
,
00000000
00000000
00000000
00000000
,
00001000
00001000
00000000
00000000
,
00000000
00000000
00000000
00000000
,
00010000
00010000
00000000
00000000
,
00000000
00000000
00000000
00000000
,
00000001
00000001
00000000
00000000
,
00000000
00000000
00000000
00000000
,
00010000
00000000
00000000
00000000
,
00000100
00000000
00000000
00000000
,
00100000
00000000
00000000
00000000
,
00000001
00000000
00000000
00000000
,
00010000
00000000
00000000
00000000
,
01000000
00000000
00000000
00000000
,
00010000
00000000
00001000
00000000
,
00011000
00000000
00000000
00000000
,
10000000
00000000
00010000
00000000
,
10000000
00000000
00100000
00000000
,
00001000
00000000
00001000
00000000
,
00100000
00000000
00010000
00000000
,
00000010
00000000
00000001
00000000
,
00000100
00000000
00000010
00000000
,
00010000
00000000
00001000
00000000
,
00011000
00000000
00000000
00000000
,
01000000
01000000
01000000
00000000
,
00001000
00000000
00010000
00000000
,
00001000
00000000
00000000
00000000
,
00010000
00000000
00000000
00000000
,
00000100
00000100
00000100
00000000
,
00001000
00000000
00000001
00000000
,
00000010
00000000
00000000
00000000
,
00000100
00000000
00000000
00000000
,
00010000
00000000
00010000
00000000
,
00100000
00000000
00100000
00000000
,
10000000
00000000
10000000
00000000
,
00001000
00000000
00001000
00000000
,
00000100
00000000
00000010
00000000
,
00001000
00000000
00000100
00000000
,
00010000
00000000
00000010
00000000
,
00001000
00000000
00000010
00000000
,
00010000
00000000
00100000
00000000
,
10000000
00000000
00100000
00000000
,
00010000
00000000
00000100
00000000
,
00000010
00000000
00000001
00000000
,
00001000
00000000
00000010
00000000
,
00000100
00000000
00010000
00000000
,
10000000
00000000
01000000
00000000
,
00100000
00000000
00001000
00000000
,
00011000
00000000
00000000
00000000
;

//---------------dance-double - ----------------
#NOTES:
     dance-double:
     :
     Easy:
     3:
     0.197189,0.279634,0.114233,0.209428,0.000000,145.000000,133.000000,12.000000,22.000000,0.000000,0.000000,0.197189,0.279634,0.114233,0.209428,0.000000,145.000000,133.000000,12.000000,22.000000,0.000000,0.000000:
00000000
00000000
00000000
00000000
,
00000000
00000000
00000000
00000000
,
00000000
00000000
00000000
00000000
,
00000000
00000000
00000000
00000000
,
00000000
00000000
00000000
00000000
,
00000000
00000000
00000000
00000000
,
01100000
00000000
00000000
00000000
,
00000000
00000000
00000000
00000000
00000000
00000000
00000000
10000000
,
00010000
00000000
00000000
00000000
,
00022000
00000000
00000000
00033000
,
01000000
01000000
00100000
00000000
,
00100000
00000000
00010000
00000000
,
00000010
00000100
00010000
00000000
,
00000100
00000000
00000001
00000000
,
00010000
00001000
01000000
00000000
,
00100000
00000000
10000000
00000000
,
00010000
01000000
00001000
00000000
,
01000000
00000000
00000100
00000000
,
02000000
00000000
00001000
03000000
,
00020000
00000000
00000100
00030000
,
00000020
00000000
00000001
00000030
,
00002000
00000000
00000010
00003010
,
00000200
00000300
02000000
03000000
,
00002000
00003000
00200000
00300000
,
00001000
01000000
00000100
00010000
,
00020020
00000000
00000000
00030030
,
00010000
00100000
10000000
00000000
,
01000000
10000000
00010000
00000000
,
00100000
00100000
00001000
00000000
,
00000100
00000010
00001000
00000000
,
00000001
00000010
00000100
00000000
,
00010000
00000010
00000100
00000000
,
00000010
00010000
01000000
00000000
,
10000000
00100000
00010000
00000100
,
00011000
00100000
00000010
00000000
,
00010000
00100000
00010000
00000000
,
00001000
00000010
00000001
00000000
,
00000100
00001000
00100000
01000000
,
01100000
10000000
10000000
00000000
,
00010000
00000000
00001000
00000000
,
01000000
00000000
00100000
00001000
,
00202000
00000000
00000000
00303000
,
01010000
00000000
00010000
00000000
,
00100000
00001000
00000100
00000001
,
00000001
00000000
00010000
00000000
,
00000100
00000010
00010000
00010000
,
00110000
00000000
01000000
00000000
,
10000000
00000000
00010000
01000000
,
01000000
00000000
00010000
00000000
,
00101000
00001010
00000022
00000033
,
00001000
00000000
00010000
00000000
,
00200000
00000000
02000000
03300000
,
10000000
00000000
00010000
00000000
,
00100000
00010000
00001000
00000100
,
00000010
00000010
00000010
00000000
,
00000002
00000000
00002000
00003003
,
00000010
00000000
00000100
00000000
,
00001000
00010000
00100000
01000000
,
02200000
00000000
00000000
03300000
;

//---------------dance-double - ----------------
#NOTES:
     dance-double:
     :
     Medium:
     6:
     0.342700,0.447415,0.247506,0.095195,0.019039,252.000000,226.000000,26.000000,10.000000,0.000000,0.000000,0.342700,0.447415,0.247506,0.095195,0.019039,252.000000,226.000000,26.000000,10.000000,0.000000,0.000000:
00000000
00000000
00000000
00000000
,
00000000
00000000
00000000
00000000
,
00000000
00000000
00000000
00000000
,
00000000
00000000
00000000
00000000
,
00000000
00000000
00000000
00000000
,
00000000
00000000
00000000
00000000
,
01000000
00100000
10000000
01000000
,
00010000
00000000
00000100
00000000
00001000
00000000
00000010
00000100
,
00000001
00000100
00000010
00010000
,
00022000
00000000
00000000
00033000
,
00100000
00000000
00100000
00010000
00000000
00000000
00010000
00000000
,
00000000
00000000
00000000
00000000
00000100
00000000
00000000
00000000
00000010
00000000
00000000
00000010
00000000
00000000
00000000
00000000
,
00001000
00000000
00000100
00001000
00000000
00000000
00100000
00000000
,
00000000
00000000
00000000
00000000
01000000
00000000
00000000
00000000
00010000
00000000
00000000
00010000
00000000
00000000
00000000
00000000
,
00000100
00000000
00000001
00000001
00000000
00000000
00001000
00000000
,
00000000
00000000
00000000
00000000
00100000
00000000
00000000
00000000
01000000
00000000
00000000
01000000
00000000
00000000
00000000
00000000
,
00010000
00000000
00100000
00010000
00000000
00000000
00000100
00000000
,
00000000
00000000
00000000
00000000
00000010
00000000
00000000
00000000
00010000
00000000
00000000
00001000
00000000
00000000
00000000
00000000
,
00010000
00000000
00000000
00010000
00000000
00000000
00000000
00000010
,
00000000
00000000
00000100
00000100
,
00000100
00000000
00000000
00000001
00000000
00000000
00000000
00000010
,
00000000
00000000
00001000
00001000
,
00010000
00000000
00000000
00000010
00000000
00000000
00000000
00010000
,
00000000
00000000
00100000
00100000
,
00100000
00000000
10000000
01000000
00000000
00100000
00000000
00002000
,
00020000
00000000
00000000
00033000
,
00001000
00010000
00001000
00000000
00000100
00000001
00000100
00000000
,
00000010
00001000
00000010
00000000
00100000
00001000
00100000
00000000
,
01000000
00100000
01000000
00000000
10000000
00100000
10000000
00000000
,
00001000
00100000
01000000
00000000
10000000
00100000
00001000
00000000
,
00000100
00000010
00000001
00000000
00000100
00000010
00000001
00000000
,
00001000
00010000
01000000
00000000
00100000
01000000
10000000
00000000
,
00100000
00100000
01000000
00000000
00001000
00001000
00000010
00000000
,
00101000
00001001
00001100
10100000
,
00011000
00000000
00011000
00000000
00001000
00000100
00000010
00000000
,
00000100
00000001
00000010
00000000
00000100
00010000
00001000
00000000
,
00100000
01000000
10000000
00000000
00100000
01000000
00010000
00000000
,
10000000
10010000
01000000
01001000
,
00001100
00000000
00110000
00000000
01000000
10000000
00100000
00000000
,
00010000
00001000
00000100
00000000
00000001
00000010
00001000
00000000
,
01000000
00100000
01000000
00000000
00001000
01000000
00001000
00000000
,
10100000
00011000
00010010
00000011
,
00001100
00000000
00010010
00000000
00010000
00100000
01000000
00000000
,
00100000
10000000
01000000
00000000
00100000
00001000
00010000
00000000
,
00000100
00000010
00000001
00000000
00000100
00000010
00001000
00000000
,
00000001
00001001
00000010
00010010
,
00110000
00000000
00001100
00000000
00000010
00000001
00000100
00000000
,
00001000
00010000
00100000
00000000
10000000
01000000
00010000
00000000
,
00000010
00000100
00000010
00000000
00010000
00000010
00010000
00000000
,
00000101
00011000
01001000
11000000
,
00110000
00000000
01000000
00100000
00000000
00100000
00000000
00000000
,
20000000
00000000
00000000
02000000
00000000
00000000
33000000
00000000
,
00100000
00000000
00001000
00010000
00000000
00000010
00000000
00000100
,
00000000
00000001
00000000
00000100
00000000
00000010
00000000
00000010
,
00001000
00000000
00000010
00000100
00000000
00000100
00000000
00000000
,
00000002
00000000
00000000
00000020
00000000
00000000
00000033
00000000
,
00000100
00000000
00010000
00001000
00000000
01000000
00000000
00100000
,
00000000
10000000
00000000
00100000
00000000
01000000
00000000
01000000
,
00002000
00000000
00010000
00020000
00000000
00000000
00033000
00000000
;

//---------------dance-double - ----------------
#NOTES:
     dance-double:
     :
     Hard:
     8:
     0.505891,0.531305,0.152311,0.057117,0.095195,372.000000,356.000000,16.000000,6.000000,0.000000,0.000000,0.505891,0.531305,0.152311,0.057117,0.095195,372.000000,356.000000,16.000000,6.000000,0.000000,0.000000:
// measure 0
00000000
00000000
00000000
00000000
,  // measure 1
00000000
00000000
00000000
00000000
,  // measure 2
00000000
00000000
00000000
00000000
,  // measure 3
00000000
00000000
00000000
00000000
,  // measure 4
00000000
00000000
00000000
00000000
,  // measure 5
00000000
00000000
00000000
00000000
,  // measure 6
00110000
00000000
01000000
00000000
00001000
00100000
00010000
00000000
,  // measure 7
00000010
00000001
00000100
00000000
00000010
00010000
00001000
00100000
,  // measure 8
00010000
00000000
01000000
00000000
00100000
10000000
01000000
00000000
,  // measure 9
00100000
00010000
00000000
01000000
00000000
00001000
00000000
00010000
,  // measure 10
00001100
00000000
00000100
00000100
00000010
00000001
00000100
00000000
,  // measure 11
00000010
00000000
00001000
00000000
00000100
00000000
00010000
00000000
00000010
00000000
00000000
00000010
00000000
00000000
00010000
00000000
,  // measure 12
00001000
01000000
00100000
00000000
10000000
01000000
00010000
00000000
,  // measure 13
00000100
00000000
00001000
00000000
00000010
00000000
00000100
00000000
00000001
00000000
00000000
00000001
00000000
00000000
00000100
00000000
,  // measure 14
00001000
00100000
01000000
00000000
10000000
00010000
10000000
00000000
,  // measure 15
00100000
00000000
00010000
00000000
00001000
00000000
00000000
00000000
00000010
00000000
00000000
00000010
00000000
00000000
00000001
00000000
,  // measure 16
00000100
00001000
00010000
00000000
01000000
00100000
00010000
00000000
,  // measure 17
02200000
00000000
00000000
00000000
00300000
00000000
00000000
00000000
00100000
00000000
00000000
00100000
03000000
00000000
00010000
00000000
,  // measure 18
01000000
00000000
00100000
00010000
00000000
00000010
00000000
00001000
,  // measure 19
00000000
00000000
00000100
00000000
00000000
00000000
00000010
00000000
00000100
00000000
00000000
00000100
00000000
00000000
00010000
00000000
,  // measure 20
00100000
00000000
01000000
00010000
00000000
10000000
00000000
00100000
,  // measure 21
00000000
00000000
01000000
00000000
00000000
00000000
00010000
00000000
00100000
00000000
00000000
00100000
00000000
00000000
00001000
00000000
,  // measure 22
00100000
00000000
00100000
00001000
00000000
00000100
00000000
00000001
,  // measure 23
00000000
00000000
00000010
00000000
00000000
00000000
00000100
00000000
00001000
00000000
00000000
00000010
00000000
00000000
00000100
00000000
,  // measure 24
00000001
00000000
00000010
00000110
00000000
00000100
00000000
00010000
,  // measure 25
00022000
00000000
00000000
00000000
00030000
00000000
01000000
00000000
00100000
00000000
00000000
00100000
00003000
00000000
10000000
00000000
,  // measure 26
00010000
00100000
01000000
00100000
00010000
01000000
00100000
10000000
,  // measure 27
01000000
10000000
00100000
01000000
00001000
00100000
00000010
00000100
,  // measure 28
00000001
00000010
00000100
00001000
00000010
00010000
01000000
10000000
,  // measure 29
00100000
01000000
00001000
00000010
00000001
00000100
00000010
00000010
,  // measure 30
00001000
00000100
00000010
00000100
00001000
00000010
00000100
00000001
,  // measure 31
00000010
00000001
00000100
00000010
00010000
00000100
01000000
00100000
,  // measure 32
10000000
01000000
00100000
00010000
01000000
00001000
00000010
00000001
,  // measure 33
00000101
00010010
00101000
01001000
,  // measure 34
00011000
00000000
00010000
00000010
00000100
00000001
00000010
00000100
,  // measure 35
00001000
00000000
00000010
00000000
00010000
00000000
00000001
00000000
00000100
00000000
00000100
00010000
00000000
10000000
00100000
00000000
,  // measure 36
10000000
10000000
01000000
00100000
00010000
01000000
00001000
00000010
,  // measure 37
00000001
00000000
00001000
00000000
00000100
00000000
01000000
00000000
00001000
00000000
00010000
00000100
00000000
00000010
00000001
00000000
,  // measure 38
00000011
00000000
00000001
00000100
00000010
00000010
00001000
00000100
,  // measure 39
00010000
00000000
00001000
00000000
01000000
00000000
00100000
00000000
10000000
00000000
01000000
10000000
00000000
10000000
00100000
00000000
,  // measure 40
01000000
00010000
00000010
00000100
00001000
00000010
00000100
00000001
,  // measure 41
00000010
00000010
00000100
00000100
01000000
00001000
00100000
00100000
,  // measure 42
00101000
00000000
00001000
01000000
00100000
10000000
01000000
00100000
,  // measure 43
00010000
00000000
01000000
00000000
00001000
00000000
10000000
00000000
00100000
00000000
00100000
00001000
00000000
00001000
00000001
00000000
,  // measure 44
00000001
00000001
00000010
00000100
00001000
00000010
00010000
01000000
,  // measure 45
10000000
00000000
00010000
00000000
00100000
00000000
00000010
00000000
00010000
00000000
00001000
00100000
00000000
01000000
10000000
00000000
,  // measure 46
11000000
00000000
10000000
00100000
01000000
01000000
00010000
00100000
,  // measure 47
00001000
00000000
00010000
00000000
00000010
00000000
00000100
00000000
00000001
00000000
00000010
00000001
00000000
00000001
00000100
00000000
,  // measure 48
00000010
00001000
01000000
00100000
00010000
01000000
00100000
10000000
,  // measure 49
01000000
01000000
00100000
00100000
00010000
01000000
00001000
00001000
,  // measure 50
00011000
00000000
00001000
01000000
00100000
10000000
01000000
00010000
,  // measure 51
00000010
00000100
00000001
00001000
00000010
00010000
00001000
00001000
,  // measure 52
00100000
01000000
10000000
00010000
01000000
00100000
10000000
10000000
,  // measure 53
01000000
10000000
00000000
00010000
00000000
00100000
00000000
00100000
,  // measure 54
00101000
00000000
00010000
00000100
00000010
00000001
00001000
00000010
,  // measure 55
00010000
00001000
00100000
00010000
01000000
00010000
00100000
01000000
,  // measure 56
10000000
00100000
01000000
00010000
00000010
00000001
00000100
00000010
,  // measure 57
00000000
00010000
00000000
01000000
00000000
00100000
00000000
00001000
,  // measure 58
02002000
00000000
00000000
03003000
;
