#TITLE:Aegis;
#SUBTITLE:;
#ARTIST:IT medalion;
#TITLETRANSLIT:;
#SUBTITLETRANSLIT:;
#ARTISTTRANSLIT:;
#GENRE:;
#CREDIT:Akihiro;
#BANNER:[Drop the Zero] - Aegis.png;
#BACKGROUND:[Drop the Zero] - Aegis-bg.png;
#LYRICSPATH:;
#CDTITLE:[Drop the Zero] - Aegis-cdtitle.png;
#MUSIC:[Drop the Zero] - Aegis.mp3;
#OFFSET:-0.410000;
#SAMPLESTART:18.188000;
#SAMPLELENGTH:11.852000;
#SELECTABLE:YES;
#DISPLAYBPM:162.000000;
#BPMS:0.000000=162.000000
;
#STOPS:
;
#BGCHANGES:;
#KEYSOUNDS:;
#ATTACKS:;

//---------------dance-single - ----------------
#NOTES:
     dance-single:
     :
     Beginner:
     1:
     0.112061,0.125970,0.000000,0.000000,0.000000,85.000000,0.000000,0.000000,0.000000,0.000000,0.000000,0.112061,0.125970,0.000000,0.000000,0.000000,85.000000,0.000000,0.000000,0.000000,0.000000,0.000000:
// measure 0
0000
0000
0000
0000
,  // measure 1
0000
0000
0000
0000
,  // measure 2
0000
0000
0000
0000
,  // measure 3
0000
0000
0000
0000
,  // measure 4
1000
0000
0000
0000
,  // measure 5
0001
0000
0000
0000
,  // measure 6
0001
0000
0000
0000
,  // measure 7
1000
0000
0000
0000
,  // measure 8
0100
0000
0000
0000
,  // measure 9
0100
0000
0000
0000
,  // measure 10
0010
0000
0010
0000
,  // measure 11
0010
0000
0000
0000
,  // measure 12
0001
0000
0000
0000
,  // measure 13
1000
0000
0000
0000
,  // measure 14
1000
0000
0000
0000
,  // measure 15
0001
0000
0000
0000
,  // measure 16
0100
0000
0000
0000
,  // measure 17
0100
0000
0000
0000
,  // measure 18
0010
0000
0010
0000
,  // measure 19
0010
0000
0000
0000
,  // measure 20
1000
0000
1000
0000
,  // measure 21
1000
0000
1000
0000
,  // measure 22
0001
0000
0001
0000
,  // measure 23
0001
0000
0001
0000
,  // measure 24
0010
0000
0010
0000
,  // measure 25
0010
0000
0010
0000
,  // measure 26
0100
0000
0100
0000
,  // measure 27
0100
0000
0100
0000
,  // measure 28
0000
1000
0000
0000
,  // measure 29
0000
0001
0000
0100
,  // measure 30
0000
0010
0000
0000
,  // measure 31
0000
1000
0000
0100
,  // measure 32
0000
0010
0000
0000
,  // measure 33
0000
0001
0000
0100
,  // measure 34
0000
0010
0000
0000
,  // measure 35
0000
1000
0000
0100
,  // measure 36
0000
0010
0000
0000
,  // measure 37
0000
0001
0000
1000
,  // measure 38
0000
0001
0000
0000
,  // measure 39
0000
1000
0000
0001
,  // measure 40
0000
1000
0000
0000
,  // measure 41
0000
0001
0000
0010
,  // measure 42
0000
0001
0000
1000
,  // measure 43
0000
1000
0000
0000
,  // measure 44
0000
0100
0000
0000
,  // measure 45
0000
0000
0000
0000
,  // measure 46
0000
0000
0000
0000
,  // measure 47
0000
0000
0000
0000
,  // measure 48
0000
0010
0000
0000
,  // measure 49
0000
0001
0000
0000
,  // measure 50
0000
1000
0000
0000
,  // measure 51
0000
0100
0000
0000
,  // measure 52
0000
0000
0000
0010
,  // measure 53
0000
0000
0000
0100
,  // measure 54
0000
0000
0000
1000
,  // measure 55
0000
0000
0000
0001
,  // measure 56
0000
0000
0000
1000
,  // measure 57
0000
0000
0000
0010
,  // measure 58
0000
0000
0000
0100
,  // measure 59
0000
0000
0000
0001
,  // measure 60
0000
0000
0000
1000
,  // measure 61
0000
0000
0000
0001
,  // measure 62
0000
0100
0000
0010
,  // measure 63
0000
0000
0000
1000
,  // measure 64
0000
0100
0000
0010
,  // measure 65
0000
0000
0000
0001
,  // measure 66
0000
1000
0000
0010
,  // measure 67
0000
0100
0000
0001
,  // measure 68
1000
0001
0000
0000
;

//---------------dance-single - ----------------
#NOTES:
     dance-single:
     :
     Easy:
     2:
     0.216213,0.220448,0.036914,0.110743,0.000000,148.000000,4.000000,12.000000,0.000000,0.000000,0.000000,0.216213,0.220448,0.036914,0.110743,0.000000,148.000000,4.000000,12.000000,0.000000,0.000000,0.000000:
0000
0000
0000
0000
,
0000
0000
0000
0000
,
0000
0000
0000
0000
,
0000
0000
0000
0000
,
1000
0000
1000
0000
,
0001
0000
0001
0000
,
1000
0000
1000
0000
,
0010
0010
0010
0000
,
1000
0000
1000
0000
,
0001
0000
0001
0000
,
1001
0000
1001
0000
,
0100
0100
0100
0000
,
1000
0001
1000
0000
,
0100
0000
0100
0000
,
0001
1000
0001
0000
,
0010
0000
0010
0000
,
1000
0100
1000
0000
,
0010
0000
0010
0000
,
0001
0100
0001
0000
,
0110
0000
1001
0000
,
1000
0010
1000
0000
,
0001
0000
1000
0000
,
0001
0010
0001
0000
,
1000
0000
0100
0000
,
0001
1000
0001
0000
,
1000
0000
0001
0000
,
0100
0010
0100
0000
,
0010
0000
1000
0000
,
0000
0001
0000
0010
,
0000
0100
0000
1000
,
0001
1000
0000
0100
,
0000
0010
0000
0001
,
0100
1000
0000
0100
,
0000
0010
0000
0001
,
0000
0010
0000
0100
,
0000
1000
0001
1000
,
0000
0001
0001
0001
,
0000
1000
0000
0001
,
0000
0100
0100
0100
,
0000
1000
0000
0001
,
0000
0100
0100
0100
,
0000
0010
0000
0001
,
0000
1000
1000
1000
,
0000
0001
0001
0001
,
0000
0020
0000
0000
,
0030
0200
0000
0000
,
0300
0020
0000
0000
,
0030
0002
0000
0000
,
0003
1000
1000
1000
,
1000
0001
0001
0001
,
0001
0010
0010
0010
,
0010
0100
0000
0000
,
0000
0000
0000
2000
,
0000
0000
3010
0002
,
0000
0000
0003
2000
,
0000
0000
3100
0002
,
0000
0000
0003
2000
,
0000
0000
3010
0002
,
0000
0000
0003
2000
,
0000
0000
3100
0002
,
0000
0000
0003
1000
,
0001
1000
0000
0100
,
0000
0100
0000
0001
,
1000
0001
0000
0010
,
0000
0010
0000
1000
,
0100
0001
0000
0010
,
0000
0010
0000
0001
,
0100
1000
0000
1000
,
0010
0001
0000
0000
,
0000
0000
0000
0000
,
0000
0000
0000
0000
,
0000
0000
0000
0000
,
0000
0000
0000
0000
;

//---------------dance-single - ----------------
#NOTES:
     dance-single:
     :
     Medium:
     6:
     0.398147,0.411652,0.129200,0.083057,0.083057,279.000000,14.000000,9.000000,0.000000,0.000000,0.000000,0.398147,0.411652,0.129200,0.083057,0.083057,279.000000,14.000000,9.000000,0.000000,0.000000,0.000000:
0000
0000
0000
0000
,
0000
0000
0000
0000
,
0000
0000
0000
0000
,
0000
0000
0000
0000
,
1000
0100
1000
0010
,
0100
0000
0000
0000
0001
0000
0000
0000
0010
0000
0000
0100
0000
0000
1000
0000
,
0001
0010
0001
0100
,
0010
0000
0000
0000
1000
0000
0000
0000
0100
0000
0000
0010
0000
0000
0001
0000
,
1000
0001
0010
0100
,
1000
0000
0000
0000
0001
0000
0000
0000
1000
0000
0000
0010
0000
0000
0100
0000
,
0001
0100
1001
0010
,
1001
0100
0020
0000
,
1030
0000
0001
0000
1000
0100
1000
0000
,
0001
0000
0000
0000
0001
0000
0000
0000
0100
0000
0000
0100
0000
0000
0000
0000
,
0001
0000
1000
0000
0001
0100
0001
0000
,
1000
0000
0000
0000
1000
0000
0000
0000
0010
0000
0000
0010
0000
0000
0000
0000
,
0001
0000
0001
0000
0010
0100
0010
0000
,
1000
0000
1000
0000
0001
0000
0100
0001
,
1000
0100
0011
0100
,
1010
0000
0110
0000
0001
1000
0001
1000
,
0001
0000
0010
0000
0100
0000
1000
0001
,
1000
0100
0010
0001
,
1000
0000
0100
0000
0010
0000
0001
1000
,
0001
0000
0010
0000
0100
0000
1000
0001
,
0100
0000
0010
0000
0100
0000
0001
1000
,
0100
0010
0001
1000
,
1001
0010
0100
1000
,
0001
0010
0100
1000
0001
0000
0110
0000
,
0000
1001
0100
1000
,
0010
0000
0100
0000
0001
0000
1000
0100
,
1000
1001
0010
0001
,
0100
0000
0000
0000
0010
0000
0000
0000
1000
0000
0000
0000
0001
0000
0000
0100
,
0000
0001
1000
0000
0100
0000
0010
0000
,
0001
0000
0000
0000
0001
0000
0000
0000
0010
0000
0000
0000
0100
0000
0000
1000
,
0000
0001
0100
0000
0100
0000
0010
0000
,
0010
1001
0010
0110
,
0000
0000
0000
0000
0001
0000
0000
1000
0000
0000
0001
0000
0000
0000
0001
0000
,
0100
0000
0000
0000
0010
0000
0000
1000
0000
0000
0001
0000
1000
0000
0000
0000
,
0001
0000
0000
0000
1000
0000
0000
0001
0000
0000
1000
0000
0000
0000
1000
0000
,
0010
0000
0000
0000
0100
0000
0000
0001
0000
0000
1000
0000
0001
0000
0000
0000
,
1000
0000
0000
0000
0001
0000
0000
1000
0000
0000
0010
0000
0000
0000
1000
0000
,
0000
0000
0001
0000
0010
0000
0000
0100
0000
0000
1000
0000
0001
0000
0000
0000
,
0010
1001
0100
1001
,
0010
0000
1000
0001
1000
0001
1000
0000
,
0000
2000
0000
0000
,
0000
3002
0000
0000
,
0000
0203
0000
0000
,
0000
0320
0000
0000
,
0000
1030
0001
1000
,
0001
0010
0100
0010
,
0100
1000
0010
0100
,
0001
0000
1000
0001
1000
0001
1000
0000
,
0000
0000
0000
0002
,
0010
0100
1003
0010
,
0100
0000
0000
0000
0001
0000
0000
1000
0000
0000
0001
0000
2000
0000
0000
0000
,
0100
0010
3001
0100
,
0001
0000
1000
0010
0100
0010
2000
0000
,
0001
0010
3100
1000
,
0001
0000
0000
0000
1000
0000
0000
0100
0000
0000
0010
0000
0002
0000
0000
0000
,
1000
0100
0013
0001
,
1000
0000
0000
0000
0010
0000
0000
0100
0000
0000
0000
0000
0001
0000
0000
0000
,
0001
0000
0010
0100
1000
0000
0001
0000
,
0100
0000
0000
0000
0001
0000
0000
0010
0000
0000
0000
0000
1000
0000
0000
0000
,
1000
0000
0010
0100
0001
0000
1000
0000
,
0010
0000
1000
0001
0000
0100
0001
0000
,
1000
0000
0001
0010
0001
0000
0010
0000
,
0100
0000
0000
0000
1000
0000
0000
0010
0000
0000
0100
0000
0001
0000
0000
0000
,
0010
1100
0001
1000
,
0001
0000
1000
0100
0010
0001
0000
0000
,
0000
0000
0000
0000
,
0000
0000
0000
0000
,
0000
0000
0000
0000
,
0000
0000
0000
0000
;

//---------------dance-single - ----------------
#NOTES:
     dance-single:
     :
     Hard:
     9:
     0.692144,0.697277,0.276857,0.046143,0.562944,490.000000,30.000000,5.000000,0.000000,0.000000,0.000000,0.692144,0.697277,0.276857,0.046143,0.562944,490.000000,30.000000,5.000000,0.000000,0.000000,0.000000:
0000
0000
0000
0000
,
0000
0000
0000
0000
,
0000
0000
0000
0000
,
0000
0000
0000
0000
,
0001
0000
0000
1000
0000
0000
0001
0000
0100
0000
0010
0000
1000
0000
0001
0010
,
0100
0000
0000
0001
0000
0000
0100
0000
1000
0000
0000
0001
0000
0000
0100
0000
,
1000
0000
0000
0001
0000
0000
1000
0000
0100
0000
0001
0000
0010
0000
0100
1000
,
0001
0000
0000
0010
0000
0000
0100
0000
1000
0000
0000
1000
0000
0000
0010
0000
,
1000
0000
0000
0001
0000
0000
1000
0000
0010
0000
0100
0000
0001
0000
1000
0100
,
0010
0000
0000
1000
0000
0000
0010
0000
0001
0000
0000
1000
0000
0000
0010
0000
,
0110
0000
0000
0100
0000
0000
0001
0000
0011
0000
0000
0010
0000
0000
0100
0000
,
1100
0000
1000
0000
0010
0000
0100
0000
0001
1000
0001
1000
0001
0000
0000
0000
,
0010
0000
0100
0000
1000
0000
0010
0000
0100
0000
0000
0100
0000
0000
0001
0000
,
0000
0000
0001
0000
0010
0000
0100
0000
1000
0000
0000
0001
1000
0000
1000
0000
,
0100
0000
0010
0000
0001
0000
0100
0000
0010
0000
0000
0010
0000
0000
1000
0000
,
0000
0000
1000
0000
0100
0000
0010
0000
1001
0000
0000
1001
0000
0000
0000
0000
,
0010
0000
0100
0000
1000
0000
0010
0000
0100
0000
0000
0100
0000
0000
0001
0000
,
0000
0000
0001
0000
0010
0000
0100
0000
1000
0000
0000
0001
0100
0000
0010
0000
,
1001
1000
0100
0000
1001
0001
0100
0000
,
1100
0000
0101
0000
0011
0010
0100
1000
,
0001
0100
0001
0000
1000
0000
0100
0000
1000
0000
0010
0000
0100
0000
0010
0000
,
1000
0100
1000
0000
0001
0000
0100
0000
0001
0000
0010
0000
0100
0000
0010
0000
,
0001
0010
0001
0000
1000
0000
0010
0000
1000
0000
0100
0000
0010
0000
0100
0000
,
1000
0010
1000
0000
0001
0000
0010
0000
0001
0000
0100
0000
0010
0000
1000
0000
,
0001
0100
0001
0000
1000
0100
1000
0000
0001
0000
0010
0000
0100
0000
1000
0000
,
0001
0010
0001
0000
1000
0010
1000
0000
0001
0000
0100
0000
0010
0000
1000
0000
,
0001
0010
0001
0000
1000
0100
1000
0000
0001
0100
0001
0000
1000
0010
1000
0000
,
0001
0000
0100
0000
0010
0000
1000
0000
0001
0010
0100
1000
0002
0000
0000
0000
,
0000
0000
0003
0000
1000
0001
0000
0001
0100
0000
0010
0000
1000
0001
0000
0001
,
0010
0100
1000
0010
0001
0000
1001
0010
,
0100
0000
1000
0000
0001
1000
0000
1000
0100
0000
0010
0000
0001
1000
0000
1000
,
0010
0000
0100
0000
1000
0000
0100
0000
0001
0000
0000
0000
1001
0000
0000
0011
,
0000
0000
0100
0000
1000
0001
0000
0001
0100
0000
0010
0000
1000
0001
0000
0001
,
0010
0000
0100
0000
1000
0000
0010
0000
1000
0001
1000
0001
0100
0000
0000
0001
,
0000
0000
0010
0000
0100
1000
0000
1000
0001
0000
0010
0000
0100
1000
0000
1000
,
0010
0000
0100
0000
0001
0000
0010
0000
0100
0000
1000
0000
0001
0100
0010
1000
,
0001
0000
0000
0000
1100
0000
0000
0101
0000
0000
1000
0000
0100
0000
0010
0000
,
0001
0000
1000
0010
0100
0000
0000
1000
0000
0000
0100
0000
0001
0000
0000
1000
,
0000
0000
0100
0000
0011
0000
0000
1010
0000
0000
0001
0000
0100
0000
1000
0000
,
0010
0000
0100
0001
1000
0000
0000
0010
0000
0000
0100
0000
1001
0000
0000
1001
,
0000
0000
0010
0000
0101
0000
0000
1100
0000
0000
0001
0000
0010
0000
0100
0000
,
1000
0000
0001
0100
0010
0000
0000
0001
0000
0000
0010
0000
1000
0000
0000
0001
,
0000
0000
0010
0000
0110
0000
0000
0100
1000
0000
1000
0000
1010
0000
0000
0010
,
0100
0000
0100
0000
0101
0000
0001
0000
0010
0000
0100
0000
1000
0001
1000
0001
,
1000
0001
0010
0100
2000
0000
0000
0000
0000
0000
0000
0000
0000
0000
0000
0000
,
0000
0020
0000
0000
,
3000
0200
0000
0000
,
0030
0002
0000
0000
,
0300
1003
0100
0010
,
0001
1000
0010
0100
,
0001
0010
1000
0000
0100
0000
0010
0000
,
0001
0000
0000
0000
1000
0000
0001
0000
1000
0000
0001
0000
0010
0100
1000
0001
,
0010
0100
1000
0001
0000
0000
0000
0000
0000
0000
0000
0000
0001
0000
0000
1000
,
0100
0000
0001
0000
0100
0000
0000
1000
0100
0000
0001
0000
0100
1000
0010
0100
,
0001
0000
1000
0000
0100
0000
0000
0010
0000
0000
0001
0000
1000
0000
0000
0010
,
0001
0000
0010
0000
1000
0000
0000
0010
0001
0000
0010
0000
0100
0001
0010
0100
,
1000
0000
0001
0000
1000
0000
0010
0000
0100
0000
0010
0000
0100
0000
0000
0001
,
0010
0000
1000
0000
0010
0000
0000
0001
0100
0000
1000
0000
0100
0000
0000
0001
,
0010
0000
0100
0000
1000
0000
0000
0001
0000
0000
1000
0000
0100
0000
0000
0100
,
0001
0000
1000
0000
0010
0000
0000
0010
0001
0000
1000
0000
0001
0100
0001
0100
,
0010
1000
0010
1000
0100
0010
0001
1000
0000
0000
0000
0000
0001
0000
0000
0001
,
0100
0000
0010
0000
1000
0000
0001
0000
1000
0010
0100
0010
0100
0000
0000
0100
,
0001
0000
0010
0000
0110
0000
0000
1001
0000
0000
0000
0000
1000
0000
0000
1000
,
0010
0000
0100
0000
0001
0000
1000
0000
0001
0100
0010
0100
0010
0000
0000
0010
,
1000
0000
0100
0000
0110
0000
1001
0000
0000
0000
1000
0001
0100
0000
0000
0010
,
1000
0000
0001
0000
0010
0000
0100
0000
1000
0100
0001
0100
1000
0000
0000
0010
,
0001
0000
0010
0000
1000
0000
0000
0001
0100
0000
0010
0000
1001
0000
0000
0001
,
0010
0000
0100
0000
1001
0000
0000
0001
0010
0000
1000
0000
0010
0000
0001
0000
,
0010
0000
0100
0000
1000
0010
0100
0010
0001
0010
0100
1000
0000
0000
0000
0000
,
0000
0000
0000
0000
,
0000
0000
0000
0000
,
0000
0000
0000
0000
,
0000
0000
0000
0000
;
