#VERSION:0.82;
#TITLE:A Sky Full of Stars;
#SUBTITLE:;
#ARTIST:Coldplay;
#TITLETRANSLIT:;
#SUBTITLETRANSLIT:;
#ARTISTTRANSLIT:;
#GENRE:Dance;
#ORIGIN:;
#CREDIT:;
#BANNER:A Sky Full of Stars.png;
#BACKGROUND:A Sky Full of Stars-bg.png;
#PREVIEWVID:;
#JACKET:A Sky Full of Stars-jacket.png;
#CDIMAGE:;
#DISCIMAGE:;
#LYRICSPATH:;
#CDTITLE:;
#MUSIC:A Sky Full of Stars.mp3;
#OFFSET:-0.453325;
#SAMPLESTART:0.020000;
#SAMPLELENGTH:15.000000;
#SELECTABLE:YES;
#BPMS:0.000=125.000;
#STOPS:;
#DELAYS:;
#WARPS:;
#TIMESIGNATURES:0.000=4=4;
#TICKCOUNTS:0.000=4;
#COMBOS:0.000=1;
#SPEEDS:0.000=1.000=0.000=0;
#SCROLLS:0.000=1.000;
#FAKES:;
#LABELS:0.000=Song Start;
#BGCHANGES:-0.500=A Sky Full of Stars.avi=1.000=0=0=0=StretchNoLoop====,
99999=-nosongbg-=1.000=0=0=0 // don't automatically add -songbackground-
;
#KEYSOUNDS:;
#ATTACKS:
;

//---------------dance-single - ----------------
#NOTEDATA:;
#CHARTNAME:;
#STEPSTYPE:dance-single;
#DESCRIPTION:;
#CHARTSTYLE:;
#DIFFICULTY:Hard;
#METER:7;
#RADARVALUES:0.389333,0.456335,0.274646,0.380279,0.109154,294.000000,39.000000,54.000000,0.000000,0.000000,0.000000,0.000000,0.000000,0.389333,0.456335,0.274646,0.380279,0.109154,294.000000,39.000000,54.000000,0.000000,0.000000,0.000000,0.000000,0.000000;
#CREDIT:;
#NOTES:
0000
0000
0000
0000
,
0000
0000
0000
0000
,
0000
0000
0000
0000
,
0000
0000
0000
0000
,
2000
0000
0000
0200
0000
0000
3300
0000
,
0002
0000
0000
0020
0000
0000
0033
0000
,
0200
0000
0000
0020
0000
0000
0330
0000
,
0002
0000
0000
2000
0003
0000
3010
0000
,
0200
0000
0000
0002
0300
0000
0103
0000
,
0020
0000
0000
0200
0030
0000
0301
0000
,
0020
0000
0000
0200
0030
0000
0310
0000
,
0002
0000
0000
2000
0003
0000
3010
0000
,
2000
0000
0000
0002
3000
0000
1003
0000
,
0200
0000
0000
0020
0300
0000
0130
0000
,
2000
0000
0000
0200
3000
0000
1300
0000
,
0002
0000
0000
0200
0003
0000
0301
0000
,
2000
0100
0001
3010
,
1002
0100
1000
0013
,
2001
0100
0010
3002
,
0010
1000
0100
1003
,
0020
0001
0100
1030
,
0200
0001
0010
1300
,
0002
0100
1000
0103
,
2000
0100
0001
3010
,
1001
0000
0000
1000
0000
0000
1000
0000
0000
0000
0100
0000
0000
0000
0000
0000
,
0001
0000
0000
0001
0000
0000
0001
0000
0000
0000
0010
0000
0000
0000
0000
0000
,
0100
0000
0000
0100
0000
0000
0100
0000
0000
0000
0010
0000
0000
0000
0000
0000
,
0001
0000
0000
0001
0000
0000
0001
0000
0000
0000
0100
0000
0000
0000
0100
0000
,
0010
0000
0000
0010
0000
0000
0010
0000
0000
0000
0100
0000
0000
0000
0010
0000
,
1000
0000
0000
1000
0000
0000
1000
0000
0000
0000
0001
0000
0000
0000
0001
0000
,
0100
0000
0000
0100
0000
0000
0100
0000
0000
0000
0010
0000
0000
0000
1000
0000
,
0001
0000
0000
0001
0000
0000
0001
0000
0000
0000
1000
0000
0000
0000
0100
0000
,
0010
0000
0000
0010
0000
0000
0110
0000
0000
0000
0100
0000
0010
0000
0001
0000
,
0011
0000
0000
0011
0000
0000
0011
0000
0000
0000
0001
0000
0100
0000
0010
0000
,
1010
0000
0000
1010
0000
0000
1010
0000
0000
0000
0001
0000
0010
0000
0100
0000
,
1100
0000
0000
1100
0000
0000
1100
0000
1000
0000
0010
0000
0100
0000
0000
0000
,
0110
0000
0000
0110
0000
0000
0110
0000
0000
0000
1001
0000
0000
0000
1000
0000
,
1010
0000
0000
1010
0000
0000
1010
0000
0000
0000
1001
0000
0000
0000
0100
0000
,
0101
0000
0000
0101
0000
0000
0101
0000
0000
0000
0011
0000
0000
0000
0100
0000
,
1000
0000
0000
1000
0100
0000
0010
0000
1000
0000
0010
0000
0001
0000
0100
0000
,
0110
0000
0000
0010
0000
0000
1000
0000
0010
0000
0100
0000
0001
0000
0100
0000
,
0010
0000
0000
0010
0000
0000
0100
0000
0001
0000
1000
0000
0100
0000
1000
0000
,
0001
0000
0000
0001
0000
0000
1000
0000
0100
0000
0010
0000
0001
0000
0010
0000
,
0100
0000
0000
0100
0000
0000
1000
0000
0010
0000
0100
0000
0001
0000
1000
0000
,
1001
0000
0000
0001
0000
0000
1000
0000
0100
0000
0001
0000
0100
0000
1000
0000
,
0010
0000
0000
0010
0000
0000
1000
0000
0010
0000
0100
0000
0010
0000
1000
0000
,
0001
0000
0000
0001
0000
0000
0010
0000
1000
0000
0010
0000
0001
0000
1000
0000
,
0010
0000
0000
0010
0000
0000
0100
0000
0001
0000
0100
0000
0010
0000
1000
0000
,
0001
0000
0000
0001
1000
0000
1000
0000
0010
0000
0000
0000
1001
0000
0000
0000
,
1000
0000
0000
1000
0100
0000
0100
0000
0010
0000
0000
0000
1100
0000
0000
0000
,
0001
0000
0000
0001
0100
0000
0100
0000
0010
0000
0000
0000
0101
0000
0000
0000
,
1000
0000
0000
1000
0010
0000
0010
0000
0100
0000
0000
0000
0110
0000
0000
0000
,
1000
0000
0000
0001
0100
0000
0000
0000
0001
0000
0100
0000
0010
0000
0000
0000
,
1010
0000
0000
1000
0001
0000
0000
0000
0010
0000
0100
0000
1000
0000
0000
0000
,
0011
0000
0000
0001
1000
0000
0000
0000
0010
0000
0100
0000
0010
0000
0000
0000
,
1010
0100
0011
0100
,
0020
1000
0100
0031
,
0200
1000
0010
0301
,
0100
1010
0100
0011
,
1000
0101
0010
1001
,
0100
2000
3020
0230
,
0300
0002
2003
3200
,
0300
2000
3002
0023
,
0030
0002
0203
0320
,
2030
0000
0001
0000
,
3020
0000
1000
0000
,
0230
0000
0001
0000
,
0000
0000
0020
0030
,
0302
0000
1000
0000
,
0023
0000
0001
0000
,
0230
0000
1000
0000
,
0000
0000
0020
0000
,
0330
0000
0000
0000
;

//---------------dance-single - ----------------
#NOTEDATA:;
#CHARTNAME:;
#STEPSTYPE:dance-single;
#DESCRIPTION:;
#CHARTSTYLE:;
#DIFFICULTY:Medium;
#METER:4;
#RADARVALUES:0.302815,0.329575,0.091549,0.415490,0.000000,229.000000,13.000000,59.000000,0.000000,0.000000,0.000000,0.000000,0.000000,0.302815,0.329575,0.091549,0.415490,0.000000,229.000000,13.000000,59.000000,0.000000,0.000000,0.000000,0.000000,0.000000;
#CREDIT:;
#NOTES:
0000
0000
0000
0000
,
0000
0000
0000
0000
,
0000
0000
0000
0000
,
0000
0000
0000
0000
,
2000
0000
0000
3100
0000
0000
0000
0000
,
0002
0000
0000
0013
0000
0000
0000
0000
,
2000
0000
0000
3010
0000
0000
0000
0000
,
0002
0000
0000
0203
0000
0000
0301
0000
,
2000
0000
0000
3200
0000
0000
1300
0000
,
0002
0000
0000
0023
0000
0000
0031
0000
,
2000
0000
0000
3020
0000
0000
1030
0000
,
0002
0000
0000
0203
0000
0000
0301
0000
,
0020
0000
0000
0032
0000
0000
1003
0000
,
0200
0000
0000
2300
0000
0000
3001
0000
,
0020
0000
0000
0230
0000
0000
0310
0000
,
0002
0000
0000
0203
0000
0000
0301
0000
,
2000
0100
0100
3100
,
0002
0010
0010
0013
,
2000
0010
0010
3010
,
0002
0100
0100
0103
,
2000
0001
0001
3001
,
0200
0010
0010
0310
,
2000
0100
0100
3100
,
0002
0100
0100
0103
,
2000
0000
0000
3100
0000
0000
0010
0000
,
0002
0000
0000
0103
0000
0000
0001
0000
,
2000
0000
0000
3010
0000
0000
1000
0000
,
0002
0000
0000
0013
0000
0000
0010
0000
,
0002
0000
0000
0103
0000
0000
0010
0000
,
2000
0000
0000
3100
0000
0000
1000
0000
,
0002
0000
0000
0013
0000
0000
0001
0000
,
2000
0000
0000
3010
0000
0000
0010
0000
,
2000
0000
0000
3200
0000
0000
1300
0000
,
0002
0000
0000
0023
0000
0000
0031
0000
,
2000
0000
0000
3020
0000
0000
1030
0000
,
0002
0000
0000
0203
0000
0000
0301
0000
,
0020
1000
0100
0031
,
0200
1000
0010
0301
,
1000
0100
0001
0100
,
1000
0000
0010
0100
0010
1000
0001
0000
,
1001
0000
1000
0000
0100
0010
0100
0000
,
1000
0000
0001
0000
0100
0010
0100
0000
,
0001
0000
0010
0000
0100
1000
0100
0000
,
1000
0000
0010
0000
0100
0001
0100
0000
,
0001
0000
1000
0000
0010
0100
0010
0000
,
1000
0000
0001
0000
0010
0100
0010
0000
,
0001
0000
0100
0000
0010
1000
0010
0000
,
1000
0000
0100
0000
1000
0001
1000
0000
,
1010
0000
1000
0010
1000
0000
1001
0000
,
0100
0000
0001
1000
0001
0000
1000
0000
,
0011
0000
0001
0010
0001
0000
0110
0000
,
0010
0000
0100
0010
0100
0000
1001
0000
,
1000
0000
0010
0100
0010
0000
0101
0000
,
0001
0000
0010
0100
0010
0000
1100
0000
,
0001
0000
1000
0010
1000
0000
0101
0000
,
0100
0000
0001
1000
0001
0000
1000
0000
,
0020
0001
0100
1030
,
0200
0001
0010
1300
,
0100
0011
0100
1010
,
0001
1100
0010
1001
,
2000
0000
0001
0000
,
3020
0000
0100
0000
,
2030
0000
0100
0000
,
3002
0000
0010
0000
,
2003
0000
0000
0000
,
3020
0000
0000
0000
,
0230
0000
0000
0000
,
0000
0000
0000
0000
,
0302
0000
0000
0000
,
0023
0000
0000
0000
,
0230
0000
0000
0000
,
0000
0000
0000
0000
,
0300
0000
0000
0000
;

//---------------dance-single - ----------------
#NOTEDATA:;
#CHARTNAME:;
#STEPSTYPE:dance-single;
#DESCRIPTION:;
#CHARTSTYLE:;
#DIFFICULTY:Easy;
#METER:4;
#RADARVALUES:0.245471,0.304223,0.084506,0.154928,0.000000,210.000000,12.000000,22.000000,0.000000,0.000000,0.000000,0.000000,0.000000,0.245471,0.304223,0.084506,0.154928,0.000000,210.000000,12.000000,22.000000,0.000000,0.000000,0.000000,0.000000,0.000000;
#CREDIT:;
#NOTES:
// measure 0
0000
0000
0000
0000
,  // measure 1
0000
0000
0000
0000
,  // measure 2
0000
0000
0000
0000
,  // measure 3
0000
0000
0000
0000
,  // measure 4
2000
0000
0000
3000
0000
0000
0000
0000
,  // measure 5
0020
0000
0000
0030
0000
0000
0000
0000
,  // measure 6
0200
0000
0000
0300
0000
0000
0000
0000
,  // measure 7
0002
0000
0000
0003
0000
0000
0000
0000
,  // measure 8
2000
0000
0000
3000
0000
0000
1000
0000
,  // measure 9
0002
0000
0000
0003
0000
0000
0001
0000
,  // measure 10
0200
0000
0000
0300
0000
0000
0100
0000
,  // measure 11
0020
0000
0000
0030
0000
0000
0010
0000
,  // measure 12
2000
0000
0000
3000
0000
0000
1000
0000
,  // measure 13
0020
0000
0000
0030
0000
0000
0100
0000
,  // measure 14
0002
0000
0000
0003
0000
0000
0001
0000
,  // measure 15
2000
0000
0000
3000
0000
0000
0100
0000
,  // measure 16
0010
0010
0010
0010
,  // measure 17
0001
0001
0001
0001
,  // measure 18
1000
1000
1000
1000
,  // measure 19
0100
0100
0100
0100
,  // measure 20
0001
0001
0001
0001
,  // measure 21
0010
0010
0010
0010
,  // measure 22
0100
0100
0100
0100
,  // measure 23
1000
1000
1000
1000
,  // measure 24
0001
0001
0001
0100
,  // measure 25
0010
0010
0010
0100
,  // measure 26
0001
0001
0001
0010
,  // measure 27
0100
0100
0100
0100
,  // measure 28
1000
1000
1000
0100
,  // measure 29
0010
0010
0010
0001
,  // measure 30
1000
1000
1000
1000
,  // measure 31
0001
0001
0001
0001
,  // measure 32
1000
0100
1000
1000
,  // measure 33
0001
0010
0001
0001
,  // measure 34
1000
0010
1000
1000
,  // measure 35
0001
0100
0001
0001
,  // measure 36
0010
0001
0100
1000
,  // measure 37
0010
1000
0100
0001
,  // measure 38
1000
0100
0001
0100
,  // measure 39
1000
0010
0100
0001
,  // measure 40
1001
1000
0100
0100
,  // measure 41
1000
0001
0100
0100
,  // measure 42
0001
0010
0100
0100
,  // measure 43
1000
0010
0100
0100
,  // measure 44
0001
1000
0010
0010
,  // measure 45
1000
0001
0010
0010
,  // measure 46
0001
0100
0010
0010
,  // measure 47
1000
0100
1000
1000
,  // measure 48
1010
0010
0010
0010
,  // measure 49
0110
0100
0100
0100
,  // measure 50
0101
0001
0001
0001
,  // measure 51
1001
1000
1000
1000
,  // measure 52
0010
0100
0100
0101
,  // measure 53
0001
0010
0010
1100
,  // measure 54
0001
1000
1000
0101
,  // measure 55
0100
0001
0001
1000
,  // measure 56
0010
1000
0100
0001
,  // measure 57
0010
0001
0100
1000
,  // measure 58
0010
0101
0010
1100
,  // measure 59
0001
1010
0100
1001
,  // measure 60
2000
0000
0001
0000
,  // measure 61
3020
0000
0100
0000
,  // measure 62
2030
0000
0100
0000
,  // measure 63
3002
0000
0010
0000
,  // measure 64
2003
0000
0000
0000
,  // measure 65
3020
0000
0000
0000
,  // measure 66
0230
0000
0000
0000
,  // measure 67
0000
0000
0000
0000
,  // measure 68
0302
0000
0000
0000
,  // measure 69
0023
0000
0000
0000
,  // measure 70
0230
0000
0000
0000
,  // measure 71
0000
0000
0000
0000
,  // measure 72
0300
0000
0000
0000
;
