#VERSION:0.82;
#TITLE:Lean On;
#SUBTITLE:;
#ARTIST:Major Lazer & DJ Snake;
#TITLETRANSLIT:;
#SUBTITLETRANSLIT:;
#ARTISTTRANSLIT:;
#GENRE:;
#ORIGIN:;
#CREDIT:;
#BANNER:Lean On.png;
#BACKGROUND:Lean On-bg.png;
#PREVIEWVID:;
#JACKET:Lean On-jacket.png;
#CDIMAGE:;
#DISCIMAGE:;
#LYRICSPATH:;
#CDTITLE:;
#MUSIC:Lean On.mp3;
#OFFSET:-0.278980;
#SAMPLESTART:61.503471;
#SAMPLELENGTH:12.000000;
#SELECTABLE:YES;
#BPMS:0.000=98.000;
#STOPS:;
#DELAYS:;
#WARPS:;
#TIMESIGNATURES:0.000=4=4;
#TICKCOUNTS:0.000=4;
#COMBOS:0.000=1;
#SPEEDS:0.000=1.000=0.000=0;
#SCROLLS:0.000=1.000;
#FAKES:;
#LABELS:0.000=Song Start;
#BGCHANGES:;
#KEYSOUNDS:;
#ATTACKS:
;

//---------------dance-single - ----------------
#NOTEDATA:;
#CHARTNAME:;
#STEPSTYPE:dance-single;
#DESCRIPTION:;
#CHARTSTYLE:;
#DIFFICULTY:Hard;
#METER:8;
#RADARVALUES:0.493292,0.495372,0.343776,0.213905,0.599699,379.000000,45.000000,28.000000,0.000000,0.000000,0.000000,0.000000,0.000000,0.493292,0.495372,0.343776,0.213905,0.599699,379.000000,45.000000,28.000000,0.000000,0.000000,0.000000,0.000000,0.000000;
#CREDIT:;
#NOTES:
// measure 0
0000
0000
0000
0000
,  // measure 1
0000
0000
0000
0000
,  // measure 2
1000
0000
0000
0100
0000
0000
0010
0000
0000
0001
0000
0000
0110
0000
0000
0000
,  // measure 3
0002
0000
0000
0013
0000
0000
2000
0000
0000
3100
0000
0000
1000
0000
0000
0000
,  // measure 4
0000
0000
0000
1000
0100
0001
0100
1000
0000
0000
0000
0001
0010
0001
2000
3100
,  // measure 5
0000
0000
0000
0000
0001
0000
0001
0010
0000
1000
0000
0010
1010
0000
0101
0000
,  // measure 6
0000
0000
0000
0000
0010
0100
0010
0100
0000
0000
0000
1000
0001
0000
0001
1000
,  // measure 7
0000
0000
0000
0000
0001
0000
0010
1000
0000
0000
0010
0000
0001
0000
0100
1000
,  // measure 8
0100
1000
0000
0000
0000
0000
1000
1000
0011
0000
0110
0000
1100
0000
0000
0000
,  // measure 9
0002
0000
0000
0000
0013
0000
0000
0000
0010
0100
1000
0000
1001
0000
0000
0000
,  // measure 10
0000
0000
0000
0000
0001
0010
0001
0100
0000
0000
0000
1000
0100
0000
0001
0010
,  // measure 11
0000
0000
1000
0010
0001
0000
0010
2000
0000
3010
0000
0001
0200
0000
1300
0000
,  // measure 12
0000
0000
0000
0000
1000
0010
1000
0000
0000
0000
0000
0000
0001
0000
0001
0010
,  // measure 13
0000
0000
0010
0100
1000
0000
0000
0002
0000
0013
0000
1000
0010
0001
0010
0000
,  // measure 14
0000
0000
0000
0000
1000
0010
0001
0000
0000
0000
0000
0000
0010
1000
0001
0010
,  // measure 15
0000
0000
1000
0010
1000
0010
0100
0001
0000
0001
0000
0001
0020
0000
1030
0000
,  // measure 16
1000
0000
0000
0010
0000
0000
0001
0000
0010
0000
0000
0100
0000
0000
1000
0100
,  // measure 17
1000
0000
0000
0000
0000
0000
1000
0000
0000
0000
0000
0000
0001
0000
0000
0000
0010
0000
0000
0000
0000
0000
1000
0000
0000
0000
0000
0000
0001
0010
0001
0000
,  // measure 18
1000
0000
0000
0100
0000
0000
0010
0000
0001
0000
0000
0010
0000
0000
1000
1000
,  // measure 19
0001
0010
0001
1000
0100
0010
0001
0020
0000
2030
0000
3010
0001
0000
0010
0000
,  // measure 20
1100
0000
0001
0010
0000
0000
0100
0000
0000
0000
0001
0010
0000
0000
1000
0000
,  // measure 21
0000
0000
0001
0010
0000
0000
2000
0000
3002
0000
0013
0100
0000
0000
1000
0000
,  // measure 22
0000
0000
1000
0100
0000
0000
0001
0000
0000
0000
1000
0100
0000
0000
0010
0000
,  // measure 23
0000
0000
1000
0100
0000
0000
0020
0000
0230
0000
1300
0001
0000
0000
0110
0000
,  // measure 24
0000
0000
0010
0100
0000
0000
1001
0000
0000
0000
0010
0100
0000
0000
0110
0000
,  // measure 25
0000
0000
0010
0100
0000
0000
1010
0000
0101
0000
0100
0010
0000
0000
0110
0000
,  // measure 26
0000
0000
0001
1000
0000
0000
0001
0000
0000
0000
1000
0001
0000
0000
1000
0000
,  // measure 27
0000
0000
0001
1000
0000
0000
0002
0000
0013
0000
1000
0001
0000
0000
1100
0000
,  // measure 28
0000
0000
0000
1000
0100
0010
0001
0010
0000
0000
0000
0010
1000
0010
0100
0001
,  // measure 29
0000
0000
0000
0000
0001
0000
0001
0010
0000
1000
0000
1000
0010
0000
1010
0000
,  // measure 30
0000
0000
0000
0010
0100
0010
0100
1000
0000
0000
0000
0001
0200
0000
0001
0300
,  // measure 31
0000
0000
0000
0000
0001
0000
0001
0010
0000
0000
1000
0100
1000
0000
0010
0001
,  // measure 32
0010
1000
0000
0000
0000
0000
0010
0010
0002
0000
0010
0000
1003
0000
0000
0000
,  // measure 33
2010
0000
0000
0000
3100
0000
0000
1000
0001
0010
0001
0000
1100
0000
0000
0000
,  // measure 34
0000
0000
0000
0000
1001
0001
1000
0001
0000
0000
0000
0100
0010
0000
0010
0100
,  // measure 35
0000
0000
0010
0100
1000
0000
1000
0001
0000
0001
0000
0010
0100
0000
1000
0000
,  // measure 36
0000
0000
0000
0000
0100
0001
0010
0000
0000
0000
0000
0000
1000
0010
1000
0100
,  // measure 37
0000
0000
2000
0000
3010
0000
0000
0101
0000
1010
0000
2000
3010
0002
0013
0000
,  // measure 38
0000
0000
0000
0000
0100
1000
0100
0000
0000
0000
0000
0000
0010
0001
0010
0001
,  // measure 39
0000
0000
1000
0100
0001
0100
1000
1100
0000
1010
0000
1000
0002
0000
0010
0003
,  // measure 40
0100
0000
0000
1100
0000
0000
0001
0000
0101
0000
0000
1100
0000
0000
1000
0001
,  // measure 41
0010
0000
0000
0000
0000
0000
1010
0000
0000
0000
0000
0000
1100
0000
0000
0000
0100
0000
0000
0000
0000
0000
0110
0000
0000
0000
0000
0000
0010
0100
0010
0000
,  // measure 42
2000
0000
0000
3001
0000
0000
1001
0000
0110
0000
0000
1100
0000
0000
0001
1000
,  // measure 43
0100
0010
0100
0010
1000
0001
0010
0100
0000
1000
0000
1100
0010
0010
1000
0000
,  // measure 44
0000
0000
0110
0100
0000
0000
0110
0000
0000
0000
1001
1000
0000
0000
1001
0000
,  // measure 45
0000
0000
0110
0100
0000
0000
2000
0000
3010
0000
1001
0001
0000
0000
0110
0000
,  // measure 46
0000
0000
0002
0010
0000
0000
1003
0000
0000
0000
2000
0010
0000
0000
3001
0000
,  // measure 47
0000
0000
0001
1000
0000
0000
2000
0000
3010
0000
0001
0100
0000
0000
1010
0000
,  // measure 48
0000
0000
1000
0010
0000
0000
1000
0000
0000
0000
0001
0100
0000
0000
0001
0000
,  // measure 49
0000
0000
1000
0010
0000
0000
1100
0000
0011
0000
0001
0010
0000
0000
1100
0000
,  // measure 50
0000
0000
1000
0010
0000
0000
0100
0000
0000
0000
0001
0100
0000
0000
0010
0000
,  // measure 51
1000
0100
1000
0001
0010
0001
1000
0002
0000
0103
0000
1000
0010
0000
1010
0000
;

//---------------dance-single - ----------------
#NOTEDATA:;
#CHARTNAME:;
#STEPSTYPE:dance-single;
#DESCRIPTION:;
#CHARTSTYLE:;
#DIFFICULTY:Medium;
#METER:5;
#RADARVALUES:0.372152,0.336853,0.336137,0.129871,0.099313,280.000000,44.000000,17.000000,0.000000,0.000000,0.000000,0.000000,0.000000,0.372152,0.336853,0.336137,0.129871,0.099313,280.000000,44.000000,17.000000,0.000000,0.000000,0.000000,0.000000,0.000000;
#CREDIT:;
#NOTES:
0000
0000
0000
0000
,
0000
0000
0000
0000
,
1000
0000
0010
0000
0001
0010
0100
0000
,
1100
0000
0011
0000
0001
1000
1001
0000
,
0000
0000
0010
0001
0000
0000
0100
0010
,
0000
0000
0002
1003
0001
0010
0100
0010
,
0000
0000
2000
3001
0000
0000
0002
1003
,
0000
0000
0000
0000
0010
0000
0000
0100
0000
0000
2000
0000
3010
0000
0001
0000
,
0100
0000
0000
1000
0002
0010
0103
0000
,
1000
0000
1010
0000
1000
0010
0100
0000
,
0000
0000
0001
0001
0000
0000
1000
1000
,
0000
0000
0010
0000
0100
0000
0000
0000
1000
0001
1000
0000
1001
0000
0000
0000
,
0011
0000
1100
0000
1000
0001
1000
0000
,
0010
0100
0010
0001
0010
0100
1000
0000
,
0101
0000
1010
0000
1000
0100
1000
0000
,
0001
0000
0010
0000
1000
0100
1000
0010
,
1000
0000
0000
1000
0000
0000
1000
0000
0001
0000
0000
0001
0000
0000
0001
0000
,
0010
0000
0000
0010
0000
0000
0010
0000
0100
0000
0000
0100
0000
0000
0100
0000
,
1000
0100
1000
0100
0010
0001
0010
0001
,
0011
0000
0000
0000
1100
0000
0000
0000
0001
0010
0001
0000
1001
0000
0000
0000
,
1000
0000
0001
1000
0001
1000
1001
0000
,
0020
0000
1030
0000
0200
0301
0101
0000
,
0010
1000
0100
0000
0001
0010
0100
0000
,
1001
0000
1010
0000
1000
0100
0011
0000
,
1000
0000
0001
0000
0110
1000
0100
0000
,
0001
0000
0010
0000
0100
0010
1000
0000
,
2001
3010
1002
0103
,
0020
0000
0000
0000
0230
0000
0000
0000
1300
0001
1000
0000
1001
0000
0000
0000
,
0000
0000
0000
1000
0010
0000
0001
0000
0000
0000
0000
0001
0000
0000
0110
0000
,
0000
0000
0000
0000
0010
0000
0000
0100
0000
0000
0001
0000
0010
0000
1100
0000
,
0000
0000
1000
0010
0000
0000
0001
0100
,
0000
0000
0000
0000
0010
0000
0000
0100
0000
0000
0010
0000
0010
0000
0100
0000
,
1000
0000
0000
2000
3100
0010
0011
0000
,
0002
0000
2003
0000
3010
0001
0110
0000
,
1000
0000
0000
0000
0010
0000
0000
0000
0001
1000
0000
1000
0001
0000
0000
0000
,
1000
0010
0000
0010
1000
0000
0001
0010
0000
0100
1000
0000
0001
0000
0000
0010
,
0100
1100
0010
0011
,
0010
0100
0010
0100
0001
0010
0100
1000
,
0010
0000
0110
0000
0010
1000
0100
0000
,
0011
0000
1100
0000
1000
0100
0001
0100
,
0001
0000
0000
1000
0000
0000
0100
0000
0010
0000
0000
0100
0000
0000
1100
0000
,
0011
0000
0000
0100
0000
0000
0100
0000
0010
0000
0000
0010
0000
0000
0010
0000
,
1000
0100
1000
0100
0001
0010
0001
0010
,
1001
0000
0101
0000
0010
1000
0010
1100
,
0001
0010
0100
0010
0001
1000
0010
0000
,
0101
0110
1010
0110
,
0001
0100
0010
0000
1000
0010
0100
0000
,
0000
0000
1000
0000
0100
0000
1000
0001
0000
0001
0000
0001
1000
0000
0110
0000
,
0000
1000
0001
0010
0000
0001
1000
0010
,
1100
0000
0011
0000
0020
0130
0200
0310
,
0000
0001
0000
1000
0000
0010
0000
0100
,
0000
1100
0000
0110
0000
0001
0020
0130
;

//---------------dance-single - ----------------
#NOTEDATA:;
#CHARTNAME:;
#STEPSTYPE:dance-single;
#DESCRIPTION:;
#CHARTSTYLE:;
#DIFFICULTY:Easy;
#METER:4;
#RADARVALUES:0.320858,0.317038,0.229184,0.175708,0.011459,241.000000,30.000000,23.000000,0.000000,0.000000,0.000000,0.000000,0.000000,0.320858,0.317038,0.229184,0.175708,0.011459,241.000000,30.000000,23.000000,0.000000,0.000000,0.000000,0.000000,0.000000;
#CREDIT:;
#NOTES:
0000
0000
0000
0000
,
0000
0000
0000
0000
,
1000
0100
1000
0100
,
0001
0000
1001
0000
0001
1000
0001
0000
,
2000
3001
0001
1000
,
0100
0010
0100
0000
0010
0100
0010
0000
,
0210
0310
2001
3001
,
0001
0010
1010
0010
,
0110
0000
0000
1000
0001
0010
0100
0000
,
0001
0000
1000
0000
0001
1000
0001
0000
,
0000
0000
0000
1100
0000
0000
0000
0011
,
0000
0001
0010
0000
0200
0000
1300
0000
,
1000
0001
1000
0000
0100
0010
0100
0000
,
0001
0010
0100
1000
,
0001
0010
0100
0000
1000
0100
0010
0000
,
1001
0110
0002
1003
,
0000
0000
0000
0000
1000
0000
0001
0000
0000
0000
0000
0000
0001
0000
0000
1000
,
0000
0010
0100
0000
0001
0100
0010
0100
,
1000
0100
0100
0010
,
0010
0001
0010
0000
0110
0000
1001
0000
,
0000
1001
0000
1000
0000
0110
0000
0100
,
0000
0001
1000
0001
1000
0000
1001
0000
,
0000
0002
0000
1003
0000
0002
0000
1003
,
0000
2000
0000
3001
0000
2000
0000
3001
,
0001
0010
0100
1000
,
1000
0100
1000
0000
1001
0000
0110
0000
,
0010
0100
0010
0000
1000
0001
1000
0000
,
1000
0100
1000
0100
0010
0001
0010
0001
,
0000
0011
0000
0101
,
0000
2000
0000
3010
,
0000
0000
0001
0010
0000
0000
2000
3100
,
0000
0000
0001
0010
0001
0100
1100
0000
,
1000
0000
0001
0000
0000
0100
0010
0000
,
0001
0000
1000
0001
0000
0001
0100
0000
,
0001
0000
0011
0000
0000
2000
3100
0000
,
1100
0000
0001
0010
0100
1000
0100
0010
,
0002
1003
0020
0130
,
1001
0000
0110
0000
0001
0010
0001
1000
,
0010
1000
0010
0001
0010
0001
0010
1000
,
0010
0001
0100
1000
2010
0000
3100
0000
,
0000
1000
0000
1100
0000
0001
0000
0011
,
0000
2000
0000
3100
0000
0200
0000
0310
,
0000
0001
0010
0001
0000
1000
0100
1000
,
0002
1003
2000
3001
,
0000
0001
0010
0001
0000
0100
0010
1000
,
0000
1001
0000
0110
0000
0020
0000
0130
,
0000
1000
0001
1000
0000
0001
1000
0001
,
0000
0002
1003
0000
1000
0001
1000
0000
,
0010
0100
0110
0000
0001
1000
1001
0000
,
0000
0000
1000
0000
0001
0000
0000
0002
0000
1003
0000
0000
2000
0000
3001
0000
,
0000
0001
0000
1000
0000
0001
0000
0100
,
0000
1000
0100
1000
0001
0010
0100
1000
;
