#VERSION:0.83;
#TITLE:You Will Know Our Names;
#SUBTITLE:;
#ARTIST:ACE+;
#TITLETRANSLIT:;
#SUBTITLETRANSLIT:;
#ARTISTTRANSLIT:;
#GENRE:;
#ORIGIN:;
#CREDIT:;
#BANNER:[Chordophones] - You Will Know Our Names-bn.png;
#BACKGROUND:[Chordophones] - You Will Know Our Names-bg.png;
#PREVIEWVID:;
#JACKET:[Chordophones] - You Will Know Our Names-jacket.png;
#CDIMAGE:;
#DISCIMAGE:;
#LYRICSPATH:;
#CDTITLE:;
#MUSIC:[Chordophones] - You Will Know Our Names.mp3;
#OFFSET:-0.250000;
#SAMPLESTART:64.500000;
#SAMPLELENGTH:12.000000;
#SELECTABLE:YES;
#BPMS:0.000=176.000,
128.000=88.000,
144.000=176.000;
#STOPS:171.500=0.682,
273.500=0.682;
#DELAYS:;
#WARPS:;
#TIMESIGNATURES:0.000=4=4;
#TICKCOUNTS:0.000=4;
#COMBOS:0.000=1;
#SPEEDS:0.000=1.000=0.000=0;
#SCROLLS:0.000=1.000;
#FAKES:;
#LABELS:0.000=Song Start;
#LASTSECONDHINT:121.613998;
#BGCHANGES:;
#KEYSOUNDS:;
#ATTACKS:
;

//---------------dance-single - ----------------
#NOTEDATA:;
#CHARTNAME:;
#STEPSTYPE:dance-single;
#DESCRIPTION:;
#CHARTSTYLE:;
#DIFFICULTY:Easy;
#METER:4;
#RADARVALUES:0.297190,0.364877,0.163806,0.155615,0.000000,254.000000,234.000000,20.000000,19.000000,0.000000,0.000000,0.000000,0.000000,0.000000,0.297190,0.364877,0.163806,0.155615,0.000000,254.000000,234.000000,20.000000,19.000000,0.000000,0.000000,0.000000,0.000000,0.000000;
#CREDIT:DJXYZ;
#NOTES:
0000
0000
0000
0000
,
0000
0000
0000
0000
,
0000
0000
0000
0000
,
0000
0000
0000
0000
,
0000
1100
0000
0101
,
0000
1100
0000
0101
,
0010
0000
0000
1000
0000
0000
0100
0000
,
0000
0001
0000
0000
0010
0000
0000
0000
,
0001
0100
0010
0000
,
1000
0100
0001
0000
,
1000
0100
0010
0000
,
0001
0100
1000
0000
,
0100
0100
0010
0000
,
1000
0010
0100
0000
,
0001
0001
1000
1000
,
0100
0000
0000
1001
0000
0000
0000
0000
,
0001
0000
0001
0000
0000
0001
0000
0000
,
1000
0000
0000
1000
0000
0000
0010
0000
,
0100
0000
0100
0000
0000
0010
0000
0000
,
1000
0000
0000
0020
0000
0000
0130
0000
,
0100
0000
0010
0000
0000
0010
0000
0000
,
1000
0000
0000
1000
0000
0000
0001
0000
,
0000
0000
0001
0000
0001
0000
0000
1000
,
0000
1000
0010
0010
,
0010
0000
0000
0100
0000
0100
0000
0100
,
0000
0001
1000
0000
,
0100
0000
0000
0010
0000
0010
0000
0010
,
0000
1000
0001
0001
,
0100
0000
0000
1000
0000
0000
0100
0000
,
1000
0001
0100
0001
,
0010
0010
0001
0100
,
0010
0010
1000
0100
,
1000
1000
0200
0310
,
0001
0001
0200
0310
,
0100
1000
0020
0130
,
0001
0000
0010
0000
0100
0010
0001
1000
,
0010
0000
0010
0000
,
1000
0100
1100
0000
,
0001
0100
0101
0000
,
0002
0023
0230
2300
,
3010
0100
0010
0100
,
0001
1000
0001
1000
,
1010
0000
0000
0011
0000
0000
1001
0000
,
0000
0000
0000
1000
0000
0000
1000
0000
,
1000
0000
0000
0001
0000
0000
0001
0000
,
0010
0000
0100
1000
,
0001
0100
0010
1000
,
0100
0000
0000
0000
1000
0000
0000
0010
,
0000
0000
1000
0000
0001
0000
0000
0100
,
0000
0000
0000
0101
0000
0000
0000
1100
,
0000
0000
0000
0101
0000
0000
0001
0000
,
0001
0000
0000
1001
0000
0000
0100
0000
,
0100
0000
0000
1000
0000
0000
0010
0000
,
0010
0000
0200
0000
,
0320
0000
1030
0010
,
0100
0001
0002
0000
,
0023
0000
0230
0000
,
2300
0000
0000
0000
3010
0000
0000
0010
,
0000
0000
0010
0000
0000
0010
0000
0000
,
0010
0000
0000
0000
0100
0000
0000
0100
,
0000
0000
0100
0000
0000
0100
0000
0000
,
2002
3003
0100
0000
,
0100
0000
0100
0000
,
0100
0000
0100
0000
,
0100
0000
0010
0001
,
0000
1000
0000
0000
1010
0000
0000
0000
,
0011
0000
1010
0000
,
0011
0000
0100
0100
,
0100
0000
0000
0200
0300
0000
0000
0000
,
1000
1000
0010
0100
,
0001
0001
0010
0100
,
0010
0010
0001
1000
,
0100
0100
1000
0001
,
0010
0001
0010
0100
,
0010
1000
0010
0100
,
0001
0100
1000
0100
,
0010
1000
0010
0001
,
0010
0000
0000
0010
0000
0000
0010
0000
,
0000
0010
0000
0000
0010
0000
0000
0000
,
0100
0000
0000
0100
0000
0000
0100
0000
,
0000
0100
0000
0000
2002
0000
0000
0000
,
3003
0000
0000
0000
;

//---------------dance-single - ----------------
#NOTEDATA:;
#CHARTNAME:;
#STEPSTYPE:dance-single;
#DESCRIPTION:;
#CHARTSTYLE:;
#DIFFICULTY:Medium;
#METER:7;
#RADARVALUES:0.479716,0.497559,0.253899,0.204757,0.020476,410.000000,379.000000,31.000000,25.000000,0.000000,0.000000,0.000000,0.000000,0.000000,0.479716,0.497559,0.253899,0.204757,0.020476,410.000000,379.000000,31.000000,25.000000,0.000000,0.000000,0.000000,0.000000,0.000000;
#CREDIT:DJXYZ;
#NOTES:
0000
0000
0000
0000
,
0000
0000
0000
0000
,
0000
0000
0000
0000
,
0000
0000
0000
0000
,
0001
0100
0001
0000
1000
0100
1000
0000
,
0001
0100
0001
0000
1000
0100
1000
0000
,
1010
0000
0000
0011
0000
0000
0101
0000
,
0000
1100
0000
0000
0100
0010
0100
0000
,
0010
0000
0011
0000
0001
0100
0001
0000
,
0010
0000
1010
0000
1000
0100
1000
0000
,
0001
0000
0101
0000
1000
0010
0100
0000
,
1000
0000
1100
0000
0001
0010
0100
0000
,
0010
0000
0001
0010
0001
0010
0001
0000
,
0100
0000
1000
0100
1000
0100
1000
0000
,
0001
0000
0100
0010
0100
0010
0100
0000
,
0001
1000
0001
2000
0000
0000
0000
0000
,
3100
0000
0100
0010
0000
0010
0001
0000
,
0100
0000
0100
0010
0000
0010
1000
0000
,
0001
0000
0001
0010
0000
0010
0000
0100
,
0000
1000
0100
2000
0000
3001
0100
0000
,
1000
0000
1000
0010
0000
0010
0100
0000
,
0001
0000
0001
0010
0000
0010
0100
0000
,
1000
0000
0100
0010
0001
0010
0100
1000
,
0000
0001
0100
0010
1000
0001
0010
0000
,
0001
0000
0001
0010
0000
0100
0000
2000
,
0000
0001
3001
0100
,
1000
0100
0010
0001
0000
0010
0100
1000
,
0000
0001
0100
0020
0000
0000
1030
0000
,
0100
0000
0100
0001
0000
0001
0010
0000
,
0001
0000
0001
0100
0000
0100
0010
0000
,
0001
0000
0010
0100
1000
0100
0010
0001
,
0000
1000
0010
0100
0001
0010
0200
0000
,
2300
0000
0000
0000
0000
0000
3100
0010
0002
0000
0000
0000
0000
0000
0103
0001
,
0020
0000
0000
0000
0100
0000
0000
0000
0100
0000
0000
0000
0130
0000
1000
0001
,
0200
0000
0000
0000
0000
0300
0001
0100
2000
0000
0000
0000
0000
3000
0100
0001
,
0020
0000
0100
0000
0100
0100
0130
1001
,
0001
0000
0100
0000
0001
1000
0100
0000
,
1000
0000
0100
0000
1000
0001
0100
0000
,
0010
0000
1000
0000
0001
0010
0100
0000
,
1100
0101
1100
0101
,
0001
0100
0001
0000
1000
0100
1000
0000
,
0001
0100
0010
0000
1000
0010
0100
0001
,
0010
0001
0000
1000
0100
0000
1000
0002
,
0000
0000
0000
0103
0000
0100
0010
0000
,
1010
0000
1000
0100
0000
0100
0010
0000
,
0011
0001
0200
0302
,
1003
0000
0100
2000
0000
3001
0100
0000
,
0010
1000
0010
0000
0100
0001
0100
0010
,
0000
0000
1001
0000
0100
1000
0100
0010
,
0000
0000
0001
1000
0000
0000
0010
0100
,
0000
0000
0001
1000
0000
1000
0001
0000
,
0010
0100
0000
2000
0000
3010
0100
0000
,
0101
0000
0001
0010
0000
0010
0100
0000
,
1100
0000
1000
0000
0001
0010
0001
0000
,
1000
0010
1000
0000
0001
0100
0001
0000
,
1000
0100
1000
0000
0002
0000
0000
0000
,
0203
0000
0320
0000
,
2030
0000
0000
0000
3001
0001
0000
1000
,
1000
0000
0001
0001
0000
1000
1000
0000
,
1001
0000
0000
0000
0010
0010
0000
0100
,
0100
0000
0010
0010
0000
0100
0100
0000
,
0110
0000
0001
0001
,
0010
0100
1000
1000
,
0010
0100
0001
0001
,
0010
0100
1000
0001
,
0100
0010
1010
0100
,
0011
0100
1010
0100
,
0011
0100
0001
0001
,
1000
0000
1000
0200
0000
0000
0310
0000
,
0001
0000
0010
0001
0010
0001
0100
0000
,
1000
0000
0010
1000
0010
1000
0100
0000
,
1000
0000
0001
0100
0001
1000
0100
0000
,
0001
0000
1000
0100
0000
0022
0000
0033
,
0001
0101
1000
1100
,
1000
1010
0001
0011
,
0001
0000
0100
0000
1000
0000
0100
0010
,
0000
1000
0100
0010
0000
0001
0100
0000
,
0001
0001
0000
0010
0010
0000
0100
0100
,
0000
1000
1000
0000
1010
0000
0000
0000
,
1000
1000
0000
0100
0100
0000
0010
0010
,
0000
0001
0001
0000
0202
0000
0000
0000
,
0303
0000
0000
0000
;

//---------------dance-single - ----------------
#NOTEDATA:;
#CHARTNAME:;
#STEPSTYPE:dance-single;
#DESCRIPTION:;
#CHARTSTYLE:;
#DIFFICULTY:Hard;
#METER:9;
#RADARVALUES:0.661072,0.762924,0.540558,0.319421,0.102378,565.000000,499.000000,66.000000,39.000000,0.000000,0.000000,0.000000,0.000000,0.000000,0.661072,0.762924,0.540558,0.319421,0.102378,565.000000,499.000000,66.000000,39.000000,0.000000,0.000000,0.000000,0.000000,0.000000;
#CREDIT:DJXYZ;
#NOTES:
0000
0000
0000
0000
,
0000
0000
0000
0000
,
0000
0000
0000
0000
,
1100
0000
0000
0101
0000
0000
1001
0000
,
1000
0100
1000
0010
0000
0001
0100
0000
,
0001
0010
0001
0100
0000
1000
0010
0000
,
1000
0010
0010
0100
0001
0001
0010
0100
,
0100
1000
0001
0001
0100
0000
0110
0000
,
0010
1000
0100
0020
0000
0031
0100
0000
,
0001
0010
0100
2000
0000
3001
0100
0000
,
0001
1000
0100
0002
0000
0103
1000
0000
,
0001
1000
0100
0020
0000
0031
0100
0000
,
1000
0100
0010
0001
0010
0100
1100
0000
,
0001
0100
0010
1000
0010
0100
0101
0000
,
0001
0100
1000
0100
0001
0010
0100
0000
,
1000
0100
0010
0002
0000
1003
0100
0000
,
1000
0100
1000
0100
1000
0000
0000
0000
2000
0000
3001
0000
0000
0000
0002
0000
,
0013
0000
0020
0130
0000
1000
0010
0000
,
0001
0100
0001
0100
0001
0000
0000
0000
0002
0000
1003
0000
0100
0000
1000
0000
,
0000
0001
0100
0020
0000
1030
0100
0000
,
0001
0010
0001
0010
0001
0000
0000
0000
0002
0000
1003
0000
0000
0000
2000
0000
,
3100
0000
0200
0310
0000
0001
0100
1000
,
0000
0100
0010
0001
0010
1000
0100
0001
,
0000
0001
0100
1000
0010
0100
1001
0000
,
0100
0100
1000
0010
0010
0100
0000
0102
,
0000
0010
0100
0013
,
0010
0010
0001
0100
0100
0010
0000
0110
,
0000
1000
0100
0002
0000
0103
1000
0000
,
0001
0001
0010
1000
1000
0010
0001
0000
,
2000
0000
3100
0002
0000
0103
0010
0001
,
0000
0001
0010
0100
0001
0100
0010
0001
,
0000
1000
0010
0100
1000
0100
0001
0000
,
1000
0000
0100
0000
0011
0000
0001
0100
0001
0000
1000
0000
1010
0000
1000
0100
,
0002
0000
0103
0000
0020
0000
1030
0000
0200
0000
0301
0000
2000
0000
3010
0100
,
0001
0000
0100
0000
1010
0000
1000
0100
1000
0000
0001
0000
0011
0000
0001
0100
,
0020
0000
1030
0000
0200
0000
0301
0000
0100
0000
0010
0000
0001
1000
0001
1000
,
0002
0000
0010
0000
1000
0000
0103
0001
,
2000
0010
0001
3100
,
0200
0000
0010
0000
1000
0000
0301
0100
,
2000
3002
0203
0320
,
1030
0010
1000
0010
0100
0001
0100
0001
,
0010
0001
0010
0001
1000
0100
1000
0100
,
0011
0011
0000
1010
1010
0000
1001
2002
,
3003
0000
0000
1100
0000
0010
0001
0000
,
0100
0001
0010
0100
0000
0100
0010
0000
,
0101
0000
1010
0000
0001
0010
0001
0000
,
1000
0100
1000
0000
0010
1000
0010
0000
,
0100
0000
0001
0000
0100
0000
0000
0000
0010
1000
0010
1000
0010
0000
0101
0000
,
0000
0000
0001
0000
0010
0000
0000
0000
0100
0001
0100
0001
0100
0000
1010
0000
,
0000
1000
0100
0011
0000
0001
0010
1100
,
0000
1000
0010
0101
0000
0001
0100
1000
,
0100
0010
0000
0101
0000
0010
1000
0000
,
0010
1000
0100
0010
0000
0010
0100
0000
,
1010
0000
0101
0000
1000
0100
1000
0000
,
0001
0010
0001
0000
0100
0001
0100
0000
,
0010
0000
1000
0000
0010
0000
0000
0000
0100
0001
0100
0001
0100
0000
0000
0000
,
0010
1000
0010
1000
0010
0000
0000
0000
1000
0100
1000
0100
1000
0000
0000
0000
,
0001
0010
0001
0010
0001
0000
0000
0000
0011
0000
0011
0000
0000
0000
0101
0000
,
0101
0000
1010
1010
0000
1100
1100
0000
,
1001
0000
0000
0000
1100
1100
0000
0011
,
0011
0000
0101
0101
0000
1010
1010
0000
,
0110
0000
0000
0000
0100
0100
0001
0100
,
0010
1000
0001
0100
0000
0100
0010
0100
,
0001
1000
0001
1000
0100
0100
1000
0100
,
0010
0001
1000
0100
0000
1000
0001
0100
,
0000
0020
0000
0000
1030
0010
1000
0010
,
0100
0001
0010
0100
0001
0010
0001
0010
,
0100
1000
0010
0100
0001
0100
1000
0100
,
0001
1000
0001
0200
0300
0100
0010
0000
,
1000
1000
0010
0100
0010
1000
0001
0100
,
0000
0001
0010
0000
0001
0100
1000
0100
,
0001
0001
0010
0100
0010
0001
1000
0100
,
0000
1000
0001
0100
0000
0020
0000
0030
,
0010
0100
0010
0100
0010
1000
0001
0100
,
0010
0100
0010
0100
0010
0001
1000
0100
,
0001
0100
1000
0100
0001
0010
0100
2000
,
0000
3100
0010
0002
0000
0103
0010
0000
,
1100
0110
0000
0011
0110
0000
1010
1001
,
0000
0101
1001
0000
0110
0000
0000
0000
,
0101
1001
0000
1010
1001
0000
0011
0110
,
0000
1100
0110
0000
2002
0000
0000
0000
,
3003
0000
0000
0000
;

//---------------dance-single - ----------------
#NOTEDATA:;
#CHARTNAME:;
#STEPSTYPE:dance-single;
#DESCRIPTION:;
#CHARTSTYLE:;
#DIFFICULTY:Beginner;
#METER:2;
#RADARVALUES:0.177846,0.232194,0.024571,0.131044,0.000000,152.000000,149.000000,3.000000,16.000000,0.000000,0.000000,0.000000,0.000000,0.000000,0.177846,0.232194,0.024571,0.131044,0.000000,152.000000,149.000000,3.000000,16.000000,0.000000,0.000000,0.000000,0.000000,0.000000;
#CREDIT:DJXYZ;
#NOTES:
0000
0000
0000
0000
,
0000
0000
0000
0000
,
0000
0000
0000
0000
,
0000
0000
0000
0000
,
0000
1000
0000
0001
,
0000
1000
0000
0001
,
0010
0000
1000
0000
,
0100
0000
0001
0000
,
0010
0000
0010
0000
,
1000
0000
1000
0000
,
0001
0000
0001
0000
,
0100
0000
0100
0000
,
0010
0000
1000
0000
,
0001
0000
0100
0000
,
0001
0000
1000
0000
,
0200
0000
0000
0300
,
0001
0001
0000
0001
,
0000
1000
0000
1000
,
0100
0100
0000
0010
,
0000
0010
0001
0000
,
1000
1000
0000
0100
,
0000
0100
0000
0001
,
0000
0001
0001
0000
,
1000
0000
0010
0000
,
0010
0000
0100
0000
,
0200
0000
0000
0300
,
1000
0000
0100
0000
,
0020
0000
0031
0000
,
0100
0000
0010
0000
,
1000
0000
0100
0000
,
0010
0000
0001
0000
,
0100
0000
0010
0000
,
2000
0000
3200
0000
,
0320
0000
0032
0000
,
0203
0000
0320
0000
,
2030
0100
0100
3100
,
0010
0000
0010
0000
,
1000
1000
1000
0000
,
0001
0001
0001
0000
,
0010
0010
0010
0000
,
0100
0000
0100
0000
,
0100
0000
1000
0000
,
1001
0000
0000
1001
,
0000
0000
0000
1000
,
0000
1000
0000
0001
,
0000
0001
0000
0100
,
0000
0010
0000
1000
,
0000
0001
1000
0000
,
0010
0000
0001
0000
,
0100
0000
0001
0000
,
1000
0000
0001
0000
,
1000
0000
0000
0100
,
0000
0100
0000
0010
,
0000
0010
2000
0000
,
3002
0000
1003
0000
,
0001
0000
0010
0000
,
0100
0000
1000
0000
,
0001
0000
0010
0000
,
0000
0010
0000
0000
,
0010
0000
0100
0000
,
0000
0100
0000
0000
,
0100
0000
2002
0000
,
0000
0000
0000
0000
,
0000
0000
0000
0000
,
0000
0000
0000
0000
,
3003
0000
1000
0000
,
0001
0000
1000
0000
,
0001
0000
0100
0100
,
0100
0200
0000
0000
,
1300
0000
0010
0000
,
0001
0000
0010
0000
,
0100
0000
0001
0000
,
0100
0000
1000
0000
,
0010
0000
0010
0000
,
0010
0000
1000
0000
,
0010
0000
0010
0000
,
0010
0000
0001
0000
,
1000
0000
0000
1000
,
0000
0000
1000
0000
,
0001
0000
0000
0001
,
0000
0000
0002
0000
,
0003
0000
0000
0000
;

//---------------dance-double - ----------------
#NOTEDATA:;
#CHARTNAME:;
#STEPSTYPE:dance-double;
#DESCRIPTION:;
#CHARTSTYLE:;
#DIFFICULTY:Easy;
#METER:4;
#RADARVALUES:0.291340,0.364877,0.147425,0.131044,0.000000,249.000000,231.000000,18.000000,16.000000,0.000000,0.000000,0.000000,0.000000,0.000000,0.291340,0.364877,0.147425,0.131044,0.000000,249.000000,231.000000,18.000000,16.000000,0.000000,0.000000,0.000000,0.000000,0.000000;
#CREDIT:DJXYZ;
#NOTES:
00000000
00000000
00000000
00000000
,
00000000
00000000
00000000
00000000
,
00000000
00000000
00000000
00000000
,
00000000
00000000
00000000
00000000
,
00000000
11000000
00000000
01010000
,
00000000
00011000
00000000
00001100
,
00000001
00000000
00000000
00000100
00000000
00000000
00001000
00000000
,
00000000
00010000
00000000
00000000
00100000
00000000
00000000
00000000
,
00010000
01000000
00100000
00000000
,
10000000
01000000
00010000
00000000
,
00001000
00000100
00000010
00000000
,
00000001
00000100
00001000
00000000
,
00010000
01000000
00100000
00000000
,
10000000
00100000
01000000
00000000
,
00010000
00010000
00001000
00001000
,
00000010
00000000
00000000
00001001
00000000
00000000
00000000
00000000
,
00010000
00000000
00010000
00000000
00000000
00010000
00000000
00000000
,
10000000
00000000
00000000
10000000
00000000
00000000
00100000
00000000
,
01000000
00000000
01000000
00000000
00000000
00100000
00000000
00000000
,
10000000
00000000
00000000
00010000
00000000
00000000
00001000
00000000
,
00000000
00000000
00000010
00000000
00000000
00000010
00000000
00000000
,
00000001
00000000
00000000
00000001
00000000
00000000
00001000
00000000
,
00000000
00000000
00010000
00000000
00001000
00000000
00000000
01000000
,
00000000
00100000
10000000
00000000
,
10000000
00000000
00000000
01000000
00000000
01000000
00000000
01000000
,
00000000
00010000
00001000
00000000
,
00000001
00000000
00000000
00000010
00000000
00000010
00000000
00000010
,
00000000
00001000
00010000
00000000
,
01000000
00000000
00000000
00100000
00000000
00000000
10000000
00000000
,
01000000
00100000
00010000
00100000
,
00001000
00001000
00010000
00001000
,
00000010
00000010
00000100
00000001
,
00001000
00001000
00020000
00130000
,
00010000
00010000
02000000
03100000
,
01000000
01000000
00002000
00013000
,
00001000
00000000
00000100
00000000
00000010
00000001
00000100
00000010
,
00001000
00000000
00100000
00000000
,
10000000
01000000
11000000
00000000
,
00010000
01000000
01010000
00000000
,
00200000
00320000
00032000
00003200
,
00000310
00000100
00000010
00000100
,
00000001
00001000
00000010
00000100
,
00011000
00000000
00000000
00110000
00000000
00000000
10010000
00000000
,
00000000
00000000
00000000
10000000
00000000
00000000
10000000
00000000
,
10000000
00000000
00000000
00010000
00000000
00000000
00010000
00000000
,
00100000
00000000
00001000
00010000
,
00000100
00000010
00000001
00000100
,
00000010
00000000
00000000
00000000
00001000
00000000
00000000
00000010
,
00000000
00000000
00001000
00000000
00000001
00000000
00000000
00000100
,
00000000
00000000
00000000
00001100
00000000
00000000
00000000
00011000
,
00000000
00000000
00000000
01010000
00000000
00000000
00010000
00000000
,
00010000
00000000
00000000
10010000
00000000
00000000
01000000
00000000
,
01000000
00000000
00000000
10000000
00000000
00000000
00100000
00000000
,
00100000
00000000
02000000
00000000
,
03200000
00000000
00310000
00100000
,
00001000
00010000
00002000
00000000
,
00003020
00000000
00000230
00000000
,
00000302
00000000
00000000
00000000
00000013
00000000
00000000
00000010
,
00000000
00000000
00000010
00000000
00000000
00000010
00000000
00000000
,
00000010
00000000
00000000
00000000
00100000
00000000
00000000
00100000
,
00000000
00000000
00100000
00000000
00000000
00100000
00000000
00000000
,
00200000
00000000
01300000
00000000
,
01000000
00000000
01000000
00000000
,
01000000
00000000
01000000
00000000
,
01000000
00000000
00100000
00010000
,
00000000
00001000
00000000
00000000
00011000
00000000
00000000
00000000
,
00110000
00000000
00011000
00000000
,
00001010
00000000
00000100
00000100
,
00000100
00000000
00000000
00000200
00000300
00000000
00000000
00000000
,
00001000
00001000
00000010
00000100
,
00000001
00000001
00000010
00000100
,
00001000
00001000
00010000
00100000
,
01000000
01000000
10000000
00010000
,
00100000
00010000
00100000
00001000
,
00010000
00000100
00010000
00001000
,
00001000
00000010
00000100
00000001
,
00000100
00000010
00001000
00000010
,
00000100
00000000
00000000
00000100
00000000
00000000
00000100
00000000
,
00000000
00000100
00000000
00000000
00000100
00000000
00000000
00000000
,
01000000
00000000
00000000
01000000
00000000
00000000
01000000
00000000
,
00000000
01000000
00000000
00000000
02000000
00000000
00000000
00000000
,
03000000
00000000
00000000
00000000
;

//---------------dance-double - ----------------
#NOTEDATA:;
#CHARTNAME:;
#STEPSTYPE:dance-double;
#DESCRIPTION:;
#CHARTSTYLE:;
#DIFFICULTY:Medium;
#METER:7;
#RADARVALUES:0.468016,0.497559,0.253899,0.196567,0.016381,400.000000,369.000000,31.000000,24.000000,0.000000,0.000000,0.000000,0.000000,0.000000,0.468016,0.497559,0.253899,0.196567,0.016381,400.000000,369.000000,31.000000,24.000000,0.000000,0.000000,0.000000,0.000000,0.000000;
#CREDIT:DJXYZ;
#NOTES:
00000000
00000000
00000000
00000000
,
00000000
00000000
00000000
00000000
,
00000000
00000000
00000000
00000000
,
00000000
00000000
00000000
00000000
,
10000000
01000000
10000000
00000000
00010000
01000000
00010000
00000000
,
00001000
00000100
00001000
00000000
00000001
00000100
00000001
00000000
,
00000011
00000000
00000000
00001010
00000000
00000000
00011000
00000000
,
00000000
01010000
00000000
00000000
01000000
00100000
01000000
00000000
,
10000000
00000000
10100000
00000000
01000000
00100000
01000000
00000000
,
00010000
00000000
00110000
00000000
00001000
00010000
00001000
00000000
,
00000010
00000000
00000011
00000000
00000001
00000100
00001000
00000000
,
00010000
00000000
00011000
00000000
00010000
00100000
01000000
00000000
,
00100000
00000000
00010000
00100000
00010000
00100000
00010000
00000000
,
00001000
00000000
00000100
00000010
00000100
00000010
00000100
00000000
,
00000001
00000000
00001000
00000010
00001000
00000010
00001000
00000000
,
00010000
00001000
00010000
00002000
00000000
00000000
00003000
00000000
,
01000000
00000000
01000000
00100000
00000000
00100000
10000000
00000000
,
01000000
00000000
01000000
00100000
00000000
00100000
00010000
00000000
,
00001000
00000000
00001000
00000100
00000000
00000100
00000000
00000010
,
00000000
00000001
00000100
00000002
00000000
00001003
00000100
00000000
,
00010000
00000000
00010000
00100000
00000000
00100000
01000000
00000000
,
10000000
00000000
10000000
00100000
00000000
00100000
00010000
00000000
,
00001000
00000000
00000100
00000010
00000001
00000010
00000100
00001000
,
00000000
00010000
00001000
01000000
00010000
10000000
01000000
00000000
,
00010000
00000000
00010000
00100000
00000000
01000000
00000000
20000000
,
00000000
00010000
30010000
00100000
,
00010000
00001000
00010000
00000010
00000000
00001000
00000010
00000100
,
00000000
00000001
00000100
00000020
00000000
00000000
00001030
00000000
,
00010000
00000000
00010000
01000000
00000000
01000000
00100000
00000000
,
00010000
00000000
00010000
10000000
00000000
10000000
01000000
00000000
,
00010000
00000000
00100000
01000000
10000000
01000000
00100000
00010000
,
00000000
00001000
00000010
00000100
00000001
00000010
00000200
00000000
,
00002300
00000000
00000000
00000000
00000000
00000000
00003100
00000010
00000002
00000000
00000000
00000000
00000000
00000000
00000103
00000010
,
00002000
00010000
00010000
00013000
,
00020000
00000000
00000000
00000000
00000000
00000000
01030000
00100000
20000000
00000000
00000000
00000000
00000000
30000000
01000000
00100000
,
00020000
00001000
00001000
00031000
,
00000100
00000000
00000010
00000000
00000001
00001000
00000100
00000000
,
00000010
00000000
00000100
00000000
00001000
00000100
00010000
00000000
,
00001000
00000000
00100000
00000000
00010000
00100000
01000000
00000000
,
11000000
01010000
00110000
00011000
,
00001010
00000100
00000010
00000100
,
00000001
00001000
00000001
00001000
00000000
00000100
00010000
00000000
,
00001000
00100000
00000000
01000000
10000000
00000000
00010000
02000000
,
00000000
00000000
00000000
03100000
00000000
01000000
00100000
00000000
,
10100000
00000000
10000000
01000000
00000000
01000000
00100000
00000000
,
00110000
00010000
00002000
00003010
,
00000001
00000000
00000100
00000020
00000000
00001030
00000100
00000000
,
00010000
00001000
00010000
00000000
01000000
00100000
00010000
00100000
,
00000000
00000000
10010000
00000000
01000000
10000000
01000000
00100000
,
00000000
00000000
00010000
00001000
00000000
00000000
00000010
00000100
,
00000000
00000000
00001000
00010000
00000000
00000000
01000000
00000000
,
00100000
01000000
00000000
20000000
00000000
30100000
01000000
00000000
,
01010000
00000000
00010000
00100000
00000000
00100000
00001000
00000000
,
00011000
00000000
00000100
00000000
00000010
00000001
00000010
00000000
,
00000100
00001000
00000100
00000000
00010000
00001000
00010000
00000000
,
01000000
00100000
01000000
00000000
00200000
00000000
00000000
00000000
,
00302000
00000000
00023000
00000000
,
00030200
00000000
00000000
00000000
00010300
00010000
00000000
00001000
,
00001000
00000000
00010000
00010000
00000000
00001000
00001000
00000000
,
00001010
00000000
00000000
00000000
00001000
00001000
00000000
00010000
,
00010000
00000000
00001000
00001000
00000000
00010000
00010000
00000000
,
01010000
00000000
00010000
00010000
,
00100000
01000000
10000000
10000000
,
00100000
01000000
00010000
00010000
,
00100000
00000000
01000000
00000000
10000000
00000000
00000000
00010000
,
00000000
00001000
00000000
00000000
00001010
00000000
00000100
00000000
,
00000011
00000100
00001010
00000100
,
00000011
00000100
00001000
00001000
,
00010000
00000000
00010000
00002000
00003000
00000000
00000000
00000000
,
00100000
00000000
00010000
00001000
00010000
00001000
00000100
00000000
,
00000010
00000000
00000001
00000100
00000001
00000100
00001000
00000000
,
00000010
00000000
00010000
00001000
00010000
00001000
00010000
00000000
,
01000000
00000000
10000000
00100000
00000000
20200000
00000000
30300000
,
00010000
00110000
00001000
00011000
,
00000010
00001010
00000001
00000011
,
00000001
00000000
00000100
00000000
00001000
00000000
00010000
00001000
,
00000000
00100000
00010000
01000000
00000000
00010000
10000000
00000000
,
10000000
10000000
00000000
00100000
00100000
00000000
01000000
01000000
,
00000000
00010000
00010000
00000000
00011000
00000000
00000000
00000000
,
00001000
00001000
00000000
00000010
00000010
00000000
00000100
00000100
,
00000000
00000001
00000001
00000000
00000220
00000000
00000000
00000000
,
00000330
00000000
00000000
00000000
;

//---------------dance-double - ----------------
#NOTEDATA:;
#CHARTNAME:;
#STEPSTYPE:dance-double;
#DESCRIPTION:;
#CHARTSTYLE:;
#DIFFICULTY:Hard;
#METER:9;
#RADARVALUES:0.651712,0.762924,0.540558,0.253899,0.098283,557.000000,491.000000,66.000000,31.000000,0.000000,0.000000,0.000000,0.000000,0.000000,0.651712,0.762924,0.540558,0.253899,0.098283,557.000000,491.000000,66.000000,31.000000,0.000000,0.000000,0.000000,0.000000,0.000000;
#CREDIT:DJXYZ;
#NOTES:
// measure 0
00000000
00000000
00000000
00000000
,  // measure 1
00000000
00000000
00000000
00000000
,  // measure 2
00000000
00000000
00000000
00000000
,  // measure 3
01010000
00000000
00000000
00011000
00000000
00000000
00001100
00000000
,  // measure 4
00000001
00000100
00000001
00001000
00000000
00000100
00001000
00000000
,  // measure 5
00010000
00001000
00100000
00010000
00000000
10000000
00100000
00000000
,  // measure 6
10000000
00100000
00100000
01000000
00010000
00010000
00100000
00001000
,  // measure 7
00001000
00010000
00000100
00000100
00000010
00000000
00001001
00000000
,  // measure 8
00000010
00000001
00000100
00000020
00000000
00001030
00000100
00000000
,  // measure 9
00000100
00010000
00001000
00200000
00000000
00310000
01000000
00000000
,  // measure 10
00100000
10000000
01000000
00200000
00000000
00310000
01000000
00000000
,  // measure 11
00001000
00010000
00000100
00000020
00000000
00000031
00000100
00000000
,  // measure 12
00000001
00001000
00000100
00010000
00000000
00000010
00001000
00000000
,  // measure 13
00000100
00010000
00001000
00100000
00000000
00010000
01000000
00000000
,  // measure 14
01000000
00010000
00100000
00002000
00000000
01003000
00010000
00000000
,  // measure 15
10000000
01000000
00100000
00020000
00000000
00031000
00000100
00000000
,  // measure 16
00000001
00000010
00000001
00000010
00000001
00000000
00000000
00000000
00000000
00000000
00000101
00000000
00000000
00000000
00000000
00000000
,  // measure 17
00001100
00000000
00000000
00011000
00000000
00010000
01000000
00000000
,  // measure 18
10000000
00100000
10000000
00100000
10000000
00000000
00000000
00000000
00000000
00000000
11000000
00000000
00000000
00000000
00110000
00000000
,  // measure 19
00000000
00001000
00100000
00010000
00000000
00001000
00000100
00000000
,  // measure 20
00000010
00000001
00000010
00000001
00000010
00000000
00000000
00000000
00000100
00000000
00001000
00000000
00000000
00000000
00010000
00000000
,  // measure 21
00100000
00000000
01000000
10000000
00000000
00100000
01000000
00010000
,  // measure 22
00000000
00100000
00001000
00010000
00000010
00010000
00001000
00100000
,  // measure 23
00000000
00001000
01000000
00001000
00010000
00000100
00010000
00000000
,  // measure 24
00000010
00000010
00001000
00000100
00000100
00000010
00000000
00002000
,  // measure 25
00000000
00010000
00010000
00013000
,  // measure 26
00100000
00100000
00010000
01000000
01000000
00100000
00000000
01100000
,  // measure 27
00000000
10000000
01000000
00020000
00000000
00031000
00010000
00000000
,  // measure 28
00001000
00001000
00000010
00000001
00000001
00000100
00000010
00000000
,  // measure 29
00002000
00000000
00003100
00020000
00000000
00031000
01000000
00100000
,  // measure 30
00000000
00010000
00100000
01000000
00010000
01000000
00100000
10000000
,  // measure 31
00000000
10000000
00100000
01000000
00010000
00100000
00001000
00000000
,  // measure 32
00010000
00000000
00001000
00000000
00001010
00000000
00000010
00000100
00000010
00000000
00001000
00000000
00001100
00000000
00010000
00001000
,  // measure 33
00020000
01030000
00200000
00310000
02000000
03100000
20000000
31000000
,  // measure 34
00100000
00000000
00010000
00000000
00011000
00000000
00001000
00000010
00001000
00000000
00000001
00000000
00000101
00000000
00000100
00000010
,  // measure 35
00002000
00000000
00003100
00000000
00020000
00000000
00031000
00000000
02000000
00000000
03010000
00000000
10000000
00010000
10000000
00010000
,  // measure 36
00200000
00000000
00010000
00000000
01000000
00000000
00310000
01000000
,  // measure 37
00200000
10000000
01000000
10300000
,  // measure 38
00020000
00000000
00100000
00000000
01030000
00000000
00001000
00010000
,  // measure 39
00000020
00000230
00000302
00002003
,  // measure 40
00003100
00001000
00000100
00001000
00000001
00000010
00000001
00000010
,  // measure 41
00000001
00000100
00000001
00000100
00000010
00001000
00000010
00001000
,  // measure 42
00001100
00001100
00000000
00011000
00011000
00000000
01010000
02020000
,  // measure 43
03030000
00000000
00000000
11000000
00000000
00100000
00010000
00000000
,  // measure 44
01000000
00010000
00100000
00001000
00000000
00001000
00010000
00000000
,  // measure 45
00001100
00000000
00000011
00000000
00000001
00000100
00000001
00000000
,  // measure 46
00001000
00000010
00001000
00000000
00010000
00001000
00100000
00000000
,  // measure 47
01000000
00000000
10000000
00000000
01000000
00000000
00000000
00000000
00100000
10000000
00100000
10000000
00100000
00000000
01010000
00000000
,  // measure 48
00000000
00000000
00010000
00000000
00100000
00000000
00000000
00000000
00001000
00010000
00001000
00010000
00001000
00000000
00110000
00000000
,  // measure 49
00000000
00010000
00001000
00000100
00000000
00000010
00001000
00000100
,  // measure 50
00000000
00000010
00000001
00000101
00000000
00000001
00000100
00001000
,  // measure 51
00000100
00000010
00000000
00000101
00000000
00000001
00001000
00000000
,  // measure 52
00000010
00001000
00000100
00010000
00000000
00001000
00100000
00000000
,  // measure 53
00110000
00000000
11000000
00000000
10000000
01000000
10000000
00000000
,  // measure 54
00010000
00100000
00010000
00000000
00001000
00010000
00001000
00000000
,  // measure 55
00000100
00000000
00001000
00000000
00000100
00000000
00000000
00000000
00000001
00000010
00000001
00000010
00000001
00000000
00000000
00000000
,  // measure 56
00000100
00000010
00000100
00000010
00000100
00000000
00000000
00000000
00001000
00000100
00001000
00000100
00001000
00000000
00000000
00000000
,  // measure 57
00010000
00001000
00010000
00001000
00010000
00000000
00000000
00000000
00110000
00000000
00110000
00000000
00000000
00000000
10100000
00000000
,  // measure 58
10100000
00000000
11000000
11000000
00000000
01010000
01010000
00000000
,  // measure 59
00011000
00000000
00000000
00000000
00001100
00001100
00000000
00000101
,  // measure 60
00000101
00000000
00000011
00000011
00000000
00001010
00001010
00000000
,  // measure 61
00011000
00000000
00000000
00000000
01000000
01000000
00010000
01000000
,  // measure 62
00100000
10000000
00010000
01000000
00000000
01000000
00100000
01000000
,  // measure 63
00010000
10000000
00010000
10000000
01000000
01000000
10000000
01000000
,  // measure 64
00100000
00010000
10000000
01000000
00000000
10000000
00010000
01000000
,  // measure 65
00000000
00011000
00000000
00000000
00000001
00000100
00000001
00000100
,  // measure 66
00000010
00001000
00000100
00000010
00001000
00000100
00001000
00000100
,  // measure 67
00000010
00000001
00000100
00000010
00001000
00000010
00000001
00000010
,  // measure 68
00001000
00000001
00001000
00000020
00000030
00010000
00001000
00000000
,  // measure 69
00100000
00100000
00010000
00100000
00001000
00010000
00000010
00001000
,  // measure 70
00000000
00001000
00000010
00001000
00000001
00000100
00001000
00000100
,  // measure 71
00000010
00000010
00001000
00000010
00010000
00001000
00100000
00010000
,  // measure 72
00000000
10000000
00010000
01000000
00000000
00200000
00000000
00300000
,  // measure 73
00100000
01000000
00100000
01000000
00100000
10000000
00010000
00100000
,  // measure 74
00001000
00010000
00001000
00010000
00001000
00000010
00000100
00001000
,  // measure 75
00000010
00000100
00000010
00000100
00000010
00001000
00000100
00010000
,  // measure 76
00000000
00001000
00100000
00020000
00000000
01030000
00100000
00000000
,  // measure 77
10100000
01100000
00000000
01010000
00110000
00000000
00011000
00001010
,  // measure 78
00000000
00000110
00000101
00000000
00001001
00000000
00000000
00000000
,  // measure 79
00000011
00000110
00000000
00001100
00001010
00000000
00011000
00110000
,  // measure 80
00000000
01100000
11000000
00000000
20020000
00000000
00000000
00000000
,  // measure 81
30030000
00000000
00000000
00000000
;
