#TITLE:Waterbed;
#SUBTITLE:;
#ARTIST:The Chainsmokers ft. Waterbed;
#TITLETRANSLIT:;
#SUBTITLETRANSLIT:;
#ARTISTTRANSLIT:;
#GENRE:;
#CREDIT:;
#BANNER:Waterbed.png;
#BACKGROUND:Waterbed-bg.png;
#LYRICSPATH:;
#CDTITLE:;
#MUSIC:Waterbed.ogg;
#OFFSET:-0.507000;
#SAMPLESTART:55.348000;
#SAMPLELENGTH:15.000000;
#SELECTABLE:YES;
#DISPLAYBPM:105.000000:210.000000;
#BPMS:0.000000=105.000000
,96.000000=210.000000
,160.000000=105.000000
;
#STOPS:
;
#BGCHANGES:;
#KEYSOUNDS:;
#ATTACKS:;

//---------------dance-single - ----------------
#NOTES:
     dance-single:
     :
     Hard:
     8:
     0.554399,0.781165,0.427743,0.396634,0.443297,499.000000,444.000000,55.000000,51.000000,0.000000,0.000000,0.554399,0.781165,0.427743,0.396634,0.443297,499.000000,444.000000,55.000000,51.000000,0.000000,0.000000:
// measure 0
0000
0000
0000
0000
,  // measure 1
0000
0000
0000
0000
,  // measure 2
2000
0000
0000
3200
0000
0000
0320
0000
0032
0000
0000
2003
0000
0000
0000
0000
,  // measure 3
3002
0000
0000
0203
0000
0000
0320
0000
2030
0000
0000
3002
0000
0000
0203
0000
,  // measure 4
0310
0000
0000
1010
0000
0000
1000
0000
1100
0000
0000
1100
0000
0000
0000
0000
,  // measure 5
0001
0000
0000
0011
0000
0000
0001
0000
0101
0000
0000
0101
0000
0000
0001
0000
,  // measure 6
0020
0000
0000
0230
0000
0000
2300
0000
3002
0000
0003
2002
0000
0000
0003
0000
,  // measure 7
3020
0000
0000
0230
0000
0000
0302
0000
2003
0000
3000
2002
0000
0000
3003
0000
,  // measure 8
0001
0000
0010
0010
0000
0100
1100
0000
,  // measure 9
0000
0000
0000
0010
0100
0000
0110
0000
0000
0000
0100
0000
0101
0000
0000
0000
,  // measure 10
0001
0000
0010
0010
0000
0010
0011
0000
,  // measure 11
1000
0000
0000
0100
0010
0000
0110
0000
0000
0000
0100
0000
1100
0000
0000
0000
,  // measure 12
2000
0000
0000
3002
0000
0000
0203
0000
0000
0000
0010
0000
0310
0000
0000
0000
,  // measure 13
0002
0000
0000
2003
0000
0000
3020
0000
0000
0000
0100
0000
0130
0000
0000
0000
,  // measure 14
0002
0000
0000
0203
1000
0000
2300
0000
0000
0000
3100
0000
0001
0000
0000
0000
,  // measure 15
2000
0000
0000
3200
0001
0000
0302
0000
0000
0000
0103
0000
1000
0000
0000
0000
,  // measure 16
1000
0000
1000
0100
1000
0000
1000
0010
1000
0000
1000
0001
1000
0000
1000
0000
,  // measure 17
0001
0000
0001
0010
0001
0000
0001
0100
0001
0000
0001
1000
0001
0000
0001
0000
,  // measure 18
0100
0000
0010
0100
0010
0000
0010
1000
0010
0000
0010
0001
0010
0000
0010
0000
,  // measure 19
1000
0000
0100
0010
0100
0000
0100
0001
0100
0000
0100
1000
0100
0000
0010
0000
,  // measure 20
0002
0010
1000
0103
,  // measure 21
2000
0010
0001
3100
,  // measure 22
1000
1000
0010
0010
0001
0001
0100
0100
,  // measure 23
1000
0100
1000
0100
0010
0001
0010
0001
0100
0001
0100
0001
1000
0000
0001
0000
,  // measure 24
1001
1001
1100
1100
,  // measure 25
1010
0101
0011
1100
,  // measure 26
0110
0110
1001
1001
,  // measure 27
0110
0000
0110
0000
0100
0010
0100
0000
,  // measure 28
0101
0101
0011
0011
,  // measure 29
1100
1001
0101
0110
,  // measure 30
1001
1001
0110
0110
,  // measure 31
1001
0000
1001
0000
1000
0001
1000
0000
,  // measure 32
0001
0010
0100
1000
0001
0010
0100
1000
,  // measure 33
0001
0100
0010
1000
0001
0100
0010
1000
,  // measure 34
0010
0000
0000
0010
0000
0010
0000
0000
,  // measure 35
0100
0000
0100
0000
0100
0010
0100
0000
,  // measure 36
1000
0100
0010
0001
1000
0100
0010
0001
,  // measure 37
1000
0010
0100
0001
1000
0010
0100
0001
,  // measure 38
0100
0000
0000
0100
0000
0100
0000
0000
,  // measure 39
0010
0000
0010
0000
0010
0100
0010
0000
,  // measure 40
0001
0010
0100
1000
0001
0010
0100
1000
0001
0100
0010
1000
0001
0100
0010
1000
,  // measure 41
0100
0010
0001
1000
0100
0010
0001
0100
0010
1000
0001
0100
0010
1000
0001
0100
,  // measure 42
0010
0100
0010
0100
0001
1000
0001
1000
0001
0100
0001
0100
0010
1000
0010
1000
,  // measure 43
0001
0100
1000
0100
0001
0010
1000
0010
0001
1000
0010
0001
0010
1000
0100
0001
,  // measure 44
0100
1000
0100
1000
0001
0100
0001
0100
0010
1000
0010
1000
0001
0010
0001
0010
,  // measure 45
0100
1000
0010
0100
0001
0010
0100
1000
0010
0100
0001
0010
0100
1000
0010
0100
,  // measure 46
0001
0100
1000
0100
0001
0100
1000
0100
0001
0010
1000
0010
0001
0010
1000
0010
,  // measure 47
0001
1000
0001
1000
0100
0010
0100
0010
0100
0000
0010
0000
1001
0000
0110
0000
,  // measure 48
1001
0000
1000
0100
0010
0000
0001
0000
0001
0010
0100
1000
0001
0000
0000
0000
,  // measure 49
0100
0000
0000
0010
0000
0010
0000
0000
0010
0000
0010
0000
0100
0010
0100
0000
,  // measure 50
0001
0000
0001
0010
0100
0000
1000
0000
1000
0100
0010
0001
1000
0000
0000
0000
,  // measure 51
0010
0010
0100
0100
0220
0330
0220
0330
,  // measure 52
1001
0000
1000
0010
0100
0000
0001
0000
0001
0100
0010
1000
0100
0000
0000
0000
,  // measure 53
0010
0000
0000
0100
0000
0100
0000
0000
0100
0000
0010
0000
0100
0010
0100
0000
,  // measure 54
0001
0000
0001
0100
0010
0000
1000
0000
1000
0010
0100
0001
0100
0000
0000
0000
,  // measure 55
1000
1000
0001
0001
2002
3003
2002
3003
,  // measure 56
2001
0000
0100
0100
0010
0000
3010
0000
,  // measure 57
1002
0000
0100
0100
0010
0000
0013
0000
,  // measure 58
0102
0000
0010
0010
0100
0000
0103
0000
,  // measure 59
2100
0000
0010
0010
0100
0000
3100
0000
,  // measure 60
0220
0000
0000
0000
0000
0000
0000
0330
;

//---------------dance-single - ----------------
#NOTES:
     dance-single:
     :
     Challenge:
     8:
     0.531067,0.781165,0.217760,0.443297,0.381080,478.000000,450.000000,28.000000,57.000000,0.000000,81.000000,0.531067,0.781165,0.217760,0.443297,0.381080,478.000000,450.000000,28.000000,57.000000,0.000000,81.000000:
0000
0000
0000
0000
,
0000
0000
0000
0000
,
2000
0000
0000
3200
0000
0000
0320
0000
0032
0000
0000
2003
0000
0000
0000
0000
,
3002
0000
0000
0203
0000
0000
0320
0000
2030
0000
0000
3002
0000
0000
0203
0000
,
0310
0000
0000
1010
0000
0000
1000
0000
1100
0000
0000
1100
0000
0000
0000
0000
,
0001
0000
0000
0011
0000
0000
0001
0000
0101
0000
0000
0101
0000
0000
0001
0000
,
0020
0000
0000
0230
0000
0000
2300
0000
3002
0000
0003
2002
0000
0000
0003
0000
,
3020
0000
0000
0230
0000
0000
0302
0000
2003
0000
3000
2002
0000
0000
3003
0000
,
0001
0000
0010
0010
0000
0100
1100
0000
,
0000
0000
0000
0010
0100
0000
0110
0000
0000
0000
0100
0000
0101
0000
0000
0000
,
0001
0000
0010
0010
0000
0010
0011
0000
,
1000
0000
0000
0100
0010
0000
0110
0000
0000
0000
0100
0000
1100
0000
0000
0000
,
2000
0000
0000
3002
0000
0000
0203
0000
0000
0000
0010
0000
0310
0000
0000
0000
,
0002
0000
0000
2003
0000
0000
3020
0000
0000
0000
0100
0000
0130
0000
0000
0000
,
0002
0000
0000
0203
1000
0000
2300
0000
0000
0000
3100
0000
0001
0000
0000
0000
,
2000
0000
0000
3200
0001
0000
0302
0000
0000
0000
0103
0000
1000
0000
0000
0000
,
1000
0000
1000
0100
1000
0000
1000
0010
1000
0000
1000
0001
1000
0000
1000
0000
,
0001
0000
0001
0010
0001
0000
0001
0100
0001
0000
0001
1000
0001
0000
0001
0000
,
0100
0000
0010
0100
0010
0000
0010
1000
0010
0000
0010
0001
0010
0000
0010
0000
,
1000
0000
0100
0010
0100
0000
0100
0001
0100
0000
0100
1000
0100
0000
0010
0000
,
0002
0010
1000
0103
,
2000
0010
0001
3100
,
1000
1000
0010
0010
0001
0001
0100
0100
,
1000
0100
1000
0100
0010
0001
0010
0001
0100
0001
0100
0001
1000
0000
0001
0000
,
2002
0100
0100
0100
,
0100
0100
0100
0100
,
0100
0100
0100
0100
,
0100
0000
0100
0000
0100
0100
0100
0000
,
0100
0100
0100
0100
,
0100
0100
0100
0100
,
0100
0100
0100
0100
,
0100
0000
0100
0000
0100
0100
0100
3003
,
1000
0001
1000
0001
1000
0001
1000
0001
,
1000
0001
1000
0001
1000
0001
1000
0001
,
1000
0001
1000
0001
1000
0001
1000
0001
,
1000
0001
1000
0001
0100
0100
0100
0000
,
0001
1000
0001
1000
0001
1000
0001
1000
,
0001
1000
0001
1000
0001
1000
0001
1000
,
0001
1000
0001
1000
0001
1000
0001
1000
,
0010
0000
0010
0000
0010
0100
0010
0000
,
0001
0010
0100
1000
0001
0010
0100
1000
0001
0100
0010
1000
0001
0100
0010
1000
,
0100
0010
0001
1000
0100
0010
0001
0100
0010
1000
0001
0100
0010
1000
0001
0100
,
0010
0100
0010
0100
0001
1000
0001
1000
0001
0100
0001
0100
0010
1000
0010
1000
,
0001
0100
1000
0100
0001
0010
1000
0010
0001
1000
0010
0001
0010
1000
0100
0001
,
0100
1000
0100
1000
0001
0100
0001
0100
0010
1000
0010
1000
0001
0010
0001
0010
,
0100
1000
0010
0100
0001
0010
0100
1000
0010
0100
0001
0010
0100
1000
0010
0100
,
0001
0100
1000
0100
0001
0100
1000
0100
0001
0010
1000
0010
0001
0010
1000
0010
,
0001
1000
0001
1000
0100
0010
0100
0010
0100
0000
0010
0000
1001
0000
0110
0000
,
2002
0100
0100
0100
0100
0100
0100
0100
,
0100
0000
0100
0000
0100
0000
0100
0000
0100
0000
0100
0000
0100
0100
0100
0000
,
0100
0100
0100
0100
0100
0100
0100
3103
,
0010
0010
0100
0100
0220
0330
0220
0330
,
2002
0100
0100
0100
0100
0100
0100
0100
,
0100
0000
0100
0000
0100
0000
0100
0000
0100
0000
0100
0000
0100
0100
0100
0000
,
0100
0100
0100
0100
0100
0100
0100
3103
,
1000
1000
0001
0001
2002
3003
2002
3003
,
2001
0000
0100
0100
0010
0000
3010
0000
,
1002
0000
0100
0100
0010
0000
0013
0000
,
0102
0000
0010
0010
0100
0000
0103
0000
,
2100
0000
0010
0010
0100
0000
3100
0000
,
0220
0000
0000
0000
0000
0000
0000
0330
;

//---------------dance-single - ----------------
#NOTES:
     dance-single:
     :
     Medium:
     6:
     0.361081,0.473433,0.217760,0.225537,0.085549,325.000000,297.000000,28.000000,29.000000,0.000000,0.000000,0.361081,0.473433,0.217760,0.225537,0.085549,325.000000,297.000000,28.000000,29.000000,0.000000,0.000000:
0000
0000
0000
0000
,
0000
0000
0000
0000
,
1000
0000
0000
1000
0000
0000
0000
0000
0001
0000
0000
0001
0000
0000
0000
0000
,
0100
0000
0000
0100
0000
0000
0000
0000
0010
0000
0000
0010
0000
0000
0000
0000
,
2000
0000
3020
0000
0130
0001
0100
0000
,
0002
0023
0130
0100
,
2000
0000
3200
0000
0310
0001
0010
0000
,
0001
0000
0000
0010
0000
0000
0100
0000
1000
0000
0000
1000
0000
0000
0000
0000
,
0001
0000
0100
0010
0000
0100
0001
0000
,
1000
0000
0010
0100
0000
0010
1000
0100
,
0010
0000
0001
0001
0000
1000
1000
0000
,
0001
0000
0100
0100
0000
0010
0010
0000
,
1000
0000
0010
0010
0000
0100
0100
0000
,
0001
0010
0100
1000
0001
0010
0100
1000
,
0020
0100
0000
0130
,
0200
0000
0010
0000
0000
0000
0310
1000
,
2100
0100
0010
3100
,
0102
0010
0100
0013
,
2001
0010
0001
3100
,
1002
1000
0010
0103
,
0200
0001
0001
0310
,
0020
1000
1000
0130
,
0002
0003
2000
3000
0020
0030
0200
0300
,
0010
0000
0010
0000
0010
0000
0010
0000
0100
0010
0100
0010
0100
0010
0100
0010
,
0100
0100
0010
0010
,
1000
1000
0001
0001
,
0101
0000
1100
0000
,
0110
0110
1001
1001
,
0010
0010
0100
0100
,
0001
0001
1000
1000
,
1010
0000
0011
0000
,
1001
1001
0110
0110
,
0001
1000
0001
1000
,
0010
0100
0010
0100
,
0010
0000
0000
1000
0000
0001
0000
0000
,
0010
0010
0100
0100
,
1000
0001
1000
0001
,
0100
0010
0100
0010
,
0100
0000
0000
0001
0000
1000
0000
0000
,
0010
0000
0010
0000
0100
0010
0100
0000
,
0001
0010
0001
0010
0100
1000
0100
1000
,
0010
0100
0010
0100
0001
1000
0001
1000
,
0100
1000
0100
1000
0001
0100
0001
0100
,
0010
1000
0100
0001
0100
1000
0010
0001
,
0010
0000
1000
1100
0000
0100
1100
0000
,
0010
0000
0001
0101
0000
0100
0101
0000
,
0100
0000
0010
0110
0000
0100
0110
0000
,
1000
0000
0001
1001
0000
1000
1001
0000
,
0000
0000
0001
0100
0001
0000
0001
0000
1000
0010
1000
0010
1000
0000
0000
0000
,
2000
0000
3200
0000
0320
0001
0031
0001
,
0100
0000
0010
1000
0010
0000
0010
0000
0100
0001
0100
0001
0100
0000
0000
0000
,
0010
0010
0100
0100
,
0010
0000
1000
0100
1000
0000
1000
0000
0001
0100
0001
0010
0001
0000
0000
0000
,
0020
0000
0230
1000
1300
0001
1001
0000
,
0100
0000
0001
0010
0001
0000
0001
0000
1000
0010
1000
0100
1000
0000
0000
0000
,
0010
0010
0100
0100
0110
0000
0110
0000
,
2000
0100
0100
3100
,
0002
0100
0100
0103
,
0020
1000
1000
1030
,
0200
0001
0001
0301
,
0220
0000
0000
0000
0000
0000
0000
0330
;

//---------------dance-single - ----------------
#NOTES:
     dance-single:
     :
     Easy:
     4:
     0.224426,0.402418,0.132211,0.303308,0.000000,202.000000,185.000000,17.000000,39.000000,0.000000,0.000000,0.224426,0.402418,0.132211,0.303308,0.000000,202.000000,185.000000,17.000000,39.000000,0.000000,0.000000:
0000
0000
0000
0000
,
0000
0000
0000
0000
,
2000
0000
0000
3000
0000
0000
0000
0000
0002
0000
0000
0003
0000
0000
0000
0000
,
0200
0000
0000
0300
0000
0000
0000
0000
0020
0000
0000
0030
0000
0000
0000
0000
,
1000
1000
0001
0001
,
0100
0100
0010
0010
,
1000
0010
1000
0010
0100
0001
0100
0001
,
1000
0001
1000
0001
0010
0100
0010
0100
,
1000
0000
1000
0000
0000
0001
0001
0000
,
0010
0000
0010
0000
0000
0100
0100
0000
,
1000
0000
0001
0000
0000
0100
0100
0000
,
0001
0000
1000
0000
0000
0010
0010
0000
,
0100
0000
0100
0100
0000
0100
0100
0000
,
0010
0000
0010
0010
0000
0010
0010
0000
,
2000
0000
0000
0000
,
3002
0000
0000
0100
,
1003
1000
0100
0100
,
0010
0001
0100
1000
,
0010
0010
0001
0001
,
0100
0100
0010
0010
,
0220
0000
0000
0000
,
0330
0000
0000
0000
,
1000
1000
0001
0001
,
0100
0100
0010
0010
0100
0010
0100
0010
,
0220
0000
0000
0330
,
2002
0000
0000
3003
,
1000
0000
1000
0000
,
0001
0000
0001
0000
,
0202
0000
0000
0303
,
2200
0000
0000
3300
,
0010
0000
0010
0000
,
0100
0000
0100
0000
,
0022
0000
0000
0033
,
2200
0000
0000
3300
,
1000
0001
1000
0001
,
0100
0010
0100
0010
,
0220
0000
0000
0330
,
2002
0000
0000
3003
,
0100
0010
0100
0010
,
1000
0001
1000
0001
,
1000
1001
0001
1001
,
0001
0101
0001
1001
,
1000
1100
1000
1001
,
0001
0110
1000
0110
,
0010
0000
0020
0000
0000
0100
0130
0000
,
0001
0000
0002
0000
0000
0010
0013
0000
,
0100
0000
0200
0000
0000
1000
1300
0000
,
1000
0000
2000
0000
0000
0001
3001
0000
,
0100
0000
0100
0000
0100
0001
0100
0000
,
0020
0000
0230
0010
,
0310
0000
0010
0000
0010
1000
0010
0000
,
1000
1000
0001
0001
,
0020
0000
0230
0000
,
1300
0000
1000
0000
1000
0100
1000
0000
,
0200
0000
0320
0000
,
0031
0001
1000
1000
,
0020
0000
0000
0000
,
0000
0000
0230
0000
,
0302
0000
0000
0000
,
0000
0000
2003
0000
,
3002
0000
0000
0000
0000
0000
0000
0003
;
