#TITLE:Switchback;
#SUBTITLE:;
#ARTIST:Jesse Cook;
#TITLETRANSLIT:;
#SUBTITLETRANSLIT:;
#ARTISTTRANSLIT:;
#GENRE:;
#CREDIT:;
#BANNER:Switchback - Jesse Cookbn.png;
#BACKGROUND:Switchback - Jesse Cookbg.png;
#LYRICSPATH:;
#CDTITLE:encorerebirth.png;
#MUSIC:Switchback - Jesse Cook.ogg;
#OFFSET:-0.019;
#SAMPLESTART:81.410;
#SAMPLELENGTH:16.271;
#SELECTABLE:YES;
#BPMS:0.000=118.000
;
#STOPS:
;
#BGCHANGES:;
#KEYSOUNDS:;
#ATTACKS:;

//---------------dance-single - Spork!----------------
#NOTES:
     dance-single:
     :
     Medium:
     6:
     0.301,0.389,0.133,0.316,0.062,199.000,16.000,38.000,0.000,0.000,0.000,0.301,0.389,0.133,0.316,0.062,199.000,16.000,38.000,0.000,0.000,0.000:
0000
0000
0000
0000
,
0000
0000
0000
0000
,
0000
0000
0000
0000
,
0000
0000
0000
0000
,
0000
0000
0000
0000
,
2002
0000
0000
0000
0000
0000
0000
3003
,
1001
0000
0000
0000
,
0101
0000
0000
0000
,
1100
0000
0000
0000
,
0000
0000
0010
0000
0000
0001
0000
0000
1000
0000
0000
0000
0110
0000
0000
0000
,
0001
0000
0010
0000
0001
0000
0100
0010
,
1000
0000
0100
0000
1000
0000
0010
0100
,
0001
0000
1000
0000
0001
0000
0010
0100
,
0000
0000
0010
0000
0000
0100
0000
0000
1000
0000
0000
0000
0101
0000
0000
0000
,
0001
0000
1000
0000
0010
0000
0010
0010
,
1000
0000
0001
0000
0010
0000
0010
0010
,
0001
0000
0100
0000
0010
0000
1000
1000
,
0001
0000
0000
0010
0000
0000
0001
0000
0000
0000
0000
0000
0100
0000
0000
0000
,
0000
0100
0010
0000
0010
1000
0001
0000
,
2002
0000
0000
3003
1001
0000
0000
0000
,
0100
0100
0100
0100
,
0000
0000
0001
0000
0000
0010
0000
0000
0100
0000
0000
1000
0000
0000
0001
0000
,
1000
0000
0000
1000
0100
0000
1000
0000
,
0000
0000
1000
0000
0000
1000
0000
0000
0001
0000
0000
0001
0000
0000
0100
0000
,
0010
0010
0010
0010
,
0000
0000
1000
0000
0000
0100
0000
0000
0010
0000
0000
0001
0000
0000
1000
0000
,
0001
0000
0010
0001
,
1000
0000
0000
1000
0000
0000
0001
0000
0000
0001
0000
0000
0100
0000
0000
0000
,
0001
0000
0010
0000
0010
0100
0000
0100
,
1000
0000
0010
0000
0010
0100
0000
0100
,
0001
1000
0001
1000
,
0010
0100
0110
0000
,
1000
0000
0100
0000
0100
0010
0000
0010
,
0001
0000
0100
0000
0100
0010
0000
0010
,
1000
0000
0000
1000
0001
0000
0000
0001
,
1000
0000
0000
0000
,
0002
0000
0203
0000
,
0302
0000
0103
0010
,
2000
0000
3200
0000
,
2300
0000
3002
0000
,
0103
0100
0010
0010
,
1000
1000
0001
0001
,
1000
0100
0010
0001
,
1000
0010
1000
0000
0001
0000
0110
0000
,
0002
0000
0000
0000
,
2003
3200
2300
3200
,
0320
0032
0023
0032
,
0103
0100
0100
0110
,
2000
3020
0230
0302
,
0023
0032
2003
3200
,
0320
0230
2300
3020
,
0130
0000
0010
0100
,
0101
0000
0000
0000
0001
0000
0000
0000
1001
0000
0000
0000
0000
0001
0000
1000
,
0000
0100
0000
0000
0010
0000
0100
0000
,
1100
0000
0000
0000
1000
0000
0000
0000
1001
0000
0000
0000
0000
0001
0000
1000
,
0000
0010
0000
0000
0100
0000
0002
0000
,
0023
0230
2300
3001
,
2002
0000
0000
3003
,
0100
0100
0100
0100
0000
0000
0000
0000
;

//---------------dance-single - Spork!----------------
#NOTES:
     dance-single:
     :
     Hard:
     8:
     0.400,0.486,0.167,0.275,0.267,283.000,20.000,33.000,0.000,0.000,0.000,0.400,0.486,0.167,0.275,0.267,283.000,20.000,33.000,0.000,0.000,0.000:
0000
0000
0000
0000
,
0000
0000
0000
0000
,
0000
0000
0000
0000
,
0000
0000
0000
0000
,
0000
0000
0000
0000
,
2002
0000
0000
0000
0000
0000
0000
3003
,
1001
0010
1000
0010
,
1001
0100
0001
0100
,
1001
0010
0001
1000
,
0000
0000
0010
0000
0000
1000
0000
0000
0001
0000
0010
0000
0001
0000
0000
0000
,
1000
0000
0000
0000
0100
0000
0000
0100
0000
0000
0010
0000
1000
0000
0010
0000
,
0001
0000
0000
0000
0100
0000
0000
0100
0000
0000
0010
0000
0001
0000
0010
0000
,
1000
0000
0000
0000
0100
0000
0000
0100
0000
0000
1000
0000
0010
0000
0100
0000
,
0000
0000
0001
0000
0000
1000
0000
0000
0100
0000
1000
0000
0001
0000
0000
0000
,
1000
0000
0000
0000
0010
0000
0000
1010
0000
0000
1000
0000
0100
0000
0010
0000
,
0001
0000
0000
0000
0100
0000
0000
0101
0000
0000
0001
0000
0010
0000
0100
0000
,
1000
0000
0000
0000
0010
0000
0000
0110
0000
0000
0100
0000
0001
0000
0001
0000
,
1000
0000
0000
0100
0000
0000
0001
0000
0000
0000
0000
0000
1000
0000
0000
0000
,
0000
0010
0001
0001
0100
0010
1000
0100
,
2002
0000
0000
0000
3003
0000
0000
0100
,
0010
0010
0010
1100
,
0010
0000
1000
0000
0000
0001
0000
0000
0100
0000
0000
0010
0000
0000
0010
0000
,
0001
0000
0000
0000
0000
0000
0010
0000
1000
0000
0000
0100
0000
0000
0100
0000
,
0000
0000
0001
0000
0000
0100
0000
0000
1000
0000
0000
1000
0001
0000
0010
0000
,
0100
0100
0100
1010
,
0100
0000
0001
0000
0000
1000
0000
0000
0010
0000
0000
0100
0000
0000
0100
0000
,
1000
0000
0000
0000
0000
0000
0100
0000
0001
0000
0000
0010
0000
0000
0010
0000
,
0100
0000
0000
1000
0000
0000
0010
0000
0000
0100
0000
0000
0001
0000
0000
0000
,
1000
0000
0000
1000
0000
0000
1000
0000
0100
0000
0101
0000
0000
0000
0010
0000
,
0001
0000
0000
0001
0000
0000
0001
0000
0100
0000
1100
0000
0000
0000
0010
0000
,
1000
0000
0000
0100
0000
0000
0001
0000
0000
0100
0000
0000
1000
0000
0000
0000
,
1000
0000
0000
0010
0000
0000
0100
0000
0001
0000
0000
0000
0000
0000
0000
0000
,
0001
0000
0000
0001
0000
0000
0001
0000
0010
0000
1010
0000
0000
0000
0100
0000
,
1000
0000
0000
1000
0000
0000
1000
0000
0010
0000
0011
0000
0000
0000
0100
0000
,
0001
0000
0000
0100
1000
0000
0000
0100
,
0001
1000
0001
0100
,
2001
0000
0020
0030
,
0002
0003
3200
1300
,
1002
0000
0020
0030
,
2000
0000
0000
0003
0200
0000
3000
0000
,
1300
0000
1000
0001
0000
0001
0100
0000
0100
0001
0000
0001
0010
0000
0010
0001
,
0000
0001
0100
0000
0100
1000
0000
1000
0100
0000
0100
0001
0000
0000
0001
0000
,
1000
0010
0000
1000
0010
0000
1000
0100
0000
1000
0100
0000
0000
1000
0000
0000
,
0010
0000
1000
0000
0100
0010
0000
0001
0010
0000
0001
1000
0000
0001
0000
0000
,
0020
0000
0100
0100
,
0032
0203
0320
0032
,
0203
0302
0023
2030
,
3100
0010
0001
0100
0010
1000
0001
0000
,
2000
3200
0320
2030
,
3200
2300
3020
0032
,
0203
0320
2030
3002
,
1003
0000
0000
0000
0000
0000
0000
0000
0000
0000
0000
0001
0000
0010
0001
0010
,
0001
0000
0000
0000
1000
0001
1000
0001
1000
0000
0000
0000
0000
0010
0000
1000
,
0000
1000
0001
0000
0000
0000
0000
0000
0100
0000
0000
0000
0010
0100
0010
0100
,
0010
0000
0000
0000
0000
0000
0000
0000
0000
0000
0000
0000
1000
0000
0000
0000
0100
0000
0000
0000
1000
0000
0000
0000
0100
0000
0000
0000
0000
0000
0000
0000
0000
0000
0000
0000
0000
0000
0000
0010
0000
0000
0000
0000
0000
0001
0000
0000
,
0000
0001
1000
0000
0000
0000
0000
0000
0010
0000
0000
0000
1000
0000
0000
1000
,
0001
0000
0000
0001
0100
0000
0000
0100
0010
0000
0000
0010
1000
0000
0000
1000
,
0001
0010
0001
0001
0100
0010
1000
0100
,
1001
1001
1001
1001
0000
0000
0000
0000
;

//---------------pump-single - ----------------
#NOTES:
     pump-single:
     :
     Hard:
     4:
     0.082,0.098,0.058,0.000,0.117,62.000,7.000,0.000,0.000,0.000,0.000,0.082,0.098,0.058,0.000,0.117,62.000,7.000,0.000,0.000,0.000,0.000:
00000
00000
00000
00000
,
00000
00000
00000
00000
,
00000
00000
00000
00000
,
00000
00000
00000
00000
,
00000
00000
00000
00000
,
10100
00000
00000
00010
00100
00010
00100
00010
00100
00010
00100
00010
00100
00010
00100
00010
00100
00010
00100
00010
00100
00010
00000
00000
,
01100
00000
00000
00000
00001
00010
00100
01000
00010
00100
01000
10000
00010
00000
01000
00000
,
00110
00000
00000
00000
10000
01000
00100
00010
01000
00100
00010
00001
01000
00000
00010
00000
,
01100
00000
00000
00000
00010
01000
00001
00010
00001
00100
00010
10000
00001
00000
10000
00000
,
00010
00000
10100
00000
00000
00101
00000
00000
01010
00100
00001
01000
00010
10000
00000
00000
;

//---------------pump-double - ----------------
#NOTES:
     pump-double:
     :
     Hard:
     1:
     0.143,0.486,0.125,0.017,0.054,100.000,15.000,2.000,0.000,2.000,0.000,0.143,0.486,0.125,0.017,0.054,100.000,15.000,2.000,0.000,2.000,0.000:
0000000000
0000000000
0000000000
0000000000
,
0000000000
0000000000
0000000000
0000000000
,
0000000000
0000000000
0000000000
0000000000
,
0000000000
0000000000
0000000000
0000000000
,
0000000000
0000000000
0000000000
0000000000
,
0000011000
0000022000
0000000000
0000000000
0000000000
0000000000
0000000000
0000033000
,
0000011000
0000000000
0000000000
0000000000
0000010000
0000000000
0000010000
0000100000
0000000000
0000100000
0010000000
0000000000
1000000000
0000000000
0100000000
0000000000
,
1100000000
0000000000
0000000000
0000000000
0100000000
0000000000
0100000000
1000000000
0000000000
1000000000
0010000000
0000000000
0001000000
0000000000
0000100000
0000000000
,
0001100000
0000000000
0000000000
0000000000
0001000000
0000000000
0001000000
0000001000
0000000000
0000001000
0000000100
0000000000
0000000010
0000000000
0000000001
0000000000
,
0000000000
0000000000
0000000011
0000000000
0000000000
0000000110
0000000000
0000000000
0000011100
0000000000
0000000000
0000010000
0001000000
0000010000
0000000000
0000000000
,
0000110000
0000000000
0000100000
0000000000
0001000000
0000000000
0001000000
0010000000
0000000000
0010000000
0000100000
0000000000
0000100000
0000000000
0001000000
0000000000
,
0001100000
0000000000
0000100000
0000000000
0001000000
0000000000
0001000000
0000001000
0000000000
0000001000
0000000100
0000000000
0000001000
0000000000
0001000000
0000000000
,
0001001000
0000000000
0000000000
0000000000
,
0100000000
0000000000
0000000000
0000000000
,
0000110000
0000000000
0000000000
0000000000
,
0001000000
0000000000
0000000000
0000000000
,
0010000000
0000000000
0000000000
0000000000
,
0100000000
0000000000
0000000000
0000000000
,
0010000000
0000000000
0000000000
0000000000
,
0001000000
0000000000
0000000000
0000000000
,
0010000000
0000000000
0000000000
0000000000
,
0100000000
0000000000
0000000000
0000000000
,
0010000000
0000000000
0000000000
0000000000
,
0001000000
0000000000
0000000000
0000000000
,
0010000000
0000000000
0000000000
0000000000
,
0100000000
0000000000
0000000000
0000000000
,
0010000000
0000000000
0000000000
0000000000
,
0001000000
0000000000
0000000000
0000000000
,
0010000000
0000000000
0000000000
0000000000
,
0100000000
0000000000
0000000000
0000000000
,
0010000000
0000000000
0000000000
0000000000
,
0001000000
0000000000
0000000000
0000000000
,
0010000000
0000000000
0000000000
0000000000
,
0100000000
0000000000
0000000000
0000000000
,
0010000000
0000000000
0000000000
0000000000
,
0001000000
0000000000
0000000000
0000000000
,
0010000000
0000000000
0000000000
0000000000
,
0100000000
0000000000
0000000000
0000000000
,
0010000000
0000000000
0000000000
0000000000
,
0001000000
0000000000
0000000000
0000000000
,
0010000000
0000000000
0000000000
0000000000
,
0100000000
0000000000
0000000000
0000000000
,
0010000000
0000000000
0000000000
0000000000
,
0001000000
0000000000
0000000000
0000000000
,
0010000000
0000000000
0000000000
0000000000
,
0100000000
0000000000
0000000000
0000000000
,
0010000000
0000000000
0000000000
0000000000
,
0001000000
0000000000
0000000000
0000000000
,
0010000000
0000000000
0000000000
0000000000
,
0100000000
0000000000
0000000000
0000000000
,
0010000000
0000000000
0000000000
0000000000
,
0001000000
0000000000
0000000000
0000000000
,
0010000000
0000000000
0000000000
0000000000
,
0100000000
0000000000
0000000000
0000000000
,
0010000000
0000000000
0000000000
0000000000
,
0001000000
0000000000
0000000000
0000000000
,
0010000000
0000000000
0000000000
0000000000
,
0100000000
0000000000
0000000000
0000000000
,
0010000000
0001100000
0000011000
0001111000
0000000000
0000000000
0000000000
0000000000
;

//---------------dance-single - Spork!----------------
#NOTES:
     dance-single:
     :
     Beginner:
     1:
     0.084,0.121,0.050,0.025,0.000,62.000,6.000,3.000,0.000,0.000,0.000,0.084,0.121,0.050,0.025,0.000,62.000,6.000,3.000,0.000,0.000,0.000:
0000
0000
0000
0000
,
0000
0000
0000
0000
,
0000
0000
0000
0000
,
0000
0000
0000
0000
,
0000
0000
0000
0000
,
0000
0000
0000
0000
,
1000
0000
0000
0000
,
1000
0000
0000
0000
,
1000
0000
0000
0000
,
0000
0000
0000
0000
,
0001
0000
0000
0000
,
0001
0000
0000
0000
,
0001
0000
0000
0000
,
0000
0000
0000
0000
,
0100
0000
0000
0000
,
0100
0000
0000
0000
,
0100
0000
0000
0000
,
0000
0000
0000
0000
,
0010
0000
0000
0000
,
2002
0000
3003
0000
,
0001
0000
0000
0000
,
0100
0000
0010
0000
,
1000
0000
0000
0000
,
1000
0000
0001
0000
,
0001
0000
0000
0000
,
1000
0000
0100
0000
,
0010
0000
0000
0000
,
0010
0000
0000
0000
,
1001
0000
0000
0000
,
1001
0000
0000
0000
,
0010
0000
0000
0000
,
0010
0000
0000
0000
,
1001
0000
0000
0000
,
1001
0000
0000
0000
,
0100
0000
0100
0000
,
0100
0000
0000
0000
,
1000
0000
0000
0000
,
1000
0000
0000
0000
,
0001
0000
0000
0000
,
0002
0000
0003
0000
,
0001
0000
0000
0000
,
0100
0000
0000
0000
,
0010
0000
1000
0000
,
0001
0000
1000
0000
,
0100
0000
0000
0000
,
0010
0000
0100
0000
,
1000
0000
0001
0000
,
0100
0000
0000
0000
,
0100
0000
0010
0000
,
0100
0000
0100
0000
,
0001
0000
1000
0000
,
0100
0000
0000
0000
,
0100
0000
0100
0000
,
0000
0000
0000
0000
,
0010
0000
0010
0000
,
0000
0000
0000
0000
,
0001
0000
1000
0000
,
0001
0000
0000
0000
,
0110
0000
0000
0000
;

//---------------dance-single - Spork!----------------
#NOTES:
     dance-single:
     :
     Easy:
     2:
     0.144,0.193,0.067,0.067,0.000,105.000,8.000,8.000,0.000,0.000,0.000,0.144,0.193,0.067,0.067,0.000,105.000,8.000,8.000,0.000,0.000,0.000:
0000
0000
0000
0000
,
0000
0000
0000
0000
,
0000
0000
0000
0000
,
0000
0000
0000
0000
,
0000
0000
0000
0000
,
2002
0000
0000
3003
,
1001
0000
0000
0000
,
1001
0000
0000
0000
,
1001
0000
0000
0000
,
0100
0000
0100
0000
,
0001
0000
0010
0000
,
0001
0000
0100
0000
,
0001
0000
1000
0000
,
0001
0000
0001
0000
,
1000
0000
0010
0000
,
1000
0000
0100
0000
,
1000
0000
0001
0000
,
1000
0000
1000
0000
,
0010
0000
0100
0000
,
2002
0000
3003
0000
,
1000
0000
0000
0000
,
0100
0000
1000
0000
,
0010
0000
0100
0000
,
0100
0000
0001
0000
,
0010
0000
0000
0000
,
0010
0000
0001
0000
,
0100
0000
0010
0000
,
0010
0000
1000
0000
,
0100
0100
0100
0000
,
0010
0010
0010
0000
,
0001
0000
0100
0000
,
0010
0000
1000
0000
,
0010
0010
0010
0000
,
0100
0100
0100
0000
,
0001
0000
0001
0000
,
0001
0000
0000
0000
,
1000
0000
0100
0000
,
0010
0000
0010
0000
,
0001
0000
0100
0000
,
0010
0000
1001
0000
,
0010
0000
0010
0000
,
0100
0000
0100
0000
,
0001
0000
0010
0000
,
0100
0000
1000
0000
,
0002
0000
0000
0000
,
1000
0000
1000
0000
,
0100
0000
0013
0000
,
0001
0000
1000
0000
,
2000
0000
0001
0000
,
0010
0000
0100
0000
,
3100
0000
1000
0000
,
0001
0000
0000
0010
,
0100
0010
0100
0000
,
1000
0000
0000
0100
,
0010
0100
0010
0000
,
0001
0000
0000
0001
,
0001
1000
1000
0001
,
2002
0000
0000
3003
,
1001
0000
0000
0000
;

//---------------dance-single - Spork!----------------
#NOTES:
     dance-single:
     :
     Challenge:
     12:
     0.889,1.000,0.566,0.083,1.000,669.000,68.000,10.000,4.000,0.000,0.000,0.889,1.000,0.566,0.083,1.000,669.000,68.000,10.000,4.000,0.000,0.000: // measure 0
0000
0000
0000
0000
,  // measure 1
0000
0000
0000
0000
,  // measure 2
0000
0000
0000
0000
,  // measure 3
0000
0000
0000
0000
,  // measure 4
0000
0000
0000
0000
0000
0000
0010
1000
0100
0010
0001
0100
,  // measure 5
1001
0000
0000
0001
1000
0001
1000
0001
1000
0001
1000
0001
1000
0001
1000
0001
1000
0001
1000
0001
1000
0001
0000
0000
,  // measure 6
1001
0000
0000
0000
1000
0100
1000
0010
0100
0001
0010
0100
1000
0100
0010
0000
,  // measure 7
0110
0000
0000
0000
0001
0010
0001
0100
0010
1000
0100
0000
0011
0000
1001
0000
,  // measure 8
0101
0000
0000
0000
0010
0100
0010
1000
0100
1000
0001
0000
0100
0000
0010
0000
,  // measure 9
1010
0000
1000
0000
0100
0010
0000
0001
0010
0100
1000
0001
0100
1000
0000
0000
,  // measure 10
0101
0000
0100
0010
1000
0100
0010
0001
0000
0001
0010
0100
0001
0100
1000
0000
,  // measure 11
1001
0000
0000
0000
0001
0100
0010
1000
0000
0000
0100
0000
1100
0000
0110
0000
,  // measure 12
0011
0000
0000
0000
0100
0010
0100
0001
0000
0000
0010
0001
1000
0000
0001
0000
,  // measure 13
0000
0000
1100
0000
0000
0101
0000
0001
1000
0010
0100
0001
0010
1000
0000
0000
,  // measure 14
0011
0000
0001
0000
0100
0001
0010
0100
0000
0100
1000
0000
1010
0000
0110
0000
,  // measure 15
1001
0000
1000
0000
0010
1000
0100
0010
0000
0010
0001
0000
0101
0000
1100
0000
,  // measure 16
0101
0000
0100
0000
0010
0100
0001
0010
0000
0010
0100
0000
1000
0000
0010
0000
,  // measure 17
0100
0000
0001
0100
0001
0000
1000
0000
0001
1000
0001
0000
0010
0000
0000
0000
0100
0000
0000
0000
0000
0000
0100
0000
0010
0000
0100
0000
1000
0000
0000
0000
,  // measure 18
0001
0011
0101
1001
0110
1010
1100
1001
,  // measure 19
0101
0000
0000
0100
0010
0100
0010
0100
0010
0100
0010
0100
0010
0000
0000
0000
0000
0000
0000
0000
0000
0010
0000
0000
,  // measure 20
1001
0000
1000
0010
0100
0000
0010
1000
0100
0000
0010
0100
1000
0000
0100
1000
,  // measure 21
0001
0000
1001
0000
0000
0011
0000
0000
1010
0000
0000
1100
0000
0000
0101
0000
,  // measure 22
1001
0000
0001
0010
0100
0000
0010
0000
0011
0000
0000
0101
0000
0000
0110
0000
,  // measure 23
0100
0000
0010
1000
0001
0000
0010
0001
1000
0000
0000
1001
0010
0000
0100
0000
,  // measure 24
1000
0000
0001
0100
0010
0000
0100
0001
0010
0000
0100
0010
0001
0000
0100
0010
,  // measure 25
1000
0000
1010
0000
0000
1100
0000
0000
0101
0000
0000
0011
0000
0000
1010
0000
,  // measure 26
0110
0000
0100
0001
0010
0000
0100
0000
1100
0000
0000
0110
0000
0000
0011
0000
,  // measure 27
0101
0000
0000
1100
0000
0000
0101
0000
0000
1001
0000
0000
0110
0000
0000
0000
,  // measure 28
0021
0000
0000
0100
0000
0000
1000
0000
0100
0000
0031
0000
1000
0000
0110
0000
,  // measure 29
1020
0000
0000
0000
0000
0000
0000
0000
0000
0100
0000
0000
0000
0000
0000
0000
0000
0000
0001
0000
0000
0000
0000
0000
0100
0000
0000
0000
0000
0000
1030
0000
0000
0000
0000
0000
0001
0000
0000
0000
0000
0000
1000
0000
0001
0000
1000
0000
,  // measure 30
0200
0000
0000
1000
0000
0000
0010
0000
0000
0001
0000
0000
0310
0000
0010
0001
,  // measure 31
0200
0000
0000
0001
0000
0000
0010
0000
1000
0000
0300
0000
0110
0000
0010
1000
,  // measure 32
0002
0000
0000
0020
0003
0000
1000
0000
0100
0000
0031
0000
0010
0000
0001
0000
,  // measure 33
2000
0000
0000
0000
0000
0000
0000
0000
0000
0020
0000
0000
3000
0000
0000
0000
0000
0000
0001
0000
0000
0000
0000
0000
0100
0000
0000
0000
0000
0000
1030
0000
0000
0000
0000
0000
0010
0000
0000
0000
0000
0000
0100
0000
0001
0000
1000
0000
,  // measure 34
0200
0000
0000
0010
0000
0000
0310
0000
0000
0010
0001
1000
0020
0000
0000
0100
0000
0000
0130
0000
0000
0100
0001
1000
,  // measure 35
0100
0000
0000
0100
0000
0000
1000
0000
0000
1000
0000
0000
0001
0000
0000
0001
0000
0000
1000
0001
1000
0001
1000
0001
,  // measure 36
1000
0000
0010
1000
0000
0100
1000
0010
0100
0000
0010
1000
0000
0100
1000
0001
,  // measure 37
0010
0000
0100
0010
0000
0001
0100
0010
1000
0000
0001
1000
0000
1000
0001
0000
,  // measure 38
1001
0000
0001
0010
0100
0010
0001
0000
0100
0000
0010
1000
0000
0100
1000
0000
,  // measure 39
0001
0000
0100
0000
1000
0000
0100
0000
0001
0000
1000
0000
0100
00M0
0100
0000
0001
0000
0010
0000
1000
0000
0010
0000
0001
0000
1000
0000
0010
0M00
0010
0000
,  // measure 40
0001
0000
0100
0001
0000
0010
0001
0000
1000
0001
0000
0001
1000
0000
0010
1000
,  // measure 41
0000
0100
1000
0000
0001
1000
0000
0010
0100
0000
0001
0010
0000
0000
0110
0000
,  // measure 42
0100
0000
1000
0000
0000
0000
0010
0000
0100
0000
0000
0000
0001
0000
0010
0000
0000
0000
0001
0000
1000
0000
0000
0000
0000
0000
1000
0010
1000
0010
0100
0000
,  // measure 43
0010
1000
0100
1000
0010
0100
0000
0100
0001
1000
0001
0010
0000
0100
1000
0010
,  // measure 44
1000
0100
1000
0100
1000
0100
1000
0100
1000
0100
1000
0100
1000
0100
1000
0100
1000
0100
1000
0100
1000
0100
1000
0100
,  // measure 45
0010
0001
0010
0001
0010
0001
0100
0010
0100
0010
0100
0010
1000
0001
1000
0001
1000
0001
0010
0100
0010
0100
0010
0100
,  // measure 46
1000
0010
1000
0010
1000
0010
0100
0001
0100
0001
0100
0001
0010
0100
0010
0100
0010
0100
1000
0001
1000
0001
1000
0001
,  // measure 47
1000
0100
1000
0010
0100
0001
0010
0100
1000
0010
0100
0001
1000
0010
1000
0100
0010
0001
0100
0000
0000
0000
0000
0000
,  // measure 48
0001
0100
0001
0100
0001
0100
0010
0100
0010
0100
0010
0100
0010
1000
0010
1000
0010
1000
0001
1000
0001
1000
0001
1000
,  // measure 49
0100
1000
0100
1000
0100
1000
0100
0010
0100
0010
0100
0010
0001
0010
0001
0010
0001
0010
0001
1000
0001
1000
0001
1000
,  // measure 50
0010
1000
0010
1000
0010
1000
0010
0100
0010
0100
0010
0100
0001
0100
0001
0100
0001
0100
0001
0010
0001
0010
0001
0010
,  // measure 51
0100
0000
0100
1000
0000
0100
1000
0001
0000
1000
0001
0100
0000
0100
0010
0100
,  // measure 52
0001
0000
0000
0000
0000
0000
0000
0000
0000
0000
0000
0000
0101
0000
0000
0000
0001
0000
0000
0000
1000
0000
0000
0000
1100
0000
0000
0000
0000
0000
0100
0000
0000
0000
0000
0000
1000
0000
0000
0010
0000
0000
0000
0000
0000
0100
0000
0000
,  // measure 53
0000
0000
0100
0000
0001
0000
1000
0001
1000
0000
0000
0000
0010
0000
0000
0000
1000
0000
0000
0000
0100
0000
0000
0000
0010
0000
0100
0000
1000
0000
0001
0000
,  // measure 54
0100
0000
0000
0000
0000
0000
0010
0000
0000
0000
0000
0000
1010
0000
0000
0000
1000
0000
0000
0000
0001
0000
0000
0000
0011
0000
0000
0000
0000
0000
0010
0000
0000
0000
0000
0000
0001
0000
0000
0100
0000
0000
0000
0000
0000
0010
0000
0000
,  // measure 55
0000
0000
0000
0010
0000
0000
0100
0000
0000
0000
0000
0000
0001
0000
0000
0000
0000
0000
0100
0000
0000
0001
0000
0000
1000
0000
0000
0000
0000
0000
0000
0000
0000
0001
0000
0000
0010
0000
0001
0000
0010
0000
0001
0000
0010
0000
0001
0000
,  // measure 56
0100
0010
0100
0010
0100
0010
1000
0100
1000
0100
1000
0100
0010
0001
0010
0001
0010
0001
1000
0010
1000
0010
1000
0010
,  // measure 57
1000
0000
0100
0000
0001
0000
0100
0000
1000
0000
0001
0000
0100
00M0
0100
0000
1000
0000
0010
0000
0001
0000
0010
0000
1000
0000
0001
0000
0010
0M00
0010
0000
,  // measure 58
1010
1001
0011
1001
0000
0000
0000
0000
;
