#TITLE:Pra Frente;
#SUBTITLE:;
#ARTIST:Ivete Sangalo;
#TITLETRANSLIT:;
#SUBTITLETRANSLIT:;
#ARTISTTRANSLIT:;
#GENRE:;
#CREDIT:;
#BANNER:Pra Frente-banner.png;
#BACKGROUND:Pra Frente.png;
#LYRICSPATH:;
#CDTITLE:;
#MUSIC:Pra Frente.ogg;
#OFFSET:-1.089000;
#SAMPLESTART:39.774723;
#SAMPLELENGTH:13.000000;
#SELECTABLE:YES;
#BPMS:0.000000=175.000000
;
#STOPS:
;
#BGCHANGES:;
#KEYSOUNDS:;
#ATTACKS:;

//---------------dance-single - ----------------
#NOTES:
     dance-single:
     :
     Hard:
     9:
     0.641891,0.567726,0.170014,0.072863,0.097151,350.000000,14.000000,6.000000,0.000000,0.000000,0.000000,0.641891,0.567726,0.170014,0.072863,0.097151,350.000000,14.000000,6.000000,0.000000,0.000000,0.000000:
0000
0000
0000
0000
,
0000
0000
0000
0000
,
0000
0000
0000
0000
,
0000
0000
0000
0000
,
1000
0001
0100
1000
0100
0010
1000
0100
,
0020
0000
1000
1000
0000
0001
0031
0000
,
1000
0001
0100
0001
1000
0100
0001
0100
,
1000
0000
0001
1000
0000
0001
1000
0000
,
0001
1000
0100
0001
0100
0010
0001
0100
,
0020
0000
0001
0001
0000
1000
1030
0000
,
0001
1000
0100
0010
0100
1000
0100
0010
,
0001
1000
0010
0010
0010
0000
0000
0000
,
1001
0000
0000
1000
0001
0000
0100
0000
0010
0000
1000
0000
0001
0000
1000
0000
,
0001
0000
0000
0001
1000
0000
0100
0000
0001
0000
0100
0000
0010
0000
0001
0000
,
1000
0000
0000
1000
0001
0000
0100
0000
1000
0000
0100
0000
0010
0000
1000
0000
,
0001
0000
0000
0001
1000
0000
0100
0000
0010
0000
0001
0000
1000
0000
0001
0000
,
1000
0010
0100
0001
0010
0100
1000
0010
,
0100
0000
0000
0100
0001
0000
0010
0000
0100
0000
0001
0000
0100
0000
1000
0000
,
0001
0000
0000
0001
1000
0000
0010
0000
1000
0000
0010
0000
0001
0000
0010
0000
,
1000
0000
0000
1000
0000
0000
1000
0000
0001
0000
0100
0000
1000
0000
0100
0000
,
0001
0010
0100
1000
0010
0100
0001
0010
,
0100
0000
0000
0100
1000
0000
0010
0000
0100
0000
1000
0000
0100
0000
0001
0000
,
1000
0000
0000
1000
0001
0000
0010
0000
0001
0000
0010
0000
1000
0000
0010
0000
,
0001
0000
0000
0001
0000
0000
0001
0000
1000
0000
0100
0000
0001
0000
0100
0000
,
1000
0000
0000
1000
0001
0000
0100
0000
0010
0000
1000
0000
0100
0000
1000
0000
,
0200
0001
0010
1300
,
1001
0000
0000
0001
1000
0000
0100
0000
0010
0000
0001
0000
0100
0000
0001
0000
,
0200
0000
0000
0010
0010
0010
0010
0010
,
0310
0000
1000
0100
0000
0100
0010
0000
,
1001
0000
0001
0100
0000
0100
0010
0000
,
1001
0000
1000
0100
0001
0010
1000
0000
,
1001
0000
0001
0100
1000
0010
0001
0000
,
1001
0000
0001
1000
0000
1000
0100
0000
,
1001
0000
1000
0001
0000
0001
0100
0000
,
1001
0000
0001
0100
1000
0010
0001
0000
,
1001
0000
1000
0100
1000
0001
1000
0010
,
1000
0000
0001
0100
1000
0001
0010
1000
,
0001
0000
0000
0001
1000
0000
0100
0000
0001
0000
1000
0000
0010
0000
0001
0000
,
1000
0000
0000
1000
0001
0000
0100
0000
1000
0000
0010
0000
0001
0000
0000
0000
,
1001
0000
1000
0100
0001
0010
1000
0000
,
1001
0000
1000
0100
0001
1000
0010
0001
,
1000
0000
0000
1000
0001
0000
0100
0000
1000
0000
0001
0000
0010
0000
1000
0000
,
0001
0000
0000
0001
1000
0000
0100
0000
0001
0000
0010
0000
1000
0000
0000
0000
,
1001
0000
0001
0100
0001
1000
0001
0010
,
0001
1000
0100
0001
0100
0010
0001
0100
,
0020
0000
0001
0001
0000
1000
1030
0000
,
0001
1000
0100
1000
0001
0100
1000
0100
,
0001
0000
1000
0001
0000
1000
0001
0000
,
1000
0001
0100
1000
0100
0010
1000
0100
,
0020
0000
1000
1000
0000
0001
0031
0000
,
1000
0001
0100
0010
0100
0001
0100
0010
,
1000
0001
0010
0010
0010
0000
1001
0000
,
0001
1000
0010
0010
0010
0000
1001
0000
,
1000
0100
0010
0001
0010
0100
0010
0001
,
1000
0100
0001
0100
1000
0001
1000
0001
,
1000
0000
0000
0000
;

//---------------dance-single - ----------------
#NOTES:
     dance-single:
     :
     Medium:
     7:
     0.581171,0.500935,0.497899,0.218590,0.000000,276.000000,41.000000,18.000000,0.000000,0.000000,0.000000,0.581171,0.500935,0.497899,0.218590,0.000000,276.000000,41.000000,18.000000,0.000000,0.000000,0.000000:
0000
0000
0000
0000
,
0000
0000
0000
0000
,
0000
0000
0000
0000
,
0000
0000
0000
0000
,
1002
0100
2003
0100
,
3020
0000
0001
0001
0000
1000
1030
0000
,
0001
1000
0100
0000
1000
0001
0100
0000
,
1001
0000
1000
0001
0000
0001
1000
0000
,
2001
0100
3002
0100
,
0023
0000
1000
1000
0000
0001
0031
0000
,
1000
0001
0100
0000
0001
1000
0100
0000
,
1000
0001
0100
0001
1000
0000
0000
0000
,
1001
0000
0001
1000
0100
0000
0110
0000
,
1001
0000
1000
0001
0100
0000
0110
0000
,
1001
0000
1000
0100
0001
0000
0110
0000
,
1001
0000
0001
0100
1000
0000
0110
0000
,
1001
0000
0001
1000
0000
1000
0100
1000
,
0001
0010
0100
0001
0100
1000
0001
0000
,
1001
0000
0001
1000
0010
1000
0001
0000
,
1001
0100
1001
0010
,
1001
0000
1000
0001
0000
0001
0100
0001
,
1000
0010
0100
1000
0100
0001
1000
0000
,
1001
0000
1000
0001
0010
0001
1000
0000
,
1001
0100
1001
0010
,
2001
0100
3002
0010
,
0203
1000
0010
0301
,
1002
0100
2003
0010
,
3200
0000
0000
0010
0010
0010
0010
0010
,
0310
0000
0001
1000
0000
1000
0100
0000
,
1001
0000
1000
0001
0000
0001
0100
0000
,
1001
0000
0001
1000
0100
1000
0001
0000
,
1001
0000
0001
1000
0100
1000
0001
0000
,
1001
0000
1000
0100
0000
1000
0001
0000
,
1001
0000
0001
0100
0000
0001
1000
0000
,
1001
0000
0001
0100
1000
0010
0001
0000
,
1001
0000
1000
0001
1000
0001
1000
0000
,
1001
0000
1000
0001
0000
0001
0100
0000
,
1001
0000
0001
1000
0000
1000
0100
0000
,
1001
0000
1000
0001
0100
0001
1000
0000
,
1001
0000
1000
0001
0100
0001
1000
0000
,
1001
0000
0001
0100
0000
0001
1000
0000
,
1001
0000
1000
0100
0000
1000
0001
0000
,
1001
0000
1000
0100
0001
0010
1000
0000
,
1001
0000
0001
1000
0001
1000
0001
0000
,
2001
0100
3002
0100
,
0023
0000
1000
1000
0000
0001
0031
0000
,
1000
0001
0100
0000
0001
1000
0100
0000
,
1001
0000
0001
1000
0000
1000
0001
0000
,
1002
0100
2003
0100
,
3020
0000
0001
0001
0000
1000
1030
0000
,
0001
1000
0100
0000
1000
0001
0100
0000
,
0001
1000
0100
1000
0001
0000
1001
0000
,
1000
0001
0100
0001
1000
0000
1001
0000
,
0001
1000
0100
1000
0001
0100
1000
0100
,
0001
1000
0100
0010
0001
1000
0001
1000
,
0001
0000
0000
0000
;

//---------------dance-single - ----------------
#NOTES:
     dance-single:
     :
     Easy:
     5:
     0.447589,0.467539,0.400748,0.267165,0.000000,203.000000,33.000000,22.000000,0.000000,0.000000,0.000000,0.447589,0.467539,0.400748,0.267165,0.000000,203.000000,33.000000,22.000000,0.000000,0.000000,0.000000:
// measure 0
0000
0000
0000
0000
,  // measure 1
0000
0000
0000
0000
,  // measure 2
0000
0000
0000
0000
,  // measure 3
0000
0000
0000
0000
,  // measure 4
2001
0100
0001
0010
,  // measure 5
3002
0100
0000
0103
,  // measure 6
1002
0100
1000
0010
,  // measure 7
2003
0100
0000
3100
,  // measure 8
2001
0100
0001
0010
,  // measure 9
3002
0100
0000
0103
,  // measure 10
1002
0100
0023
1000
,  // measure 11
0031
1000
0001
1000
0001
0000
0000
0000
,  // measure 12
1001
1000
0001
0100
,  // measure 13
1001
0001
1000
0100
,  // measure 14
1001
0001
0100
0010
,  // measure 15
1001
1000
0100
0010
,  // measure 16
1001
0000
0001
1000
0000
1000
0100
0000
,  // measure 17
1001
1000
0001
0100
,  // measure 18
1001
0001
1000
0010
,  // measure 19
1001
0100
1001
0010
,  // measure 20
1001
0000
1000
0001
0000
0001
0100
0000
,  // measure 21
1001
0001
1000
0100
,  // measure 22
1001
1000
0001
0010
,  // measure 23
1001
0100
1001
0010
,  // measure 24
1002
0100
2003
0010
,  // measure 25
3200
0001
0010
1300
,  // measure 26
2001
0100
3002
0010
,  // measure 27
0203
0000
0010
0010
,  // measure 28
0310
0000
1000
0000
0000
1000
0000
0000
,  // measure 29
1000
0000
0001
0000
0000
0001
0000
0000
,  // measure 30
0001
1000
0100
0010
,  // measure 31
1001
0001
0100
0010
,  // measure 32
1001
0000
1000
0000
0000
0001
0000
0000
,  // measure 33
0100
0000
0001
0000
0000
1000
0000
0000
,  // measure 34
0100
1000
0010
0100
,  // measure 35
1001
0000
0001
1000
0001
1000
0001
0000
,  // measure 36
1001
0000
0001
0000
0000
0001
0000
0000
,  // measure 37
0001
0000
1000
0000
0000
1000
0000
0000
,  // measure 38
1000
0001
0100
0010
,  // measure 39
1001
1000
0100
0010
,  // measure 40
1001
0000
0001
0000
0000
1000
0000
0000
,  // measure 41
0100
0000
1000
0000
0000
0001
0000
0000
,  // measure 42
0100
0001
0010
0100
,  // measure 43
1001
0000
1000
0001
1000
0001
1000
0000
,  // measure 44
1002
0100
1000
0010
,  // measure 45
2003
0100
0000
3100
,  // measure 46
2001
0100
0001
0010
,  // measure 47
3002
0100
0000
0103
,  // measure 48
1002
0100
1000
0010
,  // measure 49
2003
0100
0000
3100
,  // measure 50
2001
0100
3020
0001
,  // measure 51
1030
0001
1000
0001
1000
0000
1001
0000
,  // measure 52
0001
1000
0001
1000
0001
0000
1001
0000
,  // measure 53
1000
0100
0010
0001
,  // measure 54
0010
0000
0100
0000
1000
0001
1000
0001
,  // measure 55
1000
0000
0000
0000
;
