#TITLE:Peragro;
#SUBTITLE:;
#ARTIST:Akhutaとオマツリワッショイズ;
#TITLETRANSLIT:;
#SUBTITLETRANSLIT:;
#ARTISTTRANSLIT:Akhuta to Omatsuri Wasshois;
#GENRE:;
#CREDIT:;
#BANNER:Peragro-bn.png;
#BACKGROUND:Peragro-bg.png;
#LYRICSPATH:;
#CDTITLE:;
#MUSIC:Peragro.ogg;
#OFFSET:-0.043933;
#SAMPLESTART:37.383884;
#SAMPLELENGTH:10.000000;
#SELECTABLE:YES;
#BPMS:0.000000=190.000000
;
#STOPS:
;
#BGCHANGES:;
#KEYSOUNDS:;
#ATTACKS:;

//---------------dance-single - ----------------
#NOTES:
     dance-single:
     :
     Hard:
     10:
     0.950919,0.971742,0.388697,0.320675,1.000000,612.000000,40.000000,33.000000,4.000000,0.000000,0.000000,0.950919,0.971742,0.388697,0.320675,1.000000,612.000000,40.000000,33.000000,4.000000,0.000000,0.000000:
// measure 0
0000
0000
0000
0000
,  // measure 1
0000
0000
0000
0000
,  // measure 2
0000
0000
0000
0000
,  // measure 3
0000
0000
0000
0000
,  // measure 4
1100
0000
0101
0000
,  // measure 5
0011
0000
1010
0000
,  // measure 6
1100
0000
1010
0000
,  // measure 7
0011
0000
0001
0100
0001
0100
0001
0100
0010
1000
0100
0010
,  // measure 8
0001
0000
1000
0010
0000
1000
0001
0000
1000
0100
0000
1000
,  // measure 9
0001
0000
0010
0100
0000
0010
0001
0000
0010
0100
0000
0010
,  // measure 10
0001
0000
1000
0010
0000
0001
0010
0000
1000
0010
0000
0001
,  // measure 11
0010
0000
1000
0001
0010
0100
1000
0100
0010
0001
0000
0001
,  // measure 12
1000
0000
0001
0010
0000
0001
1000
0000
0001
0100
0000
0001
,  // measure 13
1000
0000
0010
0100
0000
0010
1000
0000
0010
0100
0000
0010
,  // measure 14
1000
0000
0001
0010
0000
1000
0010
0000
0001
0010
0000
1000
,  // measure 15
0010
0000
0001
1000
0010
0100
0001
0100
0010
1000
0001
1000
,  // measure 16
0002
0000
0013
0100
1000
0001
0200
0000
0310
0100
0001
1000
,  // measure 17
0200
0000
1300
0001
0100
0010
1010
0000
1001
0000
1100
0000
,  // measure 18
0120
0000
0031
0010
0100
1000
0002
0000
0103
0010
1000
0100
,  // measure 19
0020
0000
0130
1000
0001
0100
0110
0000
1010
0000
1001
0000
,  // measure 20
1200
0000
0310
0001
1000
0001
0200
0000
0310
1000
0001
1000
,  // measure 21
0200
0000
0310
0001
1000
0001
0101
0000
0110
0000
1010
0000
,  // measure 22
1002
0000
1003
0100
0001
0100
2000
0000
3001
0010
1000
0010
,  // measure 23
0002
0000
1003
0010
0001
0010
1010
0000
0110
0000
0101
0000
,  // measure 24
1001
0000
0100
0001
0000
0100
0001
0010
0100
1000
0001
1000
,  // measure 25
0020
0000
0000
0130
,  // measure 26
0102
0000
0000
1003
0000
0100
0010
0000
0001
1000
0001
0100
,  // measure 27
0010
0000
1000
0001
0000
1000
0100
1000
0001
0010
0000
0001
,  // measure 28
0100
0000
0010
1000
0010
0100
0001
0000
1000
0100
1000
0001
,  // measure 29
0100
0001
0100
0010
0000
0100
0001
0000
1000
0100
0000
0010
,  // measure 30
0002
0000
0000
1003
0000
0001
0100
0000
0010
1000
0010
0100
,  // measure 31
0001
0000
0010
0100
0000
0010
0001
1000
0001
0100
0000
0100
,  // measure 32
0001
0000
0001
0010
0001
0010
0100
0000
1000
0001
1000
0100
,  // measure 33
1000
0001
1000
0010
0100
0001
1000
0100
0010
0001
0010
0100
,  // measure 34
1000
0000
0010
0000
0000
0110
0000
0000
1000
0001
0000
1000
,  // measure 35
0100
0000
0010
0001
0000
2000
0000
0000
3001
0100
0000
0001
,  // measure 36
0010
0000
0100
0000
0000
0110
0000
0000
0001
1000
0001
0100
,  // measure 37
0010
0000
1000
0100
0000
0020
0000
0000
0031
1000
0000
0001
,  // measure 38
0100
0000
0010
0000
0000
0110
0000
0000
0010
0200
0000
0310
,  // measure 39
1000
0100
1000
0001
0000
0020
0000
0030
0100
0010
0000
0001
,  // measure 40
1000
0000
0010
0000
0000
0100
0001
1000
0001
0010
0100
1000
,  // measure 41
0100
0000
0010
0001
0000
1000
0001
0000
0100
0001
0000
1000
,  // measure 42
0010
0000
0100
0000
0000
0100
0010
0000
0010
1000
0000
1000
,  // measure 43
0001
0000
0001
0010
0000
0010
0100
0000
0100
1000
0000
0010
,  // measure 44
0001
0000
0010
0000
0000
0100
0001
0000
0001
0010
0000
0010
,  // measure 45
1000
0000
1000
0010
0000
0010
0001
0100
0010
1000
0000
0100
,  // measure 46
0001
0000
0100
0000
0000
1000
0010
0000
0010
0100
0001
1000
,  // measure 47
0001
0010
0100
1000
0100
0010
0001
0010
0100
1000
0000
0010
,  // measure 48
0100
0000
0001
0000
0000
1000
0100
0000
0010
0001
0000
1000
,  // measure 49
0001
0000
0100
0010
0000
1000
0001
0000
0000
2000
0000
0000
,  // measure 50
3001
0010
0001
0000
0001
0010
0001
0100
0000
0010
0000
0010
,  // measure 51
0000
1000
0100
1000
0000
0010
1000
0100
0000
2000
0000
0000
,  // measure 52
3100
0010
0100
0000
0100
0010
0001
1000
0000
0001
0000
0001
,  // measure 53
0000
0100
0010
0100
0000
0001
0010
1000
0000
0010
0000
0010
,  // measure 54
0200
0000
0310
0001
0010
0100
1000
0100
1000
0001
1000
0001
,  // measure 55
0200
0000
0310
1000
0001
0010
0100
0000
0010
0000
0001
0000
,  // measure 56
1001
0000
0101
0000
0110
0000
1010
0000
1100
0000
0110
0000
,  // measure 57
0011
0000
0101
0000
0110
0000
2002
0000
0000
3003
0000
0000
,  // measure 58
0201
0000
0000
0310
1000
0001
0010
0000
0010
0100
0000
0100
,  // measure 59
1000
0100
0010
0001
0010
0100
1000
0100
0010
0001
0000
0001
,  // measure 60
2000
0000
0000
3010
0000
0010
0100
0010
1000
0001
0000
1000
,  // measure 61
0001
0100
0001
0100
0010
1000
0001
0010
0001
0010
0100
1000
,  // measure 62
0002
0000
0000
0013
0100
1000
0001
0000
0100
0010
0000
0010
,  // measure 63
0100
0001
1000
0100
0000
0100
0010
0000
0001
1000
0000
1000
,  // measure 64
0010
0100
0010
1000
0001
1000
0100
0010
0001
0100
0010
1000
,  // measure 65
0001
0010
0100
1000
0100
0010
0001
0000
0000
1001
0000
0000
,  // measure 66
1200
0000
0000
0310
0001
1000
0010
0000
0010
0100
0000
0100
,  // measure 67
0001
0100
0010
1000
0010
0100
0001
0100
0010
1000
0000
1000
,  // measure 68
0002
0000
0000
0013
0000
0010
0100
0010
0001
1000
0000
0001
,  // measure 69
1000
0100
1000
0100
0010
0001
1000
0010
1000
0010
0100
0001
,  // measure 70
2000
0000
0000
3010
0100
0001
1000
0000
0100
0010
0000
0010
,  // measure 71
0100
1000
0001
0100
0000
0100
0010
0000
1000
0001
0000
0001
,  // measure 72
0010
0100
0010
0001
1000
0001
0100
0010
1000
0100
0010
0001
,  // measure 73
1000
0010
0100
0001
0100
0010
1000
0100
0010
0001
0000
0000
,  // measure 74
0010
0000
0100
0010
0000
0001
0010
0000
1000
0010
0000
0100
,  // measure 75
0010
0001
1000
0010
0000
0001
0020
0000
0000
0130
0000
0000
,  // measure 76
0001
0000
0100
1000
0000
0100
0001
0000
0010
0100
0000
1000
,  // measure 77
0001
0100
0001
1000
0100
1000
0020
0000
0000
0030
0000
0000
,  // measure 78
0000
0000
0000
0000
,  // measure 79
0000
0000
0000
0000
,  // measure 80
MMMM
0000
0000
0000
;

//---------------dance-single - ----------------
#NOTES:
     dance-single:
     :
     Medium:
     9:
     0.630244,0.640135,0.369262,0.233218,0.782252,392.000000,38.000000,24.000000,0.000000,0.000000,0.000000,0.630244,0.640135,0.369262,0.233218,0.782252,392.000000,38.000000,24.000000,0.000000,0.000000,0.000000:
0000
0000
0000
0000
,
0000
0000
0000
0000
,
0000
0000
0000
0000
,
0000
0000
0000
0000
,
1100
0000
1001
0000
,
0101
0000
1001
0000
,
1010
0000
1001
0000
,
0021
0100
0100
0130
,
1000
0000
0001
1000
0000
0001
0000
0000
0100
0001
0000
0100
,
0000
0000
0010
1000
0000
0010
0100
0000
0001
0100
0000
0001
,
0000
0000
1000
0001
0000
1000
0000
0000
0100
1000
0000
0100
,
0000
0000
0010
0001
0000
0010
0001
0000
1000
0001
0000
0100
,
0000
0000
0010
1000
0000
0010
0000
0000
1000
0001
0000
1000
,
0000
0000
0100
0010
0000
0100
1000
0000
0001
1000
0000
0001
,
0000
0000
0100
0010
0000
0100
0000
0000
0100
0001
0000
1000
,
0000
0000
1000
0100
0000
0010
0001
0000
1000
0001
0000
0000
,
0011
0100
1010
0100
,
0011
0000
0000
0100
0000
0000
1000
0000
1000
0000
1000
0000
,
1100
0010
0101
0010
,
1100
0000
0000
0010
0000
0000
0001
0000
0001
0000
0001
0000
,
0101
1000
0011
1000
,
0101
0000
0000
0010
0000
0000
1000
0000
0001
0000
1000
0000
,
1100
0001
1010
0001
,
1100
0000
0000
0010
0000
0000
0001
0000
1000
0000
0001
0000
,
0202
0000
0000
0000
,
0303
0000
0000
0000
,
2000
0000
0000
3001
0000
0001
0010
0000
0010
0100
0000
0000
,
2000
0000
0000
3001
0000
0001
0100
0000
0100
0010
0000
1000
,
0002
0000
0000
0013
0000
0010
0100
0000
0100
1000
0000
0000
,
0002
0000
0000
0103
0000
0100
0010
0000
0010
1000
0000
0001
,
0020
0000
0000
0130
0000
0100
1000
0000
1000
0001
0000
0000
,
0200
0000
0000
0310
0000
0010
1000
0000
1000
0001
0000
1000
,
0200
0000
0000
0310
0000
0010
0001
0000
0001
1000
0000
0000
,
0020
0000
0000
0130
0000
0100
0001
0000
0001
0010
0000
0100
,
1000
0000
0010
0000
0000
0110
0000
0000
0000
0100
0000
0000
,
0000
0000
0000
0010
0000
0000
0000
0000
0100
0001
0000
1000
,
0001
0000
0010
0000
0000
0110
0000
0000
0000
0100
0000
0000
,
0000
0000
0000
0010
0000
0000
0000
0000
0100
1000
0000
1000
,
0010
0000
0100
0000
0000
0110
0000
0000
0000
1000
0000
0000
,
0000
0000
0000
0001
0000
0000
0000
0000
0100
0010
0000
1000
,
0001
0000
0010
0000
0000
0110
0000
0000
0000
0001
0000
0000
,
0000
0000
0000
1000
0000
0000
0000
0000
0001
0010
0000
0001
,
0100
0000
0010
0000
0000
1010
0000
0000
0000
1000
0000
0000
,
0100
0000
0000
0010
0000
0000
0001
0000
1000
0100
0000
1000
,
0001
0000
0010
0000
0000
0011
0000
0000
0000
0001
0000
0000
,
0100
0000
0000
0010
0000
0000
1000
0000
0001
0010
0000
0100
,
1000
0000
0010
0000
0000
1010
0000
0000
0000
1000
0000
0000
,
0100
0000
0000
1000
0000
0000
0001
0000
1000
0010
0000
0100
,
0001
0000
1000
0000
0000
1000
0100
0000
0100
0010
0000
0010
,
0001
0000
1000
0001
0000
0100
0020
0000
0000
1030
0000
0000
,
0001
0010
0110
1000
,
0101
0010
1001
0100
,
0010
1000
1001
0100
,
0011
0100
1001
1000
,
0001
0000
0100
0001
0000
0100
0010
0000
1000
0001
0000
0000
,
1000
0000
0000
0100
0000
0100
0010
0000
0010
0000
0010
0000
,
0001
0000
0001
0000
0001
0000
1000
0000
0010
0000
0100
0000
,
0001
0000
0010
0000
0100
0000
2002
0000
0000
3003
0000
0000
,
2100
0000
0000
3001
0010
0001
0010
0000
0010
0100
0000
0000
,
1000
0100
1000
0100
0000
0100
0010
0000
0010
0001
0000
0000
,
2000
0000
0000
3010
0000
0000
0100
0001
0100
0001
0000
0000
,
1000
0000
1000
0100
0000
0100
0010
0000
0010
0001
0000
0000
,
2000
0000
0000
3010
0100
0010
0100
0000
0100
0001
0000
0000
,
0001
0010
0001
0010
0000
0010
0100
0000
0100
1000
0000
1000
,
0002
0000
0000
0103
0000
0000
0010
1000
0010
1000
0000
0000
,
0001
0010
0001
0010
0001
0010
0100
0000
0000
0010
0000
0000
,
0012
0000
0000
1003
0100
1000
0100
0000
0100
0010
0000
0000
,
0001
0010
0001
0010
0000
0010
0100
0000
0100
1000
0000
0000
,
0002
0000
0000
0103
0000
0000
0010
1000
0010
1000
0000
0000
,
0001
0000
0001
0010
0000
0010
0100
0000
0100
1000
0000
0000
,
0002
0000
0000
0103
0010
0100
0010
0000
0010
1000
0000
0000
,
1000
0100
1000
0100
0000
0100
0010
0000
0010
0001
0000
0001
,
2000
0000
0000
3010
0000
0000
0100
0001
0100
0001
0000
0000
,
1000
0100
1000
0100
0000
0100
0010
0001
0010
0001
0000
0000
,
2000
0000
0000
0000
,
3002
0000
0000
0003
,
0011
0000
1100
0000
,
0001
0100
0010
1000
0000
0001
1000
0000
0000
0000
0000
0000
;

//---------------dance-single - ----------------
#NOTES:
     dance-single:
     :
     Easy:
     5:
     0.401191,0.414205,0.369262,0.184631,0.116609,232.000000,38.000000,19.000000,0.000000,0.000000,0.000000,0.401191,0.414205,0.369262,0.184631,0.116609,232.000000,38.000000,19.000000,0.000000,0.000000,0.000000:
0000
0000
0000
0000
,
0000
0000
0000
0000
,
0000
0000
0000
0000
,
0000
0000
0000
0000
,
0110
0000
1001
0000
,
0110
0000
1001
0000
,
1100
0000
0101
0000
,
2002
0000
0000
3003
,
1000
1000
0001
0001
,
1000
0001
1000
0001
,
0100
0100
0010
0010
,
0100
0010
0110
0000
,
0001
0001
1000
1000
,
0001
1000
0001
1000
,
0100
0100
0010
0010
,
0100
0010
0110
0000
,
1100
0000
0101
0000
,
1100
0000
0000
0000
0000
0000
0001
0000
0001
0000
0001
0000
,
0101
0000
1100
0000
,
0101
0000
0000
0000
0000
0000
1000
0000
1000
0000
1000
0000
,
1010
0000
0011
0000
,
1010
0000
0000
0000
0000
0000
0001
0000
0001
0000
0001
0000
,
0011
0000
1010
0000
,
0011
0000
0000
0000
0000
0000
1000
0000
0001
0000
1000
0000
,
2002
0000
0000
0000
,
3003
0000
0000
0000
,
1000
0001
1000
0100
,
0010
0010
0100
0010
,
0001
0001
1000
0001
,
0100
0010
0110
0000
,
0001
1000
0001
0100
,
0010
0010
0100
0010
,
1000
1000
0001
1000
,
0100
0010
0110
0000
,
1000
0000
0001
0000
0000
1000
0000
0000
0000
0000
0000
0000
,
0100
0000
0100
0000
,
0010
0000
0001
0000
0000
0010
0000
0000
0000
0000
0000
0000
,
0001
0000
0001
0000
,
0100
0000
0001
0000
0000
0100
0000
0000
0000
0000
0000
0000
,
0010
0000
0010
0000
,
1000
0000
0010
0000
0000
1000
0000
0000
0000
0000
0000
0000
,
0001
0000
0001
0000
,
1000
0000
0100
0000
0000
1000
0000
0000
0000
0100
0000
0000
,
0010
0001
1000
0001
,
0100
0000
0001
0000
0000
0100
0000
0000
0000
0010
0000
0000
,
1000
0001
1000
0100
,
0010
0000
0100
0000
0000
0010
0000
0000
0000
0100
0000
0000
,
0010
0001
1000
0001
,
1000
0000
0010
0000
0000
0010
0100
0000
0000
0001
0000
0000
,
1000
0001
2002
3003
,
0002
0000
0010
0000
,
1003
0001
0101
0000
,
2000
0000
0010
0000
,
3001
1000
1100
0000
,
0020
0001
0001
0000
,
0130
0100
1000
1000
,
0020
0001
0001
0000
,
0130
0010
0220
0330
,
1000
0001
1000
0001
,
0100
0100
0020
0030
,
0100
0001
1000
0001
,
0010
0010
0220
0330
,
0100
1000
0001
1000
,
0010
0010
0110
0000
,
0100
0001
1000
0001
,
0010
0001
0202
0303
,
1000
0010
1000
0100
,
1000
0001
0100
0001
,
0010
0001
0100
0001
,
0010
0100
0110
0000
,
0001
0010
0001
0100
,
0010
1000
0010
0001
,
0010
1000
0100
0010
,
0001
1000
1001
0000
,
2000
0000
0000
3000
,
0002
0000
0000
0003
,
1001
0000
0110
0000
,
0101
1010
1001
0000
;
