#VERSION:0.81;
#TITLE:La Campanella;
#SUBTITLE:Nu Rave;
#ARTIST:cranky;
#TITLETRANSLIT:;
#SUBTITLETRANSLIT:;
#ARTISTTRANSLIT:;
#GENRE:;
#ORIGIN:;
#CREDIT:;
#BANNER:;
#BACKGROUND:bg.jpg;
#PREVIEWVID:;
#JACKET:jacket.jpg;
#CDIMAGE:;
#DISCIMAGE:;
#LYRICSPATH:;
#CDTITLE:;
#MUSIC:Cranky - La Campanella Nu Rave.mp3;
#OFFSET:-0.288000;
#SAMPLESTART:76.948914;
#SAMPLELENGTH:14.831459;
#SELECTABLE:YES;
#DISPLAYBPM:89.000000:178.000000;
#BPMS:0.000=178.000,
3.000=175.000,
6.000=138.000,
9.000=93.750,
10.500=21.375,
11.000=44.700,
12.000=178.000,
144.000=89.000,
156.000=178.000,
197.000=89.000,
201.250=178.000,
237.500=65.000,
238.250=130.000,
253.750=112.500,
254.750=130.000,
256.750=72.000,
257.750=130.000,
260.250=137.000,
261.750=142.000,
263.250=118.000,
264.250=208.000,
267.250=277.000,
269.250=85.000,
270.250=83.000;
#STOPS:201.250=1.264;
#DELAYS:;
#WARPS:;
#TIMESIGNATURES:0.000=4=4;
#TICKCOUNTS:0.000=4;
#COMBOS:0.000=1;
#SPEEDS:0.000=1.000=0.000=0;
#SCROLLS:0.000=1.000,
9.250=0.700,
9.500=0.600,
9.750=0.500,
10.000=0.400,
10.250=0.300,
10.375=0.125,
10.500=1.000,
183.000=2.000,
185.500=4.000,
187.000=8.000,
190.500=16.000,
192.500=24.000,
194.500=16.000,
195.000=12.000,
195.500=8.000,
196.000=4.000,
196.500=1.000;
#FAKES:;
#LABELS:0.000=Song Start;
#BGCHANGES:;
#KEYSOUNDS:;
#ATTACKS:
;

//---------------dance-single - ----------------
#NOTEDATA:;
#CHARTNAME:;
#STEPSTYPE:dance-single;
#DESCRIPTION:;
#CHARTSTYLE:;
#DIFFICULTY:Hard;
#METER:9;
#RADARVALUES:0.660797,0.756931,0.285750,0.285750,0.759023,454.000000,32.000000,32.000000,67.000000,0.000000,0.000000,0.000000,0.000000,0.660797,0.756931,0.285750,0.285750,0.759023,454.000000,32.000000,32.000000,67.000000,0.000000,0.000000,0.000000,0.000000;
#CREDIT:;
#NOTES:
// measure 0
0000
0000
0000
0000
,  // measure 1
0000
0000
0000
0000
,  // measure 2
0000
0000
0000
0000
,  // measure 3
1000
0001
1000
0001
0100
0001
1000
0001
,  // measure 4
1000
0100
1000
0001
0100
0001
0100
0010
,  // measure 5
0100
0001
0100
0010
1000
0001
1000
0100
,  // measure 6
0010
0100
0010
0100
0010
0001
0010
0100
,  // measure 7
1000
0001
0100
0010
1000
0001
1000
0100
,  // measure 8
0100
0010
0100
0010
0100
0010
0001
0010
,  // measure 9
0001
1000
0001
1000
0010
1000
0010
0100
,  // measure 10
0001
0100
0010
0100
0001
1000
0100
1000
,  // measure 11
0100
1000
0010
1000
0100
0010
0001
1000
,  // measure 12
0001
1000
0010
0100
0001
1000
1000
0001
,  // measure 13
0010
0000
0100
0000
1000
0000
0001
0000
0001
0000
1000
0000
0001
0000
1000
0001
,  // measure 14
1000
0000
0001
1000
0001
0000
0000
0100
0000
0000
0010
0000
1000
0000
0001
0000
,  // measure 15
2000
0000
0000
3100
0000
0000
0010
0000
0100
0000
1000
0000
0002
0000
0000
0103
,  // measure 16
0000
0000
0010
0000
0100
0000
0001
0000
1000
0000
0000
1000
0000
0000
0100
0000
,  // measure 17
0001
0000
0100
0000
2000
0000
0000
3010
0000
0000
0100
0000
0001
0000
0001
0000
,  // measure 18
2000
0000
0000
3100
0000
0000
0010
0000
0100
0000
1000
0000
0002
0000
0000
0103
,  // measure 19
0000
0000
0010
0000
0100
0000
0001
0000
1000
0000
0000
0001
0000
0000
1000
0100
,  // measure 20
1000
0000
0001
0100
0020
0000
0000
1030
0000
0000
0010
0000
0100
0000
0001
0000
,  // measure 21
0020
0000
0000
0031
0000
0000
0010
0000
1000
0000
0010
0000
0002
0000
0000
0103
,  // measure 22
0000
0000
0001
0000
0100
0000
0010
0000
0200
0000
0000
0301
0000
0000
0100
0000
,  // measure 23
1000
0000
0100
0000
0002
0000
0000
0013
0000
0000
0010
0000
0100
0000
1000
0000
,  // measure 24
0001
0000
0000
0100
0000
0000
1000
0000
0100
0000
0001
0000
1000
0000
0000
0100
,  // measure 25
0000
0000
0001
0000
0100
0000
1000
0000
0001
0000
0000
0100
0000
0000
0010
0000
,  // measure 26
1000
0000
0001
0000
1001
0000
0000
0000
0000
0000
1000
0100
1000
0000
0000
0100
,  // measure 27
0000
0010
0022
0000
0033
0001
0202
0000
,  // measure 28
0303
0000
0100
0000
0220
0000
0000
0000
0330
0000
0010
1000
0010
0000
0000
1000
,  // measure 29
0000
0100
0220
0000
0330
0100
2200
0000
,  // measure 30
3300
0000
1000
0000
2002
0000
0000
0000
3003
0000
0001
1000
0001
0000
0000
0100
,  // measure 31
0000
0010
2020
0000
3030
0001
0022
0000
,  // measure 32
0033
0010
0001
0100
1000
0000
0100
0001
,  // measure 33
1000
0100
0001
0000
0100
1000
0010
0100
,  // measure 34
0001
0000
0100
1000
0100
0001
0010
0000
,  // measure 35
0100
1000
0001
0000
0101
0000
1100
0000
,  // measure 36
1002
0100
0010
0100
1003
0010
0100
0001
,  // measure 37
0100
0010
1000
0100
0001
0101
1100
1001
,  // measure 38
0001
0010
0100
1000
0010
0001
0011
1010
,  // measure 39
1002
0000
0203
0000
,  // measure 40
0310
0010
1000
0000
,  // measure 41
0100
0100
0010
0100
,  // measure 42
1000
0000
0000
0010
0000
0000
0100
0010
1000
0000
0000
0100
0000
0000
0010
0100
,  // measure 43
1000
0000
0000
0000
0000
0000
0000
0000
0000
0001
0000
0000
0000
0000
0000
0000
0000
0000
1000
0000
0000
0001
0000
0000
1000
0000
0000
0000
0010
0000
0000
0000
0100
0000
0000
0000
0001
0000
0000
0000
1000
0000
0000
0000
0001
0000
0000
0000
,  // measure 44
1000
0100
1000
0100
0010
0001
0010
0001
1000
0010
1000
0010
0100
0001
0100
0002
,  // measure 45
2M00
0000
00M0
0000
,  // measure 46
0M00
0000
0000
0000
00M0
0000
0000
0000
0M00
0000
00M0
0000
0M00
0000
00M0
0M00
,  // measure 47
00M0
0000
0M00
0000
00M0
0000
0M00
0000
00M0
0000
0M00
0000
00M0
0000
0M00
0000
00M0
0000
0M00
0000
00M0
0M00
00M0
0M00
00M0
0M00
00M0
0M00
00M0
0M00
00M0
0M00
,  // measure 48
00M0
0000
0000
0000
0000
0000
0M00
0000
0000
0000
0000
0000
00M0
0000
0000
0000
0000
0000
0000
0000
0M00
0000
0000
0000
00M0
0000
0000
0000
0M00
0000
0000
0000
00M0
0000
0000
0000
0M00
0000
0000
0000
00M0
0000
0000
0000
0M00
0000
0000
0000
00M0
0000
0000
0000
0M00
0000
0000
0000
00M0
0000
0000
0000
0M00
0000
0000
0000
00M0
0000
0000
0000
0M00
0000
0000
0000
00M0
0000
0000
0000
0M00
0000
0000
0000
00M0
0000
0000
0000
0M00
0000
0000
0000
00M0
0000
00M0
0000
0M00
0000
0000
0000
00M0
0000
0000
0000
0M00
0000
0000
0000
0000
0000
0000
0000
0MM0
0000
0000
0000
00M0
0000
0MM0
0000
0000
0000
0000
0000
0M00
0000
0000
0000
0000
0000
0000
0000
0000
0000
0000
0000
00M0
0000
0000
0000
0000
0000
0000
0000
0000
0000
0000
0000
0M00
0000
0000
0000
0000
0000
0000
0000
0000
0000
0000
0000
0000
0000
0000
0000
0000
0000
0000
0000
0000
0000
0000
0000
00M0
0000
0000
0000
0000
0000
0000
0000
0000
0000
0000
0000
0000
0000
0000
0000
0000
0000
0000
0000
0000
0000
0000
0000
,  // measure 49
0M00
00M0
3003
0000
0000
0000
0000
0000
,  // measure 50
0000
0000
0000
0000
0000
1001
1000
0000
0000
1000
0000
0000
0100
0000
0010
0000
,  // measure 51
0000
0010
0000
0000
0001
0000
1000
0000
0000
0010
0000
0000
0010
0000
0100
0000
,  // measure 52
0000
0001
0000
0000
1000
0000
1100
0000
0000
0100
0000
0000
0010
0000
0011
0000
,  // measure 53
0000
0001
0000
0000
0100
0000
0110
0000
0000
0010
0000
0000
1000
0001
1000
0000
,  // measure 54
0000
1000
0000
0000
0100
0000
0110
0000
0100
0000
1000
0000
0001
0000
1001
0000
,  // measure 55
0001
0000
0100
0000
0010
0000
0110
0000
0010
0000
1000
0000
0001
0000
0010
0100
,  // measure 56
0010
0100
0010
0100
1000
0000
0100
1000
0000
1000
0010
0000
0010
0100
0000
0100
,  // measure 57
0001
0000
1000
0000
0001
0000
1000
0100
0000
0100
0010
0000
0010
0001
0000
0001
,  // measure 58
1000
0000
0000
0001
0000
0000
1000
0000
0000
0010
0000
1000
0000
0001
0000
0010
0000
0100
0000
1000
0000
0010
0000
0001
,  // measure 59
0000
0000
0010
0000
0000
0000
1000
0000
0000
0000
0100
0000
0000
0000
0001
0000
0000
0000
2000
0000
0000
0000
0000
0000
0000
0000
0000
3000
0000
0000
0000
0000
0000
0010
0000
0000
0000
0000
0000
0001
0000
0000
0000
0000
0000
1000
0000
0000
,  // measure 60
0000
0001
0000
1000
0000
0010
0100
0010
0000
0010
1000
0100
1000
0010
0000
0100
,  // measure 61
0001
0010
0001
0100
0000
0010
1000
0010
1000
0100
0000
0100
0000
1000
0010
0100
,  // measure 62
0000
0010
1000
0100
1000
0010
0000
0100
0001
0010
0001
0100
0000
0010
1000
0010
,  // measure 63
1000
0100
0000
0010
0000
0001
1000
0001
0000
0100
0010
1000
0100
1000
0000
0010
,  // measure 64
0000
0000
0000
1000
0000
0000
0001
0000
0000
1000
0000
0000
0000
0000
0000
0000
0010
0000
0100
0000
0000
0001
0000
0000
0100
0000
0000
0001
0000
0000
0000
0000
0000
1001
0000
0000
0000
0000
0000
1000
0000
0000
0100
0000
0000
0010
0000
0000
,  // measure 65
0000
1001
0000
0001
0100
0010
0000
1001
0000
1000
0001
1000
0000
1001
0000
0000
,  // measure 66
0000
1000
0000
0000
0000
0100
0000
0000
0000
0010
0000
0000
0000
0001
0000
0000
,  // measure 67
0000
1000
0000
0000
0000
1001
0000
0000
0000
0110
0000
0000
0000
1001
0000
0000
;

//---------------dance-single - ----------------
#NOTEDATA:;
#CHARTNAME:;
#STEPSTYPE:dance-single;
#DESCRIPTION:;
#CHARTSTYLE:;
#DIFFICULTY:Beginner;
#METER:2;
#RADARVALUES:0.121189,0.180324,0.053578,0.017859,0.053578,87.000000,6.000000,2.000000,0.000000,0.000000,0.000000,0.000000,0.000000,0.121189,0.180324,0.053578,0.017859,0.053578,87.000000,6.000000,2.000000,0.000000,0.000000,0.000000,0.000000,0.000000;
#CREDIT:;
#NOTES:
// measure 0
0000
0000
0000
0000
,  // measure 1
0000
0000
0000
0000
,  // measure 2
0000
0000
0000
0000
,  // measure 3
1000
0000
0000
0001
,  // measure 4
0000
0000
1000
0000
,  // measure 5
0000
0000
0000
0000
,  // measure 6
0010
0000
0000
0100
,  // measure 7
0000
0000
0010
0000
,  // measure 8
0000
0000
0000
0000
,  // measure 9
1000
0000
0000
0100
,  // measure 10
0000
0000
0010
0000
,  // measure 11
0000
0001
0000
0000
,  // measure 12
1000
0000
0000
1000
,  // measure 13
0000
0000
0001
0000
,  // measure 14
0000
0000
0000
0000
,  // measure 15
0100
0000
0000
0100
,  // measure 16
0000
0000
0100
0000
,  // measure 17
0000
0000
0000
0000
,  // measure 18
0010
0000
0000
0010
,  // measure 19
0000
0000
0010
0000
,  // measure 20
0000
0000
0000
0000
,  // measure 21
1000
0000
0000
0001
,  // measure 22
0000
0000
1000
0000
,  // measure 23
0000
0100
0000
0000
,  // measure 24
0010
0000
0000
0100
,  // measure 25
0000
0000
0010
0000
,  // measure 26
0000
1001
0000
0000
,  // measure 27
0000
1000
0000
1000
,  // measure 28
0000
1000
0000
0000
,  // measure 29
0000
0001
0000
0001
,  // measure 30
0000
0001
0000
0000
,  // measure 31
0000
0100
0000
0100
,  // measure 32
0000
0100
0000
0000
,  // measure 33
0010
0000
0000
1000
,  // measure 34
0000
0000
0001
0000
,  // measure 35
0000
1001
0000
0000
,  // measure 36
0010
0000
0000
0100
,  // measure 37
0000
0000
0000
0000
0001
0000
0000
1000
,  // measure 38
0000
0000
0000
0000
0000
0001
0000
0000
,  // measure 39
0001
0000
0000
0000
,  // measure 40
1000
0000
0000
0000
,  // measure 41
0001
0000
1000
0000
,  // measure 42
0001
0000
1000
0000
,  // measure 43
0001
0001
0001
0000
,  // measure 44
1000
1000
1000
0000
,  // measure 45
0110
0000
0000
0000
,  // measure 46
0000
0000
0000
0000
,  // measure 47
0000
0000
0000
0000
,  // measure 48
0000
0000
0000
0000
,  // measure 49
0000
0000
0000
0000
,  // measure 50
0000
0000
0000
0010
0000
0000
0000
1000
,  // measure 51
0000
0000
0000
0100
0000
0000
0000
0000
,  // measure 52
0000
0000
0000
0010
0000
0000
0000
0001
,  // measure 53
0000
0000
0000
0100
0000
0000
0000
0000
,  // measure 54
0000
0000
0000
0010
0000
0000
0000
0010
,  // measure 55
0000
0000
0000
1000
0000
0000
0000
1000
,  // measure 56
0000
0000
0000
0002
0000
0000
0000
0003
,  // measure 57
0000
1000
0000
2000
0000
0000
0000
3000
,  // measure 58
0000
1000
0000
0010
0000
0000
0000
0100
,  // measure 59
0000
0000
0000
0000
0000
0000
1001
0000
0000
0000
0000
0000
0000
0000
0000
0010
,  // measure 60
0000
0000
0000
0000
0000
0000
0000
0000
0000
0000
0000
0100
0000
0000
0000
0000
,  // measure 61
0000
0000
0000
0000
0000
0000
0000
0001
0000
0000
0000
0000
0000
0000
0000
0000
,  // measure 62
0000
0000
0000
1000
0000
0000
0000
0000
0000
0000
0000
0000
0000
0000
0000
1001
,  // measure 63
0000
0000
0000
0000
0000
0000
0000
0000
0000
0000
0000
1000
0000
0000
0000
0000
,  // measure 64
0000
0000
0000
0000
0000
0000
0000
0001
0000
0000
0000
0001
0000
0000
0000
0000
,  // measure 65
0000
0010
0000
0000
0000
0000
0000
0100
0000
0000
0000
0000
0000
1000
0000
0000
,  // measure 66
0000
0000
0000
0000
,  // measure 67
0000
0000
0000
0000
0000
1001
0000
0000
0000
0000
0000
0000
0000
0000
0000
0000
;

//---------------dance-single - ----------------
#NOTEDATA:;
#CHARTNAME:;
#STEPSTYPE:dance-single;
#DESCRIPTION:;
#CHARTSTYLE:;
#DIFFICULTY:Easy;
#METER:4;
#RADARVALUES:0.301058,0.423881,0.116086,0.232172,0.129480,197.000000,13.000000,26.000000,0.000000,0.000000,0.000000,0.000000,0.000000,0.301058,0.423881,0.116086,0.232172,0.129480,197.000000,13.000000,26.000000,0.000000,0.000000,0.000000,0.000000,0.000000;
#CREDIT:;
#NOTES:
// measure 0
0000
0000
0000
0000
,  // measure 1
0000
0000
0000
0000
,  // measure 2
0000
0000
0000
0000
,  // measure 3
1000
0000
0100
0010
,  // measure 4
0100
0010
0001
0000
,  // measure 5
0000
1000
0010
0100
,  // measure 6
0001
0000
1000
0100
,  // measure 7
0010
0100
1000
0000
,  // measure 8
0000
0001
0001
1000
,  // measure 9
0001
0000
0100
0010
,  // measure 10
0100
0010
1000
0000
,  // measure 11
0000
1000
0100
0010
,  // measure 12
0002
0003
0000
2000
,  // measure 13
3000
0000
0002
0003
,  // measure 14
0100
0100
0000
0010
,  // measure 15
0010
0000
1000
0100
,  // measure 16
0000
0001
0100
0000
,  // measure 17
0010
0010
0000
0001
,  // measure 18
1000
0000
0001
0100
,  // measure 19
0000
1000
0100
0000
,  // measure 20
0010
0010
0000
1000
,  // measure 21
0001
0000
0010
0100
,  // measure 22
0000
0010
0001
0000
,  // measure 23
0001
1000
0000
0010
,  // measure 24
0200
0300
0100
0020
,  // measure 25
0030
0010
0200
0300
,  // measure 26
0100
1001
0000
1000
,  // measure 27
0100
2000
0000
3020
,  // measure 28
0000
0230
0000
0301
,  // measure 29
0001
0002
0000
0023
,  // measure 30
0000
0230
0000
1300
,  // measure 31
1000
2000
0000
3002
,  // measure 32
0000
0103
0100
0010
,  // measure 33
1000
0100
0010
0001
,  // measure 34
0100
0010
1000
0001
,  // measure 35
0010
0100
0010
0100
,  // measure 36
1002
0000
0000
0203
0000
0000
0320
0000
,  // measure 37
0000
2030
0000
0000
3001
0100
0100
0002
,  // measure 38
0000
0000
0023
0000
0000
0230
1000
1000
,  // measure 39
1300
0000
0100
0000
,  // measure 40
0010
0000
0001
0000
,  // measure 41
1000
0100
0010
0001
,  // measure 42
1000
0010
0100
0001
,  // measure 43
1000
1000
0001
0001
,  // measure 44
1000
0100
1000
0100
0010
0001
0010
0001
,  // measure 45
1000
0000
0000
0000
,  // measure 46
0000
0000
0000
0000
,  // measure 47
0000
0000
0000
0000
,  // measure 48
0000
0000
0000
0000
,  // measure 49
0000
0000
0000
0000
,  // measure 50
0000
0000
0000
0000
0000
1001
0001
0000
0000
0000
0001
0000
0000
0000
0100
0000
,  // measure 51
0000
0100
0000
0010
0000
0010
0000
1000
,  // measure 52
0000
1000
0000
1200
0000
0300
0000
0012
,  // measure 53
0000
0003
0000
2020
0000
3030
0000
1000
,  // measure 54
0000
1000
0000
0001
0000
0001
0000
0010
,  // measure 55
0000
0010
0000
0100
0000
0100
0000
1000
,  // measure 56
0000
1000
0000
0001
0000
1000
0000
0001
,  // measure 57
0000
1001
0000
0010
0000
0100
0000
0010
,  // measure 58
0000
0110
0000
0001
1000
0001
1000
0100
,  // measure 59
0010
0000
0100
0000
0010
0000
0002
0000
0000
0000
0000
0000
0003
0000
0000
1000
,  // measure 60
0000
0000
0000
0010
0000
0000
0000
0010
0000
0000
0000
0100
0000
0000
0000
0010
,  // measure 61
0000
0000
0000
0010
0000
0000
0000
1000
0000
0000
0000
0100
0000
0000
0000
0100
,  // measure 62
0000
0000
0000
0010
0000
0000
0000
0100
0000
0000
0000
0100
0000
0000
0000
1000
,  // measure 63
0000
0000
0000
0001
0000
0000
0000
0100
0000
0000
0000
1000
0000
0000
0000
0100
,  // measure 64
0000
0000
0000
0001
0000
0000
0000
1000
0000
0000
0000
1001
0000
0000
0000
0000
,  // measure 65
0000
0110
0000
0000
0000
0000
0000
1001
0000
0000
0000
0000
0000
0110
0000
0000
,  // measure 66
0000
0000
0000
0000
0000
0000
0000
0000
0000
0000
0000
0000
0000
0010
0000
0000
,  // measure 67
0000
0001
0000
0000
0000
1000
0000
0000
0000
0001
0000
0000
0000
1001
0000
0000
;

//---------------dance-single - ----------------
#NOTEDATA:;
#CHARTNAME:;
#STEPSTYPE:dance-single;
#DESCRIPTION:;
#CHARTSTYLE:;
#DIFFICULTY:Medium;
#METER:7;
#RADARVALUES:0.474549,0.575267,0.196453,0.241102,0.317004,323.000000,22.000000,27.000000,0.000000,0.000000,0.000000,0.000000,0.000000,0.474549,0.575267,0.196453,0.241102,0.317004,323.000000,22.000000,27.000000,0.000000,0.000000,0.000000,0.000000,0.000000;
#CREDIT:;
#NOTES:
// measure 0
0000
0000
0000
0000
,  // measure 1
0000
0000
0000
0000
,  // measure 2
0000
0000
0000
0000
,  // measure 3
1000
1000
0010
0100
,  // measure 4
0001
0100
0010
1000
,  // measure 5
1000
0100
0010
0100
,  // measure 6
1000
1000
0001
0010
,  // measure 7
0100
0010
0001
1000
,  // measure 8
0010
0100
0000
0100
0000
0100
0001
0000
,  // measure 9
1000
1000
0100
0010
,  // measure 10
0001
0010
0100
0001
,  // measure 11
0001
0100
1000
0001
,  // measure 12
0200
0000
0310
0100
0010
0000
2000
0000
,  // measure 13
3001
1000
0001
0000
0020
0000
0030
0000
,  // measure 14
0010
0000
0001
0000
1000
0000
0001
1000
,  // measure 15
0001
0000
0001
0000
0100
0010
0100
0000
,  // measure 16
0100
0000
0010
1000
0100
0000
0100
0000
,  // measure 17
1000
0100
0010
0000
0010
0000
0100
1000
,  // measure 18
0001
0000
0001
0000
0001
0100
0010
0000
,  // measure 19
0010
0000
1000
0010
0100
0000
0001
0000
,  // measure 20
1000
0100
0010
0000
0010
0000
0010
0100
,  // measure 21
1000
0000
1000
0000
1000
0010
0100
0000
,  // measure 22
0100
0000
1000
0100
0001
0000
0001
0000
,  // measure 23
1000
0100
1000
0000
1000
0000
0010
0100
,  // measure 24
0001
0011
1100
0001
,  // measure 25
0101
1010
1000
1100
,  // measure 26
0011
0000
0000
0000
2002
0000
0000
0000
3003
0000
0000
0000
1000
0000
0000
0100
,  // measure 27
0000
0010
0002
0000
0000
0103
0020
0000
,  // measure 28
0000
0000
0130
0000
2000
0000
0000
0000
0000
0000
3100
0000
0010
0000
0000
0010
,  // measure 29
0000
0010
2000
0000
0000
3100
0020
0000
,  // measure 30
0000
0000
0130
0000
0002
0000
0000
0000
0000
0000
0103
0000
0010
0000
0000
0010
,  // measure 31
0000
0010
0002
0000
0000
0103
0020
0000
,  // measure 32
0000
1030
0001
1000
0001
0000
1000
0000
,  // measure 33
0001
0100
0010
0000
0010
0000
1000
0100
,  // measure 34
0010
0000
0010
0000
0100
1000
0001
0000
,  // measure 35
0001
1000
0001
0000
1001
0000
0101
0000
,  // measure 36
1100
0000
0100
0010
0001
0010
0100
1000
,  // measure 37
0010
0100
0001
0001
0001
1000
1000
1000
,  // measure 38
0001
0100
0010
0100
0001
0010
0100
1000
,  // measure 39
1001
0000
1000
0000
,  // measure 40
0100
0010
0001
0000
,  // measure 41
0001
0100
0010
1000
,  // measure 42
1000
0100
1000
0100
0010
0100
0010
0001
,  // measure 43
1000
0001
1000
0001
0100
0010
0100
0010
,  // measure 44
1000
0100
1000
0100
0010
0100
0010
0001
0010
0001
1000
0001
,  // measure 45
2000
0000
0000
0000
,  // measure 46
0000
0000
0000
0000
,  // measure 47
0000
0000
0000
0000
,  // measure 48
0000
0000
0000
0000
,  // measure 49
0000
3000
0000
0000
,  // measure 50
0000
0000
0000
0000
0000
1001
1000
0000
0100
0000
1000
0000
0100
0000
0001
0000
,  // measure 51
0100
1000
0010
0100
0001
0100
0001
0010
,  // measure 52
0001
0100
0010
1000
0100
0001
0000
0001
,  // measure 53
0100
1000
0000
1000
0010
0100
0001
1000
,  // measure 54
0000
1000
0000
0000
1000
0000
2200
0000
0000
0000
3300
0000
0000
0000
0202
0000
,  // measure 55
0000
0303
0000
2020
0000
3030
0000
0001
,  // measure 56
0000
1000
0000
0000
0001
0000
1000
0000
0000
0100
0000
0000
0001
0000
0000
0100
,  // measure 57
0000
0000
1000
0000
0001
0000
1000
0000
0000
0010
0000
0000
0001
0000
0000
0010
,  // measure 58
0000
0000
0000
1000
0000
0000
0001
0000
0000
1000
0000
0000
0010
0000
0000
0100
0000
0000
0001
0000
0000
1000
0000
0010
,  // measure 59
0000
0000
0100
0000
0000
0000
0001
0000
0000
0000
1000
0000
0000
0000
0100
0000
0000
0000
0020
0000
0000
0000
0000
0000
0000
0000
0000
0000
0000
0000
0000
0000
0000
0000
0000
0000
0000
0000
0000
0000
0000
0000
0000
0000
0000
0130
0000
0000
,  // measure 60
0000
0000
0000
1000
0000
0100
0000
1000
0000
0001
0000
0100
0000
0001
0000
1000
,  // measure 61
0000
0100
0000
0001
0000
0100
0000
1000
0000
1000
0000
0001
0000
0100
0000
0001
,  // measure 62
0000
1000
0000
0100
0000
1000
0000
0001
0000
0100
0000
1000
0000
0100
0000
0001
,  // measure 63
0000
0001
0000
1000
0000
0100
0000
0010
0000
0100
0000
1000
0000
1000
0000
0001
,  // measure 64
0000
0100
0000
0010
0000
0010
0000
0100
0000
0001
0000
2200
0000
0000
0000
0000
,  // measure 65
3300
0202
0000
0000
0000
0000
0303
0022
0000
0000
0000
0000
0033
1010
0000
0000
,  // measure 66
0000
1000
0000
0000
0000
0010
0000
0000
0000
0001
0000
0000
0000
0010
0000
0000
,  // measure 67
0000
1000
0000
0000
0000
1001
0000
0000
0000
0110
0000
0000
0000
1001
0000
0000
;
