#VERSION:0.83;
#TITLE:Here I Go Again;
#SUBTITLE:;
#ARTIST:NM feat. Malaya;
#TITLETRANSLIT:;
#SUBTITLETRANSLIT:;
#ARTISTTRANSLIT:;
#GENRE:;
#ORIGIN:;
#CREDIT:;
#BANNER:Here I Go Again.png;
#BACKGROUND:Here I Go Again-bg.png;
#PREVIEWVID:;
#JACKET:Here I Go Again-jacket.png;
#CDIMAGE:;
#DISCIMAGE:;
#LYRICSPATH:;
#CDTITLE:;
#MUSIC:Here I Go Again.ogg;
#OFFSET:0.000000;
#SAMPLESTART:40.790001;
#SAMPLELENGTH:15.200000;
#SELECTABLE:YES;
#BPMS:0.000=97.000;
#STOPS:;
#DELAYS:;
#WARPS:;
#TIMESIGNATURES:0.000=4=4;
#TICKCOUNTS:0.000=4;
#COMBOS:0.000=1;
#SPEEDS:0.000=1.000=0.000=0;
#SCROLLS:0.000=1.000;
#FAKES:;
#LABELS:0.000=Song Start;
#BGCHANGES:;
#KEYSOUNDS:;
#ATTACKS:
;

//---------------dance-single - ----------------
#NOTEDATA:;
#CHARTNAME:;
#STEPSTYPE:dance-single;
#DESCRIPTION:;
#CHARTSTYLE:;
#DIFFICULTY:Hard;
#METER:6;
#RADARVALUES:0.280470,0.366711,0.061353,0.214735,0.076691,192.000000,186.000000,6.000000,21.000000,0.000000,0.000000,0.000000,0.000000,0.000000,0.280470,0.366711,0.061353,0.214735,0.076691,192.000000,186.000000,6.000000,21.000000,0.000000,0.000000,0.000000,0.000000,0.000000;
#CREDIT:;
#NOTES:
0000
0000
0000
0000
,
0000
0000
0000
0000
,
0000
0000
0000
0000
,
0000
0000
0000
0000
,
0000
0000
0000
0000
,
0001
0000
0100
0000
0010
0000
0010
1000
0000
1000
0010
0000
0100
0000
0100
0000
,
0010
0000
1000
0000
0100
0000
0100
1000
0000
1000
0100
0000
1000
0000
1000
0000
,
0010
0000
0100
0000
0001
0000
0010
0001
0000
0001
0010
0000
0001
0000
0100
0000
,
0010
0100
0001
1000
0100
1000
0000
0010
,
0100
0000
0001
0000
0010
0000
0010
0100
0000
0100
0010
0000
0100
0000
1000
0000
,
0001
0000
0100
0000
1000
0000
0100
0001
0000
0010
0001
0000
0100
0000
0100
0000
,
0001
0000
0010
0000
0100
0000
0010
0001
0000
0001
1000
0000
0100
0000
1000
0000
,
0010
0100
0001
1000
2020
0000
3030
0000
,
2000
3100
0020
0031
,
0100
0100
0010
0000
1000
1000
0100
0000
,
0001
0100
1000
0010
0100
0001
0010
0100
,
2200
0300
0100
3001
,
0100
0010
1000
0010
0100
0000
0100
0000
,
0001
0010
0100
0010
0001
0000
0001
0000
,
1000
0010
1000
0000
0010
0100
0010
0000
,
0100
0001
0010
0001
0100
0000
0100
0000
,
0001
0010
0100
1000
0001
0000
0100
0000
,
1000
0100
0001
0100
0010
0000
1000
0000
,
0100
0100
0001
0000
0100
0100
0010
0000
,
0022
0000
0000
0033
,
0002
0000
0103
0010
0000
1000
0000
0020
,
0000
0000
0000
0130
0000
0000
0001
0000
,
1000
0000
0100
1000
0000
0020
0000
0000
,
0100
0100
0100
0000
0130
0000
0011
0000
,
2000
0000
3010
0100
0000
0001
0000
0200
,
0000
0000
0000
0310
0000
0000
1000
0000
,
0001
0000
0010
0001
0000
0200
0000
0000
,
0020
0000
0330
0110
,
1000
0000
0100
0000
0001
0000
0100
1000
0000
1000
0010
0000
0100
0000
0100
0000
,
0001
0010
0001
0100
0010
1000
0100
1000
,
0002
0203
0320
2030
,
3001
0000
0100
0000
0010
0000
0000
0100
0000
0000
0000
0000
0001
0000
0000
0000
,
2002
0000
0000
3003
;

//---------------dance-single - ----------------
#NOTEDATA:;
#CHARTNAME:;
#STEPSTYPE:dance-single;
#DESCRIPTION:;
#CHARTSTYLE:;
#DIFFICULTY:Medium;
#METER:4;
#RADARVALUES:0.205970,0.250908,0.020451,0.122706,0.000000,141.000000,139.000000,2.000000,12.000000,0.000000,0.000000,0.000000,0.000000,0.000000,0.205970,0.250908,0.020451,0.122706,0.000000,141.000000,139.000000,2.000000,12.000000,0.000000,0.000000,0.000000,0.000000,0.000000;
#CREDIT:;
#NOTES:
0000
0000
0000
0000
,
0000
0000
0000
0000
,
0000
0000
0000
0000
,
0000
0000
0000
0000
,
0000
0000
0000
0000
,
0010
1000
0100
0000
1000
0000
1000
0000
,
0010
0100
0001
0000
0100
0000
0100
0000
,
0001
0010
0100
0000
1000
0000
1000
0000
,
0001
0100
0001
0000
0020
0000
0030
0000
,
0001
0100
0010
0000
1000
0000
1000
0000
,
0100
1000
0010
0000
0100
0000
0100
0000
,
0001
0010
0100
0000
0010
0000
0010
0000
,
0002
0000
2000
3003
,
0100
0100
0010
0010
,
0010
1000
0100
0000
1000
0000
0000
0000
,
0001
0100
0010
0100
,
0220
0000
0000
0330
,
0001
1000
0100
0100
,
1000
0010
0100
0100
,
0001
0010
0001
0000
0100
0010
0100
0000
,
0010
1000
0100
1000
1000
0000
1000
0000
,
0010
0100
0001
0001
,
0010
0100
1000
1000
,
0010
0100
0010
0000
0100
0001
0010
0000
,
0002
0000
2000
3003
,
0100
0000
0100
0000
0010
0000
0010
1000
,
0100
0000
0100
0000
1000
0010
0100
0001
,
0100
0100
0010
0010
,
0010
1000
0100
0000
1000
0000
1000
0000
,
0020
0000
0130
0100
,
0001
0010
0100
0000
0100
1000
0010
0000
,
0100
0000
0100
0000
0100
0001
0010
0000
,
0002
0000
0000
0103
,
0100
0010
1000
0000
0100
0000
0100
0000
,
1000
0010
0100
0000
0001
0000
0001
0000
,
0010
0001
0010
0000
0001
0000
0100
0000
,
0020
0000
0130
0000
,
0220
0000
0000
0330
;

//---------------dance-single - ----------------
#NOTEDATA:;
#CHARTNAME:;
#STEPSTYPE:dance-single;
#DESCRIPTION:;
#CHARTSTYLE:;
#DIFFICULTY:Easy;
#METER:3;
#RADARVALUES:0.169451,0.193006,0.040902,0.122706,0.000000,116.000000,112.000000,4.000000,12.000000,0.000000,0.000000,0.000000,0.000000,0.000000,0.169451,0.193006,0.040902,0.122706,0.000000,116.000000,112.000000,4.000000,12.000000,0.000000,0.000000,0.000000,0.000000,0.000000;
#CREDIT:;
#NOTES:
0000
0000
0000
0000
,
0000
0000
0000
0000
,
0000
0000
0000
0000
,
0000
0000
0000
0000
,
0000
0000
0000
0000
,
0010
1000
0100
0000
,
0100
1000
0010
0000
,
0100
0001
0010
0000
,
0001
0001
0200
0300
,
0010
0010
1000
0000
,
0100
0100
1000
0000
,
0010
0100
0001
0000
,
0010
0001
0200
0300
,
0010
0010
0100
0100
,
0001
1000
0100
0100
,
0100
1000
0010
0100
,
0202
0000
0303
0101
,
0010
0001
0100
0100
,
0001
0010
0100
0100
,
0100
1000
0010
0100
,
0001
0000
0010
0010
0010
0000
0000
0000
,
0100
0010
1000
1000
,
0100
1000
0010
0010
,
0100
0001
0010
0001
,
0200
0000
0310
0000
,
0010
0000
1000
0000
0100
0100
0100
0000
,
0100
1000
0010
0000
,
0100
0000
0001
0000
0010
0010
0010
0000
,
0010
0001
0100
0000
,
0010
1000
0100
1000
,
1000
0001
0100
0010
,
0010
0100
0001
1000
,
0020
0000
0000
0130
,
0100
1000
0010
0010
,
0100
0001
0010
0010
,
0002
0103
0020
1030
,
2200
0000
0000
3300
,
0202
0000
0000
0303
;

//---------------dance-single - ----------------
#NOTEDATA:;
#CHARTNAME:;
#STEPSTYPE:dance-single;
#DESCRIPTION:;
#CHARTSTYLE:;
#DIFFICULTY:Beginner;
#METER:1;
#RADARVALUES:0.100794,0.113503,0.040902,0.000000,0.000000,69.000000,65.000000,4.000000,0.000000,0.000000,0.000000,0.000000,0.000000,0.000000,0.100794,0.113503,0.040902,0.000000,0.000000,69.000000,65.000000,4.000000,0.000000,0.000000,0.000000,0.000000,0.000000,0.000000;
#CREDIT:;
#NOTES:
// measure 0
0000
0000
0000
0000
,  // measure 1
0000
0000
0000
0000
,  // measure 2
0000
0000
0000
0000
,  // measure 3
0000
0000
0000
0000
,  // measure 4
0000
0000
0000
0000
,  // measure 5
1000
0000
0100
0000
,  // measure 6
1000
0000
0001
0000
,  // measure 7
0100
0000
0010
0000
,  // measure 8
1000
1000
1000
0000
,  // measure 9
0001
0000
0010
0000
,  // measure 10
0100
0000
0010
0000
,  // measure 11
0001
0000
0100
0000
,  // measure 12
0001
0001
0001
0000
,  // measure 13
0010
0000
0100
0000
,  // measure 14
1000
0000
1000
0000
,  // measure 15
0001
0000
0100
0000
,  // measure 16
0110
0000
0000
0000
,  // measure 17
0100
0000
0100
0000
,  // measure 18
0001
0000
0001
0000
,  // measure 19
1000
0000
1000
0000
,  // measure 20
0100
0100
0100
0000
,  // measure 21
1000
0000
0010
0000
,  // measure 22
0100
0000
0001
0000
,  // measure 23
1000
0000
0100
0000
,  // measure 24
0010
0000
0000
0000
,  // measure 25
0001
0000
0100
0000
,  // measure 26
0001
0000
0010
0000
,  // measure 27
0100
0000
1000
0000
,  // measure 28
0010
0000
0100
0100
,  // measure 29
0100
0000
0001
0000
,  // measure 30
0010
0000
0100
0000
,  // measure 31
1000
0000
0001
0000
,  // measure 32
1001
0000
0000
0000
,  // measure 33
0100
0000
0010
0000
,  // measure 34
1000
0000
0100
0000
,  // measure 35
1000
0000
0010
0000
,  // measure 36
0110
0000
0000
0000
,  // measure 37
1001
0000
0000
0000
;
