#TITLE:ギガンティックO.T.N;
#SUBTITLE:-Big Death Edition-;
#ARTIST:れをる;
#TITLETRANSLIT:Gigantic O.T.N;
#SUBTITLETRANSLIT:;
#ARTISTTRANSLIT:Reol;
#GENRE:;
#CREDIT:;
#BANNER:[Chordophones] - Gigantic OTN -Big Death Edition-.png;
#BACKGROUND:[Chordophones] - Gigantic OTN -Big Death Edition--bg.png;
#LYRICSPATH:;
#CDTITLE:;
#MUSIC:[Chordophones] - Gigantic OTN -Big Death Edition-.mp3;
#OFFSET:-0.064;
#SAMPLESTART:45.527;
#SAMPLELENGTH:22.737;
#SELECTABLE:YES;
#BPMS:0.000=190.000
;
#STOPS:
;
#BGCHANGES:;
#KEYSOUNDS:;
#ATTACKS:;

//---------------dance-single - ----------------
#NOTES:
     dance-single:
     :
     Hard:
     9:
     0.799,0.809,0.682,0.288,0.140,611.000,90.000,38.000,0.000,0.000,0.000,0.799,0.809,0.682,0.288,0.140,611.000,90.000,38.000,0.000,0.000,0.000: // measure 0
0000
0000
0000
0000
,  // measure 1
0000
0000
0000
0000
,  // measure 2
0000
0000
0000
0000
,  // measure 3
0000
0000
0000
0000
,  // measure 4
0001
0100
0010
1000
,  // measure 5
0001
1000
0001
1000
0100
0010
0100
0010
,  // measure 6
0001
0000
1001
0000
1000
0001
1001
0000
,  // measure 7
1000
0000
0010
0100
0002
0000
1003
0000
,  // measure 8
0100
0000
1000
0001
0100
0000
0010
0000
1000
0000
1000
0000
0010
0000
0010
0000
,  // measure 9
1000
0000
0001
0000
0010
0000
0100
0000
1000
0010
1000
0010
1000
0000
0100
0000
,  // measure 10
0020
0000
0031
0100
0020
0000
1030
0002
,  // measure 11
0000
0000
1003
1001
,  // measure 12
0001
0010
0100
0010
1000
0010
0100
0010
,  // measure 13
0001
0000
0011
0001
1000
0000
1001
0000
,  // measure 14
1000
0010
0100
0010
0001
0010
0100
0010
,  // measure 15
1000
1000
0010
0010
0100
0100
0002
0000
,  // measure 16
1003
0000
0100
0000
0010
0100
1000
0001
,  // measure 17
0100
0000
0000
0000
0010
0000
0000
0010
0100
0000
0010
0000
1000
0000
0000
0000
,  // measure 18
0010
0000
1000
0000
0001
0000
0000
0001
0010
0000
0000
0000
0100
0000
0000
0000
,  // measure 19
1000
0100
0001
0100
1000
0100
0001
0100
,  // measure 20
1000
0000
1001
0000
0001
0100
0101
0001
,  // measure 21
0100
0000
0000
0000
0110
0000
0000
0010
1000
0000
0000
0000
1010
0000
0000
1000
,  // measure 22
0001
0000
0000
0000
1001
0000
0000
0001
0010
0100
0010
0000
0110
0000
0000
0000
,  // measure 23
0100
0010
0100
0010
0001
1000
0001
1000
,  // measure 24
0010
0100
0010
1000
0001
0010
0001
1000
,  // measure 25
0001
0000
0000
0000
0101
0000
0000
0001
1000
0000
0000
0000
1001
0000
0000
0000
,  // measure 26
1100
0000
0000
0000
0100
0000
0000
0010
0100
0000
0010
0000
0001
0000
1000
0000
,  // measure 27
0010
0010
0100
0100
0010
0100
0001
0000
,  // measure 28
1000
0000
1001
0001
1000
0000
1001
0000
,  // measure 29
1000
0010
0001
0010
1000
0000
1001
0000
,  // measure 30
0100
0000
0110
0000
0010
0100
0110
0000
,  // measure 31
0010
0000
0100
1000
0100
0000
1000
0000
0010
0000
1000
0000
1000
0000
0000
0000
,  // measure 32
0010
1010
1000
1001
,  // measure 33
0011
0110
1100
1001
,  // measure 34
0001
0000
0001
0000
0100
0000
0100
0000
0010
0100
0010
0100
0001
1000
0001
1000
,  // measure 35
0100
0000
0000
0000
0100
0000
0000
0000
0100
0000
0010
0100
0010
0000
0001
0000
,  // measure 36
0022
0033
2002
3003
,  // measure 37
2020
0000
0000
0000
3030
0010
1000
0000
,  // measure 38
0010
0110
0101
1001
,  // measure 39
1000
0000
0000
0000
1001
0000
0001
1000
0001
0000
1000
0000
0100
0000
0000
0000
,  // measure 40
1000
0100
0010
0010
0100
0010
0001
0001
,  // measure 41
0010
0000
0011
0001
1000
0000
1001
0000
,  // measure 42
0001
0000
0100
0000
0010
0000
1000
0010
1000
0000
0001
0000
1000
0000
1000
0000
,  // measure 43
0001
0010
1000
0010
0001
0001
0002
0000
,  // measure 44
0013
0100
1000
0001
0100
0000
0101
0000
,  // measure 45
0001
0100
1000
0100
0001
0010
1000
0010
,  // measure 46
0001
0011
1001
1010
,  // measure 47
1000
0010
0100
0000
0110
0000
1001
0000
,  // measure 48
0001
0010
0100
0100
0010
0100
1000
1000
,  // measure 49
0010
0000
0000
0000
1010
0000
0010
0100
0010
0000
0000
0000
0110
0000
0000
0000
,  // measure 50
0100
0001
0100
1000
0100
0010
1000
0100
,  // measure 51
0010
1000
0010
0001
0010
0100
1000
0001
,  // measure 52
1000
0000
1100
0100
1000
0000
1001
0000
,  // measure 53
0001
0000
0101
0100
0001
0000
1001
0000
,  // measure 54
2100
3001
0102
1003
,  // measure 55
2010
3001
0012
1003
,  // measure 56
2001
3100
1002
0103
,  // measure 57
0210
0000
0000
0000
0310
0000
0000
0000
1010
0000
0000
0010
0000
0000
0100
0000
,  // measure 58
0001
0000
1000
0000
0001
1000
0001
0000
,  // measure 59
0102
0013
0210
1300
,  // measure 60
2100
3010
0210
0310
,  // measure 61
0100
0000
0001
0000
1000
1000
1000
0000
,  // measure 62
2002
3003
0220
0330
,  // measure 63
2002
0000
3003
0000
0000
0001
1000
0000
,  // measure 64
0100
1100
1001
0101
,  // measure 65
0110
0000
0000
0000
1010
0000
0010
1000
0010
0000
1000
0000
0001
0000
0000
0000
,  // measure 66
0010
0001
0010
0001
0010
0100
0010
0100
,  // measure 67
1000
0000
1100
1000
0001
0000
1001
0000
,  // measure 68
0001
0000
0100
0000
0010
0000
0100
0010
1000
0000
0010
0000
1000
0000
1000
0000
,  // measure 69
0010
0100
0001
1000
0010
0010
0020
0000
,  // measure 70
1030
0001
0010
0100
1000
0000
1100
0000
,  // measure 71
1000
0100
0001
0100
1000
0010
0001
0010
,  // measure 72
1000
1010
0110
0101
,  // measure 73
0001
1000
0100
0000
1100
0000
0110
0000
,  // measure 74
0010
0100
0010
0100
1000
0001
1000
0001
,  // measure 75
0100
0000
0000
0000
0110
0000
0010
1000
0001
0000
0000
0000
1001
0000
0000
0000
,  // measure 76
1000
0001
0100
1000
0001
0010
1000
1000
,  // measure 77
0001
1000
0100
0001
1000
0010
0001
1000
,  // measure 78
0010
0000
1010
1000
0001
0000
1001
0001
,  // measure 79
0010
0000
0000
0100
0000
0000
1000
0000
0001
0000
0000
0000
1001
0000
0000
0000
,  // measure 80
0001
0100
1000
0100
0001
0010
1000
0010
,  // measure 81
0001
0010
0100
1000
0001
0000
1001
0000
,  // measure 82
2010
3010
2001
3001
,  // measure 83
0001
0010
1000
0010
0001
0100
0010
1000
,  // measure 84
1002
0013
0012
1003
,  // measure 85
1000
0100
0001
0100
1000
0010
0100
0001
,  // measure 86
0201
0000
0000
0000
0310
0000
0000
0000
0120
0000
0000
0000
1030
0000
0010
1000
,  // measure 87
0020
1030
2000
3001
,  // measure 88
0001
0010
0100
1000
0001
0010
0100
1000
,  // measure 89
0001
0000
0100
0000
0010
0000
1000
0000
0001
0100
0010
1000
0001
0000
1000
0000
,  // measure 90
0001
0010
1000
0010
0001
0001
0011
0000
,  // measure 91
0010
0001
1000
0001
1000
0010
0100
0001
,  // measure 92
1000
0000
1001
0000
0001
1000
1001
0000
,  // measure 93
1000
0010
0001
0010
1000
1000
1000
0000
,  // measure 94
0010
0000
1000
0010
1000
0000
1000
0000
0001
1000
0001
1000
0001
0000
0001
0000
,  // measure 95
0010
0100
0010
0100
0010
0000
0010
0000
0100
0000
1000
0000
0001
0000
0001
0000
,  // measure 96
1000
0000
0010
1000
0010
0000
1000
0001
1000
0000
0001
0000
0010
0000
0010
0000
,  // measure 97
0001
0010
0100
1000
0001
0100
0010
1000
,  // measure 98
0001
0000
0000
0001
1000
0000
0000
1000
,  // measure 99
0010
0000
0000
0010
0000
0000
1000
0000
0010
0000
0000
0000
0100
0000
0000
0000
,  // measure 100
0010
0000
0100
0000
0000
0000
0010
0000
0100
0000
0000
0001
0000
0000
0010
0000
,  // measure 101
0100
0000
0000
0010
0100
0000
0110
0000
;

//---------------dance-single - ----------------
#NOTES:
     dance-single:
     :
     Medium:
     7:
     0.464,0.461,0.076,0.061,0.000,411.000,10.000,8.000,0.000,0.000,0.000,0.464,0.461,0.076,0.061,0.000,411.000,10.000,8.000,0.000,0.000,0.000:
0000
0000
0000
0000
,
0000
0000
0000
0000
,
0000
0000
0000
0000
,
0000
0000
0000
0000
,
0001
0010
0100
1000
,
0001
0100
0010
1000
,
0100
0000
0010
0000
0100
0010
0100
0000
,
1000
0000
0010
0100
0010
0000
0100
0000
,
0001
0100
0001
0000
0100
0010
0100
0000
,
0010
0000
1000
0000
0001
1000
0001
0000
,
1000
0000
0100
0000
0010
0000
0010
0001
,
0000
0000
1001
1001
,
1000
0010
0100
0001
,
1000
1000
0001
0001
,
1000
0100
0010
0001
,
0010
1000
0100
0001
,
0010
0001
0100
0100
,
0010
1000
0100
0100
,
1000
0001
0100
0100
,
0010
0100
0010
0100
0010
0100
0010
0100
,
0010
1000
0001
0001
,
0010
0000
0100
0000
1000
0100
1000
0000
,
0001
0000
0100
0000
0001
0100
0001
0000
,
0100
0010
0100
0000
0001
1000
0001
0000
,
0010
0100
1000
1000
,
0100
1000
0001
0001
,
0100
0100
0010
0010
,
0100
0010
1000
0001
0010
0100
1000
0000
,
0001
0000
0000
1000
0001
0000
0000
1000
,
0000
1000
0000
1000
1000
0000
0001
0000
,
0010
0000
0100
0000
0010
0100
0000
0010
,
0000
0100
0010
0100
0010
0100
0100
0000
,
1000
1000
0001
0001
,
0100
0100
0010
0010
,
0100
0010
0100
0010
0100
0010
0100
0010
,
0100
0100
0100
0000
,
0020
0000
0200
0330
,
0220
0000
0000
0330
,
0010
1000
0001
0010
,
0100
0000
0100
0000
0010
0100
1000
0000
,
0100
0000
1000
0000
0001
1000
0001
0000
,
0100
0000
0010
1000
0001
0000
0010
0000
,
0100
0000
1000
0000
0010
0010
0010
0000
,
1000
0000
0001
0000
0010
0010
0010
0000
,
0100
0010
0100
0000
1000
0000
0001
0000
,
0100
0100
0010
0010
,
0100
0010
0110
0000
,
0001
1000
1001
0000
,
0001
0010
0001
0000
1000
0100
1000
0000
,
0001
0000
0100
0010
1000
0000
0001
0000
,
1000
0000
0100
0000
0010
0001
0010
0000
,
0001
0100
0010
0000
1000
0000
0010
1000
,
0010
0000
1000
1000
0000
0000
1000
0000
,
0000
0000
0001
0001
0000
0000
0001
0000
,
0010
0000
0010
0000
,
0100
0000
0100
0000
,
1000
0000
1000
0000
,
0001
0000
0001
1000
,
0001
0000
0100
0000
,
0010
0010
0010
0000
,
1000
1000
0001
0001
,
0010
0010
0000
0000
,
0200
0000
0020
0330
,
0220
0000
0000
0330
,
0010
0000
0100
0000
1000
0000
0001
0100
,
0000
0100
0000
0100
0010
1000
0001
0000
,
0010
0001
0010
0000
0001
1000
0001
0000
,
0100
0000
0010
1000
0001
0000
1000
0000
,
0100
0000
0010
0000
0001
0001
0001
0000
,
0100
0000
0010
0000
1000
1000
1000
0000
,
0100
0010
0001
1000
0001
0000
1001
0000
,
1000
1000
0001
0001
,
0010
0100
0110
0010
,
0001
0100
0110
0110
,
0010
1000
0010
0000
1000
0001
1000
0000
,
0001
0000
0010
0100
1000
0000
0001
0000
,
0100
0000
0010
0000
0100
0010
0100
0000
,
0001
1000
0001
0000
0010
0000
0100
1000
,
0001
0001
1000
1000
,
0010
0000
0100
0000
0001
0100
0001
0000
,
0010
0000
0010
0000
0100
0010
0100
0000
,
1000
0001
1000
0000
,
0001
0000
0100
0000
,
0010
0010
0100
0010
,
1000
0000
1000
0000
,
0010
0000
1000
0000
0001
1000
0001
0000
,
0010
0000
0000
0000
0010
0000
0000
0100
,
0010
0000
0001
0000
,
1000
0010
0100
0100
,
0010
0000
0100
0000
0001
0100
0001
1000
,
0100
0100
0010
0000
,
0100
0010
0001
1000
,
0010
0000
0100
0000
0010
0100
0000
0000
,
0001
0000
1000
0000
0001
1000
0001
0000
,
0010
0001
0010
0000
0100
0010
0100
0000
,
1000
0100
1000
0000
0001
0001
0000
0000
,
1000
0000
0010
0000
0100
0010
0100
0000
,
0001
0000
1000
0000
0100
0010
0100
0000
,
0010
0000
0001
0000
,
1000
1000
1000
0000
,
0001
0000
0100
0000
,
0010
0010
0010
0000
;

//---------------dance-single - ----------------
#NOTES:
     dance-single:
     :
     Easy:
     4:
     0.279,0.307,0.015,0.008,0.000,255.000,2.000,1.000,0.000,0.000,0.000,0.279,0.307,0.015,0.008,0.000,255.000,2.000,1.000,0.000,0.000,0.000:
0000
0000
0000
0000
,
0000
0000
0000
0000
,
0000
0000
0000
0000
,
0000
0000
0000
0000
,
0001
0000
0001
0000
,
1000
0000
1000
0000
,
0100
0100
0100
0000
,
0010
0010
0010
0000
,
0001
0010
0001
0001
,
1000
0001
1000
1000
,
0010
0000
0100
0000
,
0010
0000
0000
0000
,
0100
0000
0100
0000
,
0001
0001
0001
0000
,
1000
0000
0001
0000
,
1000
1000
1000
0000
,
0100
0100
0010
0010
,
0001
0000
0001
0000
,
0100
0100
0010
0010
,
1000
1000
1000
1000
,
1000
0000
0010
0000
,
1000
0000
1000
0000
,
0001
0000
0001
0000
,
0010
0010
0010
0000
,
0100
0000
1000
0000
,
0001
0000
0001
0000
,
1000
0000
0010
0000
,
0100
0100
0100
0100
,
0001
0000
1000
0000
,
0001
0001
0001
0000
,
1000
0001
1000
0000
,
1000
0001
1000
0000
,
0001
0000
0001
0000
,
1000
0000
1000
0000
,
0001
1000
0001
1000
,
0002
0000
0000
0003
,
1000
0000
0001
0000
,
1001
0000
0000
0000
,
0001
0010
0100
0000
,
0010
0100
1000
0000
,
0001
0000
0001
0000
,
1000
0000
1000
0000
,
0010
1000
0010
0000
,
1000
0001
1000
0000
,
0001
0001
0001
0000
,
0010
0010
0010
0000
,
0100
0010
0010
0000
,
0001
1000
1000
0000
,
0100
0000
0010
0000
,
0001
0001
0001
0000
,
1000
1000
1000
0000
,
0010
0010
0010
0000
,
0100
0010
1000
0001
,
0100
0100
0100
0000
,
0010
0000
0000
0000
,
0100
0000
0000
0000
,
0001
0000
0000
0000
,
1000
0000
1000
0000
,
1000
0000
0100
0000
,
0010
0000
0000
0000
,
0100
0000
0100
0000
,
0100
0000
0000
0000
,
0010
0000
0100
0000
,
0110
0000
0000
0000
,
0010
0000
0010
0000
,
0001
0001
0001
0000
,
1000
0001
1000
0000
,
0010
1000
0010
0000
,
0100
0000
0001
0100
,
0001
0000
1000
0001
,
1000
0000
0100
0000
,
1000
1000
1000
0000
,
0001
1000
0001
0000
,
0100
0010
0100
0000
,
0010
0000
0100
0000
,
0001
0000
0001
0000
,
1000
0001
1000
0000
,
0100
0010
0100
0000
,
0010
0000
0010
0000
,
0001
0000
0001
0000
,
0010
0001
1000
0010
,
0100
0100
0100
0000
,
0010
0000
0100
0000
,
0001
0001
0100
0001
,
1000
0000
1000
0000
,
0001
0010
0100
1000
,
0001
0000
0001
0000
,
1000
0000
1000
0000
,
0010
0100
0001
1000
,
0100
0010
0001
1000
,
0100
0100
0100
0000
,
1000
1000
1000
1000
,
0001
1000
0001
0000
,
0100
0010
0100
0000
,
0010
0000
0010
0000
,
1000
0000
1000
0000
,
0001
1000
0001
0001
,
0010
0001
0010
0010
,
0100
0000
0010
0000
,
0100
1000
0010
0000
,
1000
0000
0001
0000
,
0010
0001
1000
0000
;
