#TITLE:Enamel;
#SUBTITLE:;
#ARTIST:SID;
#TITLETRANSLIT:;
#SUBTITLETRANSLIT:;
#ARTISTTRANSLIT:;
#GENRE:;
#CREDIT:;
#BANNER:[Chordophones] - Enamel-bn.png;
#BACKGROUND:[Chordophones] - Enamel-bg.png;
#LYRICSPATH:;
#CDTITLE:;
#MUSIC:[Chordophones] - Enamel.mp3;
#OFFSET:-0.350000;
#SAMPLESTART:64.599998;
#SAMPLELENGTH:12.000000;
#LASTBEATHINT:363.959839;
#SELECTABLE:YES;
#DISPLAYBPM:28.000000:224.000000;
#BPMS:0.000000=112.000000
,88.000000=224.000000
,90.000000=448.000000
,98.000000=224.000000
,99.000000=448.000000
,102.000000=224.000000
,118.000000=112.000000
,126.000000=28.000000
,127.000000=224.000000
,262.000000=112.000000
,286.000000=224.000000
,290.000000=448.000000
,292.000000=224.000000
;
#STOPS:89.500000=1.607000,
99.000000=0.045000,
99.333336=0.045000,
99.666664=0.045000,
100.000000=0.045000,
100.333336=0.045000,
100.666664=0.045000,
101.000000=0.045000,
101.333336=0.045000,
101.666664=0.045000,
134.875000=0.268000,
290.000000=0.402000,
291.000000=0.402000
;
#BGCHANGES:;
#KEYSOUNDS:;
#ATTACKS:;

//---------------dance-single - ----------------
#NOTES:
     dance-single:
     :
     Easy:
     3:
     0.216711,0.330909,0.081798,0.133851,0.000000,204.000000,193.000000,11.000000,18.000000,0.000000,0.000000,0.216711,0.330909,0.081798,0.133851,0.000000,204.000000,193.000000,11.000000,18.000000,0.000000,0.000000:
0000
0000
0000
0000
,
0000
0000
0000
0000
,
0000
0000
0000
0000
,
0000
0000
0000
1001
,
1000
1000
0000
1001
,
0001
0001
0000
0110
,
0010
0010
0000
0110
,
0100
0100
0001
0100
,
1000
1000
0000
0110
,
0001
0001
0000
1001
,
0010
0010
0000
1001
,
0100
0100
0010
0010
,
2000
0000
0000
0000
,
3002
0000
0000
0000
,
0013
0010
0010
0100
,
0001
0001
0001
0100
,
1000
1000
1000
0001
,
0100
0010
0010
0010
,
1000
0001
0001
0010
,
0100
1000
1000
0010
,
0001
1000
1000
0100
,
0010
1000
0001
1001
,
0100
0000
2002
0000
,
0000
0000
0000
0000
,
3003
0000
0100
0100
,
0000
0000
0100
0000
,
0010
0000
0100
0000
,
0010
0000
1000
0000
,
0001
0000
1000
0000
,
0001
0000
0010
0000
,
0100
1000
0001
0000
,
0100
0010
2000
3001
,
0000
0001
0000
0011
,
0000
1100
0000
0100
,
0000
0100
0000
0010
,
0000
0010
0000
0001
,
0000
0001
1000
0000
,
1000
0000
0000
0010
,
0000
0010
0000
1000
,
0000
0100
1000
0000
,
1000
0000
0001
0000
,
0001
0000
0000
0010
,
0000
0010
0000
0100
,
0000
0001
0000
0001
,
0000
0100
0010
0000
,
0001
0000
1000
0000
,
1000
0000
0001
0000
,
0001
0000
0010
0000
,
0010
0000
0100
0000
,
0100
0000
1000
0000
,
1000
0000
0001
0000
,
0001
0000
0010
0000
,
0010
0000
0010
0000
,
0100
0000
1000
0000
,
0100
0000
0001
0000
,
0100
0000
0001
0000
,
1000
0000
0010
0000
,
0100
0000
1000
0000
,
0001
0000
0100
0000
,
0010
0000
1000
0000
,
0100
0000
1000
0000
,
1000
0000
0001
0000
,
0100
0000
0001
0000
,
0001
0000
0010
0000
,
0001
0000
1000
0000
,
0010
0000
0200
0000
,
0320
0000
2030
0000
,
3002
0000
0023
0000
,
0230
0000
2300
0000
,
3002
0000
2003
0000
,
3200
0000
0320
0000
,
0032
0000
1003
0000
,
0001
0000
1000
0001
,
0000
1000
0000
1000
,
0000
0001
0000
0001
,
0000
0010
0000
0010
,
0100
0000
0100
0000
,
0000
1000
0000
0010
,
0000
0100
0000
0001
,
1000
0000
1000
0000
,
0001
0000
0001
0000
,
0000
0010
0000
0010
,
0000
0100
0000
0100
,
0000
1000
0000
1000
,
0001
0000
0001
0000
,
0100
0000
0010
0000
,
1000
0000
0001
0000
,
0020
0000
0000
0000
,
0000
0000
0000
0000
,
0030
0000
0000
0000
;

//---------------dance-single - ----------------
#NOTES:
     dance-single:
     :
     Beginner:
     2:
     0.128539,0.198546,0.000000,0.052053,0.000000,121.000000,121.000000,0.000000,7.000000,0.000000,0.000000,0.128539,0.198546,0.000000,0.052053,0.000000,121.000000,121.000000,0.000000,7.000000,0.000000,0.000000:
0000
0000
0000
0000
,
0000
0000
0000
0000
,
0000
0000
0000
0000
,
0000
0000
0000
0000
,
1000
0000
0000
0001
,
0001
0000
0000
0010
,
0010
0000
0000
0100
,
0100
0000
1000
0000
,
0001
0000
0000
0100
,
0100
0000
0000
0010
,
0010
0000
0000
1000
,
1000
0000
0001
0000
,
0020
0000
0000
0030
,
0200
0000
0000
0300
,
1000
0000
0000
0100
,
1000
0000
0000
0100
,
0001
0000
0000
0010
,
1000
0000
0000
0010
,
0001
0000
0001
0000
,
1000
0000
1000
0000
,
0100
0000
0100
0000
,
0010
0010
0010
0000
,
0100
0000
0100
0000
,
0000
0000
0000
0000
,
0000
0000
0000
0000
,
0000
0000
0010
0000
,
0000
0000
0010
0000
,
0000
0000
0001
0000
,
0000
0000
1000
0000
,
0000
0000
0020
0000
,
0230
0000
0302
0000
,
1003
0000
1000
0100
,
0000
0100
0000
0100
,
0000
0100
0000
0000
,
0010
0000
0000
0000
,
0010
0000
0000
0000
,
0001
0000
0000
0000
,
1000
0000
0000
0000
,
0100
0000
0000
0000
,
0100
0000
0000
0000
,
1000
0000
0000
0000
,
0001
0000
0000
0000
,
0100
0000
0100
0000
,
0000
0000
1000
0000
,
1000
0000
1000
0000
,
0000
0000
0001
0000
,
0001
0000
0001
0000
,
0000
0000
0010
0000
,
0000
0000
0100
0000
,
0000
0000
1000
0000
,
0000
0000
0001
0000
,
0000
0000
0100
0000
,
0100
0000
0100
0000
,
0000
0000
0010
0000
,
0010
0000
0010
0000
,
0000
0000
1000
0000
,
0000
0000
0010
0000
,
0000
0000
0100
0000
,
0000
0000
0001
0000
,
0000
0000
1000
0000
,
1000
0000
1000
0000
,
0000
0000
0001
0000
,
0001
0000
0001
0000
,
0000
0000
0100
0000
,
0100
0000
0100
0000
,
0100
0000
0200
0000
,
0300
0000
0010
0010
,
0010
0000
1000
0000
,
0100
0000
0001
0000
,
0100
0000
0000
0010
,
0010
0000
0001
0000
,
1000
0000
0010
0000
,
0000
0000
0010
0000
,
0000
0000
0100
0000
,
0000
0000
0100
0000
,
0000
0000
1000
0000
,
0000
0000
0001
0000
,
0000
0000
0010
0000
,
0000
0000
0010
0000
,
0000
0000
0001
0000
,
0000
0000
1000
0000
,
0000
0000
0010
0000
,
0010
0000
0000
0000
,
0001
0000
0001
0000
,
0001
0000
0000
0000
,
1000
0000
1000
0000
,
1000
0000
0000
0000
,
0200
0000
0000
0000
,
0000
0000
0000
0000
,
0300
0000
0000
0000
;

//---------------dance-single - ----------------
#NOTES:
     dance-single:
     :
     Medium:
     6:
     0.389867,0.496364,0.141287,0.141287,0.037181,367.000000,348.000000,19.000000,19.000000,0.000000,0.000000,0.389867,0.496364,0.141287,0.141287,0.037181,367.000000,348.000000,19.000000,19.000000,0.000000,0.000000:
0000
0000
0000
0000
,
0000
0000
0000
0000
,
0000
0000
0000
0000
,
0000
0000
0000
0000
0000
0000
0000
0000
0000
0000
0000
0000
1000
0100
0000
0000
,
1000
1000
0010
0000
0000
0100
0001
0000
,
0001
0001
0010
0000
0000
0100
1000
0000
,
0001
0001
0100
0000
0000
0010
1000
0000
,
1000
1000
0100
0000
0001
0001
0100
0000
,
0010
0010
1000
0000
0000
0100
1000
0000
,
0100
0100
0001
0000
0000
0010
0001
0000
,
0100
0001
0100
0000
0000
0010
1000
0000
,
0100
1000
0100
0000
0010
0001
0010
0000
,
0200
1000
1000
1300
,
0020
0001
0001
0031
,
0200
0001
0010
0001
,
0320
0100
1000
0100
,
2030
0010
0001
0100
,
3002
0010
1000
0100
,
0023
0100
1000
0001
,
0230
1000
0001
0010
,
2300
0001
0010
0100
,
3002
0010
0100
1003
,
1000
0001
0000
1000
2002
0000
0000
0000
,
0000
0000
0000
0000
,
3003
0000
0110
0220
,
0000
0000
0000
0000
0330
0000
1000
0000
0000
0100
0000
0000
,
1000
0100
0010
0001
,
0010
0001
0100
0001
,
0100
0001
1000
0020
,
0000
0000
0130
0001
,
1000
0100
1000
0100
0010
0000
0001
0000
,
1000
0000
0010
0000
1000
0000
0010
0000
0200
0000
0000
0001
0301
0000
0000
0000
,
0000
0000
0000
1000
0000
0000
0000
0000
0000
0000
0000
0000
0001
0000
0000
0000
0000
0000
0010
0000
0000
0000
0001
0000
,
0000
0100
0000
0010
0000
1000
0000
0100
0000
0010
0000
0000
,
0001
0010
0001
0000
1000
0010
1000
0000
,
0100
0100
0010
0001
,
1000
0000
0100
0000
1100
0000
0000
0101
,
0000
1100
1000
0100
,
0010
0001
0100
0100
,
0001
0000
1000
0010
,
0001
0010
1000
0100
,
0001
0100
0000
0010
,
0001
0100
0001
0000
1000
0100
1000
0000
,
0010
0010
0000
0100
,
0001
1000
0100
0010
,
0001
1000
0010
0010
,
1000
1000
0001
0001
,
0100
0000
0100
0000
0010
1000
0010
0000
,
1000
0100
0010
0000
0001
0000
0001
0000
,
0100
0000
0100
0000
0010
0001
0010
0000
,
0001
0100
0010
0000
1000
0000
0100
0000
,
0001
0000
1000
0000
0010
0000
0000
0011
,
0000
0000
0101
0000
0000
1100
0000
0000
,
0010
1000
0010
1000
0000
0000
0100
0000
,
0010
0001
0010
0100
,
1000
0000
0100
0100
,
0010
0001
1000
1000
,
0010
0100
0001
0001
,
1000
0100
0010
0010
,
1001
0000
1000
0100
,
1000
0010
0100
0001
,
1000
0100
0001
0100
,
0001
0010
0100
1000
,
0001
0000
0010
0000
0101
0000
0000
1100
,
0000
0000
1010
0000
0000
0011
0000
0000
,
0110
0000
0220
0000
,
0000
0330
0000
1000
0010
0100
0001
0100
,
0010
0000
0000
1000
0000
0000
0000
0000
0000
0000
0100
0000
0010
0000
0001
0000
,
1000
0000
0010
1000
0000
0000
0001
0000
0010
0000
0010
0000
0001
0000
0000
0000
,
0100
0000
0100
0000
1000
0000
0000
0100
0000
0000
0010
0000
1000
0000
0000
0100
,
0000
0010
0001
0100
0000
0001
1000
0000
,
0100
0010
0100
0000
1000
0000
0100
0000
,
0010
0001
0100
0100
,
0100
0000
1000
0000
0010
1000
0010
0000
,
0100
1000
0100
0000
0001
0000
0001
0000
,
1000
0010
0100
0001
,
0101
0000
0000
0011
0000
0000
0101
0000
,
0100
0001
1000
0010
,
0001
0001
0010
0000
,
0100
1000
0010
1000
,
0100
0001
0010
0001
,
0000
0000
1000
0000
0010
0001
0010
0000
,
0100
0001
0100
0000
1000
0000
1000
0000
,
0000
0001
0010
0100
,
0001
1000
0010
0100
,
1000
1000
0100
0100
,
0010
0010
0001
0001
,
0200
0000
0000
0000
,
0000
0000
0000
0000
,
0300
0000
0000
0000
;

//---------------dance-single - ----------------
#NOTES:
     dance-single:
     :
     Hard:
     8:
     0.521594,0.694909,0.327191,0.290010,0.171032,491.000000,447.000000,44.000000,39.000000,0.000000,0.000000,0.521594,0.694909,0.327191,0.290010,0.171032,491.000000,447.000000,44.000000,39.000000,0.000000,0.000000:
0000
0000
0000
0000
,
0000
0000
0000
0000
,
0000
0000
0000
0000
,
0000
0000
0000
0000
0000
0000
0000
0000
0000
0000
0000
0000
0010
1000
0000
0000
,
0100
0000
0100
0000
0010
0000
1000
0100
1000
0000
0001
0000
0000
1010
0000
0000
,
0100
0000
0100
0000
0010
0000
0001
0100
0001
0000
0010
0000
0000
0101
0000
0000
,
0001
0000
1000
0000
0010
0000
1000
0100
1000
0000
1010
0000
0000
0110
0000
0000
,
0001
0000
0110
0000
0000
0000
0000
0000
1000
0000
0110
0000
0000
0002
0000
0000
,
1003
0000
1000
0000
0010
0000
0100
0001
0100
0000
0010
0000
0000
1100
0000
0000
,
0001
0000
0001
0000
1000
0000
0010
0001
0010
0000
1000
0000
0000
0011
0000
0000
,
0010
0000
0100
0000
1000
0000
0100
0001
0100
0000
1100
0000
0000
1001
0000
0000
,
0010
0000
1001
0000
0000
0000
0000
0000
0100
0000
1001
0000
0000
0020
0000
0000
,
0230
0000
0000
0010
0000
0000
0001
0000
0000
0010
0000
0000
1000
0000
0300
0000
,
0020
0000
0000
1000
0000
0000
0100
0000
0000
0001
0000
0000
0100
0000
0030
0000
,
0002
0000
0000
0010
0000
0000
0100
0000
0000
1000
0000
0000
0010
0000
0003
0000
,
2000
0000
0000
0100
0000
0000
0010
0000
0000
0001
0000
0000
0100
0000
3000
0000
,
0020
0000
0000
1000
0000
0000
0001
0000
0000
0100
0000
0000
1030
0000
0001
0000
,
0200
0000
0000
0001
0000
0000
1000
0000
0000
0010
0000
0000
0301
0000
1000
0000
,
0100
0000
0000
1000
0000
0000
0001
0000
0100
0000
0000
0001
0000
0000
0010
0000
,
0001
0000
0000
1000
0000
0000
0010
0000
0100
0000
0000
0010
0000
0000
1000
0000
,
0100
1000
0100
0010
0001
0010
0001
0100
,
0020
2030
3002
0203
,
0310
0100
0000
0010
2002
0000
0000
0000
,
0000
0000
0000
0000
,
0000
3003
0110
2002
,
0000
0000
3003
0000
1000
0100
1000
0000
,
0001
0010
0001
0000
0011
0000
0100
0000
,
1010
0100
0010
0001
,
0100
0000
0010
0000
1000
0001
1000
0000
,
0010
0000
0100
0000
0010
0000
0000
0000
1000
0000
0010
0000
0100
0000
0001
0100
,
0001
0000
0010
0000
0100
0000
1000
0100
1000
0000
0001
0000
0010
0000
0100
0001
,
0100
0000
0010
0000
0001
0000
0100
1000
0200
0000
0000
0310
1000
0000
0000
0000
,
1000
0000
0000
0100
0000
0000
0000
0000
0000
0100
0000
0000
0001
0000
0000
0000
0000
0000
0100
0000
0000
0000
0010
0000
,
0000
0001
0000
0100
0000
0010
0000
2000
0000
3100
0000
0000
,
0001
0100
0010
0000
1000
0100
0010
0000
,
0100
0000
0010
0000
0001
0010
0001
0000
,
1000
0010
1000
0000
0101
0000
0000
2200
,
0000
3300
0000
0000
0001
0000
1000
0000
,
0100
1000
0100
0000
0010
0000
0010
0001
,
0000
0001
0100
0000
0001
0000
1010
0000
,
1000
0000
0011
0000
0001
0100
0001
0100
,
0001
0100
0001
1000
0000
0000
0010
0000
,
0100
0001
0100
0000
0001
0000
0101
0000
,
0000
1100
0000
1001
,
0010
0100
0010
0000
0001
1000
0001
1000
,
0000
0100
0010
0000
0001
0010
0001
0000
,
0100
0001
0100
0000
0010
1000
0010
0000
,
1000
0100
1000
0000
0010
0000
0010
0000
,
0100
0001
0100
0000
1000
0100
1000
0000
,
0001
1000
0001
0000
0010
0100
0001
0000
,
0010
0100
1000
0000
1000
0100
0010
0000
,
0100
0010
0001
0000
0020
0000
0000
0032
,
0000
0000
2003
0000
0000
3020
0000
0000
,
0130
0010
0100
0010
0000
0000
1000
0000
,
0010
0001
0100
1000
,
0010
0100
0010
0000
1000
0000
1100
0000
,
1000
0100
0000
0010
0001
0000
0100
0010
,
1000
0000
0100
0020
0000
0000
0130
0000
,
1000
0000
0001
0000
0100
0010
0100
0010
,
0000
1000
0100
0100
,
1000
1000
0001
0001
,
0010
0001
0010
0000
0100
0000
0100
0000
,
0001
0001
1000
1000
,
0010
1000
0010
0000
0110
0000
0000
1010
,
0000
0000
0110
0000
0000
0101
0000
0000
,
1001
0110
2002
0003
,
0100
0000
0000
0001
0000
0000
3010
0000
0002
0000
0000
0100
0000
0000
1000
0000
,
0010
0000
0000
2003
0000
0000
3010
0000
0100
0000
0010
0000
1000
0000
0010
0000
,
0100
0000
0001
0010
0000
0001
0100
0000
0002
0000
0203
0000
1300
0000
0000
0000
,
2000
0000
3200
0000
0301
0000
0000
0010
0000
0000
0100
0000
0010
0000
0001
0000
,
1000
0010
0100
0020
0000
1030
0200
0301
,
0200
1300
0020
0130
0001
0100
0001
0000
,
1000
0100
1000
0000
1010
0000
0101
0000
,
1001
0000
0010
0000
1000
0010
0100
0000
,
0001
0010
0100
0010
0001
0010
0100
0000
,
1000
0100
1000
0000
0001
0100
0001
0000
,
1010
0000
0000
0011
0000
0000
0110
0000
,
1000
0000
0001
0000
0010
0001
0010
0000
,
0100
0000
0100
1000
0000
1000
0010
0000
,
1000
0101
0001
1100
,
1000
0010
1000
0010
1000
0010
1000
0001
,
0000
0001
0100
0000
0010
1000
0010
0000
,
1000
1010
0000
0011
,
0000
0000
1001
0000
0100
0010
0100
0000
,
1000
0001
1000
0001
0000
0010
0100
0000
,
1000
0100
1000
0000
0010
1000
0010
0000
,
0100
0001
0100
0000
0001
0010
0001
0000
,
2002
0000
0000
0000
,
0000
0000
0000
0000
,
3003
0000
0000
0000
;

//---------------dance-single - ----------------
#NOTES:
     dance-single:
     :
     Challenge:
     10:
     0.678815,0.926546,0.490787,0.304883,0.356936,639.000000,573.000000,66.000000,41.000000,0.000000,1.000000,0.678815,0.926546,0.490787,0.304883,0.356936,639.000000,573.000000,66.000000,41.000000,0.000000,1.000000:
// measure 0
0000
0000
0000
0000
,  // measure 1
0000
0000
0000
0000
,  // measure 2
0000
0000
0000
0000
,  // measure 3
0000
0000
0000
0000
0000
0000
0000
0000
0000
0000
0000
0000
0010
1100
0000
0000
,  // measure 4
0101
0000
0101
0000
0010
0000
1000
0100
1000
0000
0001
0000
0000
1010
0000
0000
,  // measure 5
1100
0000
1100
0000
0010
0000
0001
0100
0001
0000
0011
0000
0000
0101
0000
0000
,  // measure 6
1001
0000
1001
0000
0010
0000
1000
0100
1000
0000
1010
0000
0000
0110
0000
0000
,  // measure 7
0101
0000
0110
0000
0010
0000
0000
0000
1100
0000
0110
0000
0010
0002
0000
0000
,  // measure 8
1003
0000
1000
0000
0010
0000
0100
0001
0100
0000
0010
0000
0000
1100
0000
0000
,  // measure 9
0001
0000
0001
0000
1000
0000
0010
0001
0010
0000
1010
0000
0000
0011
0000
0000
,  // measure 10
0110
0000
0110
0000
1000
0000
0100
0001
0100
0000
1100
0000
0000
1001
0000
0000
,  // measure 11
0011
0000
1001
0000
0000
0000
0000
0000
0110
0000
1001
0000
0000
0020
0000
0000
,  // measure 12
0031
0000
0100
0010
0000
0100
0001
0000
0100
0010
0000
0100
1000
0000
0010
0000
,  // measure 13
0100
0000
0010
1000
0000
0010
0100
0000
0010
0001
0000
0010
0100
0000
0010
0000
,  // measure 14
0001
0000
0010
0100
0000
0010
0001
0000
1000
0000
0010
0100
0000
0010
1000
0000
,  // measure 15
0100
0000
1000
0010
0000
1000
0100
0000
0010
0000
0001
0100
0000
0001
0010
0000
,  // measure 16
0001
0000
0010
1000
0000
0010
0001
0000
0100
0000
0010
0000
1000
0000
0001
0000
,  // measure 17
0200
0000
0301
2000
0000
0000
3100
0000
0000
0010
0000
0001
1000
0000
0001
0000
,  // measure 18
0100
0000
0001
1000
0000
0100
0001
0000
0100
1000
0000
0001
0010
0000
0100
0000
,  // measure 19
0010
0000
1000
0001
0000
0010
1000
0000
0010
0001
0000
1000
0100
0000
0010
0000
,  // measure 20
0200
1300
0200
0310
0002
0013
0002
0103
,  // measure 21
2000
0000
3200
0000
0302
0000
0223
0330
,  // measure 22
0010
0000
0100
0000
0000
0000
2002
3003
0220
0000
0000
0000
0000
0000
0000
0000
,  // measure 23
0000
0000
0000
0000
,  // measure 24
0000
0000
0000
0330
0000
0000
1001
0000
0000
0010
1000
0100
,  // measure 25
0010
0000
0001
0000
0100
0000
0010
0000
1000
0000
0100
0000
1000
0000
0000
0100
0000
0000
1000
0000
0000
0000
0000
0000
,  // measure 26
0001
0010
0001
0000
0011
0000
0101
0000
,  // measure 27
1100
1010
1100
0101
,  // measure 28
0011
0000
0001
0000
1000
0001
1000
0000
,  // measure 29
0010
0000
0100
0000
0010
0000
1000
0000
0100
0000
0010
0000
0011
0000
0001
0100
,  // measure 30
0001
0000
0010
0000
1010
0000
1000
0100
1000
0000
0001
0000
0101
0000
0100
0010
,  // measure 31
1000
0000
0000
0000
0100
0000
0000
0000
1000
0000
0000
0000
0010
0000
0000
0000
0100
0000
0000
0000
0001
0000
0000
0000
1000
0000
0000
0000
0100
0000
0000
0000
2000
0000
0000
0000
0000
0000
0000
0000
3000
0000
0000
0001
0010
0000
0000
0000
1000
0000
0000
0000
0000
0000
0000
0000
0100
0000
0000
0000
0000
0000
0000
0000
,  // measure 32
1000
0000
0000
0001
0000
0000
0100
0000
0000
0001
0000
0000
0010
0000
0000
0000
0000
0000
0001
0000
0000
0000
0001
0000
,  // measure 33
0000
0100
0000
1000
0000
1000
0000
0020
0000
0130
0000
0000
,  // measure 34
0001
0100
0010
0000
1000
0100
0010
0100
,  // measure 35
1000
0100
0010
0000
0001
0010
0001
0000
,  // measure 36
1000
0010
1000
0000
0101
0000
0000
1100
,  // measure 37
0000
0110
0001
1000
,  // measure 38
0100
1000
0100
0000
0010
0000
0010
0001
,  // measure 39
0000
0001
0100
0000
0001
0010
0011
0000
,  // measure 40
1000
0000
0010
0000
1010
0000
0000
0000
0001
0000
0100
0001
0100
0000
0001
1000
,  // measure 41
0001
0100
0010
1000
0000
1000
0010
0000
,  // measure 42
0100
0001
0100
0000
0001
0000
0101
0000
,  // measure 43
0001
0100
2200
0000
0000
3300
1001
0000
,  // measure 44
0010
0100
0010
0000
0001
1000
0001
1000
,  // measure 45
0000
0100
0010
0000
0001
0010
0001
0100
,  // measure 46
0010
1000
0100
1000
0010
0100
0010
0001
,  // measure 47
1000
0000
0000
0100
0000
0000
1000
0000
0000
0010
0000
0000
0100
0000
0000
0000
0000
0000
0010
0000
0100
0000
0010
0000
,  // measure 48
0100
0000
0000
0001
0000
0000
0100
0000
0000
0010
0000
0000
1000
0000
0000
0000
0000
0000
1000
0000
0001
0000
1000
0000
,  // measure 49
0001
1000
0001
0100
0010
0100
0001
0010
,  // measure 50
0100
0001
0010
0100
1000
0010
0100
1000
,  // measure 51
0100
0010
1000
0001
0020
0000
0031
0020
,  // measure 52
0000
1030
0020
0000
0000
0000
0100
0000
,  // measure 53
0130
0010
0100
0010
0000
1000
0001
0000
,  // measure 54
0001
0000
1000
0000
0001
0000
0100
0000
0010
0000
1000
0000
,  // measure 55
0200
0310
0010
0011
,  // measure 56
0001
0100
0000
1000
0100
0000
0010
1000
,  // measure 57
0100
0000
0100
0020
0000
0000
0031
0000
,  // measure 58
1000
0000
0001
0010
0100
0010
0001
1000
,  // measure 59
0200
0000
1300
0000
0100
1000
0100
1000
,  // measure 60
0010
1000
0010
1000
0001
0100
0001
0100
,  // measure 61
0001
0010
0001
0010
0100
1000
0100
0010
,  // measure 62
0001
0100
0001
0010
1000
0010
1000
0001
,  // measure 63
0010
1000
0010
0001
0110
0000
0000
1010
,  // measure 64
0000
0000
0000
0000
0110
0000
0000
0000
0001
0100
0001
0000
1000
0000
0010
0000
,  // measure 65
0100
0001
1000
0000
2002
0000
3003
0000
,  // measure 66
0100
1000
0001
0010
0000
0000
0010
0000
0100
0001
1000
0010
0100
0000
0001
0000
,  // measure 67
1000
0001
0010
0200
0000
0000
0310
0000
0100
0010
0001
1000
0001
0010
0100
0010
,  // measure 68
0001
0000
0001
1000
0000
1000
0010
0000
1000
0100
1000
0100
1000
0000
0000
0000
,  // measure 69
0001
0100
0001
0100
0001
0000
0000
0010
0100
0000
0010
0000
0001
1000
0000
0000
,  // measure 70
0010
0000
0100
0000
1000
0001
0020
0000
0000
0000
1030
0000
0200
0000
0301
0000
,  // measure 71
0200
0000
1300
0001
0000
0000
0100
0000
0001
0000
0100
0000
0001
0000
0100
0000
,  // measure 72
1000
0000
0100
0000
1000
0000
0100
0000
2020
3030
0000
0000
0202
0303
0000
0000
,  // measure 73
1001
0000
0010
0000
1000
0010
0100
0000
,  // measure 74
0001
0010
0100
0010
0001
0010
0100
0000
,  // measure 75
1000
0100
1000
0000
0001
0100
0001
0000
,  // measure 76
1010
0000
0000
0011
0000
0000
0110
0000
,  // measure 77
1000
0000
0001
0000
0010
0001
0010
0000
,  // measure 78
0100
0000
0100
1000
0000
1000
0010
0000
,  // measure 79
1000
0100
1100
0000
0001
0100
0101
0000
,  // measure 80
1000
0000
0010
1000
0010
0000
1000
0001
1000
0000
0010
0000
0100
0000
0001
0000
,  // measure 81
0000
0001
0100
0000
0010
1000
0010
0000
,  // measure 82
1000
0000
1010
0000
1000
0010
0022
0000
,  // measure 83
0000
0033
1001
0000
0100
0010
0100
0000
,  // measure 84
1000
0001
1000
0001
0000
0010
0100
0000
,  // measure 85
1000
0100
1000
0010
0100
0001
0010
0001
,  // measure 86
0100
0010
0100
1000
0001
0010
0001
0000
,  // measure 87
0220
0000
0000
0000
,  // measure 88
0000
0000
0000
0000
,  // measure 89
0330
0000
0000
0000
;
