#TITLE:Dignity;
#SUBTITLE:;
#ARTIST:Crash;
#TITLETRANSLIT:;
#SUBTITLETRANSLIT:;
#ARTISTTRANSLIT:;
#GENRE:;
#CREDIT:;
#BANNER:Dignity.png;
#BACKGROUND:Dignity-bg.png;
#LYRICSPATH:;
#CDTITLE:;
#MUSIC:Dignity.ogg;
#OFFSET:-0.280000;
#SAMPLESTART:22.399944;
#SAMPLELENGTH:12.000000;
#SELECTABLE:YES;
#BPMS:0.000000=195.000000
;
#STOPS:123.500000=0.923077
;
#BGCHANGES:;
#KEYSOUNDS:;
#ATTACKS:;

//---------------dance-single - ----------------
#NOTES:
     dance-single:
     :
     Beginner:
     3:
     0.210632,0.266347,0.071343,0.000000,0.000000,186.000000,177.000000,9.000000,0.000000,0.000000,0.000000,0.210632,0.266347,0.071343,0.000000,0.000000,186.000000,177.000000,9.000000,0.000000,0.000000,0.000000:
// measure 0
0000
0000
0000
0000
,  // measure 1
0000
0000
0000
0000
,  // measure 2
0001
0000
1000
0000
,  // measure 3
0010
0000
1000
0000
,  // measure 4
0100
0000
0010
0000
,  // measure 5
0001
0000
0010
0000
,  // measure 6
0001
0000
0100
0000
,  // measure 7
0010
0000
1000
0000
,  // measure 8
0001
0000
0100
0000
,  // measure 9
0010
0000
0010
0000
,  // measure 10
0100
0000
0010
0000
,  // measure 11
1000
0000
0001
0000
,  // measure 12
1000
0000
0100
0000
,  // measure 13
1000
0000
0010
0000
,  // measure 14
1000
0000
0001
0000
,  // measure 15
0100
0000
0010
0000
,  // measure 16
0100
0000
0001
0000
,  // measure 17
0100
0000
0010
0000
,  // measure 18
1000
0000
0000
0001
,  // measure 19
0001
0000
0000
0010
,  // measure 20
0010
0000
0000
0100
,  // measure 21
0100
0000
0000
0000
,  // measure 22
1001
0000
0000
1000
,  // measure 23
1000
0000
0000
0010
,  // measure 24
0010
0000
0000
1000
,  // measure 25
1000
0000
0000
0000
,  // measure 26
0001
0000
0100
0000
,  // measure 27
0010
0000
1000
0000
,  // measure 28
0001
0000
1000
0000
,  // measure 29
0010
0000
0100
0000
,  // measure 30
0010
0000
0000
0110
,  // measure 31
0000
0001
0000
0000
,  // measure 32
1001
0000
0000
0000
,  // measure 33
0000
1000
0000
1000
,  // measure 34
0000
0010
0000
0010
,  // measure 35
0000
0100
0000
0100
,  // measure 36
0000
0001
0000
0001
,  // measure 37
0000
0010
0000
0010
,  // measure 38
0000
0001
0000
0001
,  // measure 39
0000
0100
0000
0100
,  // measure 40
0000
0010
0000
0010
,  // measure 41
0000
1000
0000
1000
,  // measure 42
0000
0001
0000
0001
,  // measure 43
0000
0100
0000
0100
,  // measure 44
0000
0010
0000
0010
,  // measure 45
0000
1000
0000
1000
,  // measure 46
0000
0100
0000
0100
,  // measure 47
0000
1000
0000
1000
,  // measure 48
0000
0001
0000
0001
,  // measure 49
0000
1000
0000
0000
,  // measure 50
0001
0000
0000
0100
,  // measure 51
0000
0100
0000
0000
,  // measure 52
0010
0000
0000
0010
,  // measure 53
0000
1000
0000
0000
,  // measure 54
1000
0000
0000
0001
,  // measure 55
0000
0001
0000
0000
,  // measure 56
0100
0000
0000
0001
,  // measure 57
0000
0001
0000
0000
,  // measure 58
0000
1000
0000
0000
,  // measure 59
0000
0010
0000
0000
,  // measure 60
0000
0110
0000
0000
,  // measure 61
0000
1001
0000
0000
,  // measure 62
0000
1000
0000
1000
,  // measure 63
0000
0001
0000
0001
,  // measure 64
0000
0010
0000
0010
,  // measure 65
0000
0100
0000
0100
,  // measure 66
0000
1000
0000
1000
,  // measure 67
0000
0001
0000
0001
,  // measure 68
0000
0010
0010
0010
,  // measure 69
0000
0010
0010
0010
,  // measure 70
0000
0100
0100
0100
,  // measure 71
0000
0100
0100
0100
,  // measure 72
0000
0001
0000
1000
,  // measure 73
0000
0010
0000
1000
,  // measure 74
0000
0100
0000
1000
,  // measure 75
0000
0001
0000
0010
,  // measure 76
0000
1001
0000
0000
,  // measure 77
0000
0110
0000
1000
,  // measure 78
1000
1000
0000
0001
,  // measure 79
0000
0100
0000
0010
,  // measure 80
0000
1000
0000
0001
,  // measure 81
0000
0100
0000
0001
,  // measure 82
0000
0010
0000
0001
,  // measure 83
0000
1000
0000
0100
,  // measure 84
0000
1000
0000
0010
,  // measure 85
0000
1000
0000
0000
,  // measure 86
0000
0001
0000
0100
,  // measure 87
0000
0001
0000
0010
,  // measure 88
0000
0001
0000
1000
,  // measure 89
0000
0100
0000
1000
,  // measure 90
0000
0010
0000
1000
,  // measure 91
0000
0001
0000
0100
,  // measure 92
0000
0001
0000
0010
,  // measure 93
0000
0001
0000
1000
,  // measure 94
0000
1001
0000
0000
,  // measure 95
0000
0010
0000
0000
,  // measure 96
0110
0000
0000
0000
;

//---------------dance-single - ----------------
#NOTES:
     dance-single:
     :
     Easy:
     5:
     0.369172,0.380496,0.134759,0.047562,0.000000,326.000000,309.000000,17.000000,6.000000,0.000000,0.000000,0.369172,0.380496,0.134759,0.047562,0.000000,326.000000,309.000000,17.000000,6.000000,0.000000,0.000000:
// measure 0
0000
0000
0000
0000
,  // measure 1
0000
0000
0000
0000
,  // measure 2
1000
0100
1000
0010
,  // measure 3
0100
0001
0100
0000
,  // measure 4
0001
0010
0100
0010
,  // measure 5
0001
0100
0100
0000
,  // measure 6
0010
1000
0001
0100
,  // measure 7
0001
0010
0100
1000
,  // measure 8
0100
0010
0001
0100
,  // measure 9
0001
0000
1000
0000
,  // measure 10
0100
1000
0100
0010
,  // measure 11
0001
0100
0100
0001
,  // measure 12
0010
0100
1000
0000
,  // measure 13
0100
1000
0010
0000
,  // measure 14
0100
0010
1000
0001
,  // measure 15
0100
0001
0010
0000
,  // measure 16
0010
0001
0100
0001
,  // measure 17
1000
0100
0010
0001
,  // measure 18
1001
0000
0000
0110
,  // measure 19
0110
0000
0000
1100
,  // measure 20
1100
0000
0000
0101
,  // measure 21
0101
0000
0000
0000
,  // measure 22
0011
0000
0000
0110
,  // measure 23
0110
0000
0000
1100
,  // measure 24
1100
0000
0000
1001
,  // measure 25
0100
0001
0010
0100
,  // measure 26
0010
0001
1000
0001
,  // measure 27
0100
0010
1000
0100
,  // measure 28
0010
0001
0100
0001
,  // measure 29
0010
0100
1000
0100
,  // measure 30
0010
0000
0000
0010
0000
0000
0010
0000
,  // measure 31
0000
0000
0001
0000
0000
0001
0000
0000
,  // measure 32
0002
0000
0000
0000
,  // measure 33
0003
0010
0001
0100
,  // measure 34
0010
0000
1000
0000
0000
1000
0000
0000
,  // measure 35
1000
0100
1000
0010
,  // measure 36
0100
0001
0010
0001
,  // measure 37
0000
0100
0001
1000
,  // measure 38
0100
0000
0010
0000
0000
0010
0000
0000
,  // measure 39
0010
0100
1000
0001
,  // measure 40
0100
0001
1000
0100
,  // measure 41
0000
1000
0100
0010
,  // measure 42
0001
0000
0100
0000
0000
0100
0000
0000
,  // measure 43
0100
0001
1000
0001
,  // measure 44
0010
0100
1000
0100
,  // measure 45
0000
0010
0001
0100
,  // measure 46
0001
0000
0010
0000
0000
0010
0000
0000
,  // measure 47
0010
0001
1000
0010
,  // measure 48
0100
0010
1000
0100
,  // measure 49
0000
1000
0000
0100
,  // measure 50
0000
0010
0000
0001
,  // measure 51
0010
0100
0000
1000
,  // measure 52
0000
0100
0000
1000
,  // measure 53
0010
0100
0000
0001
,  // measure 54
0000
0010
0000
0001
,  // measure 55
0010
0001
0000
0100
,  // measure 56
0000
0010
0000
1000
,  // measure 57
0001
1002
0000
0100
,  // measure 58
0000
0100
0000
0100
,  // measure 59
0000
1003
0100
1000
,  // measure 60
0010
0100
0001
0010
,  // measure 61
0001
0100
0010
1000
,  // measure 62
0100
1000
0100
0010
,  // measure 63
0001
0100
0001
0010
,  // measure 64
0100
1000
0010
0100
,  // measure 65
0001
1000
0100
0010
,  // measure 66
0100
1000
0001
0100
,  // measure 67
0001
0010
0001
0100
,  // measure 68
0100
0010
0010
1000
,  // measure 69
1000
0100
0100
1000
,  // measure 70
1000
0001
0001
0100
,  // measure 71
0100
0001
0001
0010
,  // measure 72
0010
0001
0010
0100
,  // measure 73
1000
0010
0100
0010
,  // measure 74
1000
0001
0100
0001
,  // measure 75
0010
0100
1000
0001
,  // measure 76
0100
2002
0000
0000
,  // measure 77
3003
0110
0000
0010
,  // measure 78
0010
1000
0100
0010
,  // measure 79
0001
0100
0001
0010
,  // measure 80
0000
0001
0010
0100
,  // measure 81
1000
0010
1000
0001
,  // measure 82
0000
0100
0001
1000
,  // measure 83
0100
1000
0010
0100
,  // measure 84
0010
1000
0001
0100
,  // measure 85
0001
0010
0000
0001
,  // measure 86
0000
1000
0001
0100
,  // measure 87
0001
1000
0100
1000
,  // measure 88
0010
1000
1000
0010
,  // measure 89
0000
0100
0001
0010
,  // measure 90
0000
0100
0010
0001
,  // measure 91
0100
0001
1000
0100
,  // measure 92
1000
0010
0100
0001
,  // measure 93
0010
0100
1000
0001
,  // measure 94
0000
2002
0000
0000
,  // measure 95
3003
0000
0100
0000
0000
0100
0000
0000
,  // measure 96
0100
0000
0000
0000
;

//---------------dance-single - ----------------
#NOTES:
     dance-single:
     :
     Medium:
     7:
     0.490342,0.495289,0.182321,0.158540,0.000000,433.000000,410.000000,23.000000,20.000000,0.000000,0.000000,0.490342,0.495289,0.182321,0.158540,0.000000,433.000000,410.000000,23.000000,20.000000,0.000000,0.000000:
// measure 0
0000
0000
0000
0000
,  // measure 1
0000
0000
0000
0000
,  // measure 2
0100
0000
0001
0100
0001
0000
1000
0100
,  // measure 3
0000
0010
0000
0001
1000
0000
0000
0000
,  // measure 4
0001
0100
0001
0000
0100
0000
0010
1000
,  // measure 5
0010
0100
0010
0000
0100
0000
0000
0000
,  // measure 6
0001
0100
0001
0000
1000
0000
0100
1000
,  // measure 7
0100
1000
0100
0000
1000
0000
0001
0010
,  // measure 8
0001
0000
0000
0010
0000
0000
0100
0000
,  // measure 9
1000
0100
0010
0001
,  // measure 10
0100
0001
0100
0001
0100
0000
0010
0000
,  // measure 11
1000
0010
1000
0010
1000
0000
0010
0000
,  // measure 12
0100
0010
0100
0010
0100
0000
0000
0000
,  // measure 13
0010
0100
0010
0100
0001
0100
0000
0000
,  // measure 14
0001
0000
0100
0001
0100
0000
0001
0000
,  // measure 15
1000
0000
0100
1000
0100
0000
0000
0000
,  // measure 16
0010
0100
0010
0000
0001
0000
1000
0001
,  // measure 17
0100
0000
0001
1000
0000
0000
0100
0000
,  // measure 18
2200
0000
3300
1100
,  // measure 19
0022
0000
0033
0011
,  // measure 20
0202
0000
0303
0110
,  // measure 21
2020
0000
0000
3030
,  // measure 22
2020
0000
3030
0110
,  // measure 23
0202
0000
0303
0011
,  // measure 24
0220
0000
0330
1000
,  // measure 25
0100
1000
0010
0100
,  // measure 26
0001
0100
0001
0000
1000
0000
0100
0000
,  // measure 27
0010
0100
0010
0000
0100
0000
1000
0000
,  // measure 28
0010
1000
0010
0000
1000
0000
0001
0000
,  // measure 29
0100
0001
0100
0000
0001
0000
1000
0000
,  // measure 30
0100
1000
0000
0001
1000
0000
0001
0200
,  // measure 31
0000
0000
0310
0100
0000
0010
1000
0000
,  // measure 32
0100
2000
0000
0000
0000
0000
0000
0000
,  // measure 33
0000
3100
1000
0010
,  // measure 34
0100
0000
0001
0100
0000
0001
0100
0000
,  // measure 35
0001
0100
0010
0000
1000
0000
0001
0000
,  // measure 36
0010
0100
1000
0100
,  // measure 37
0010
0001
0100
0001
,  // measure 38
1000
0000
0100
1000
0000
0100
1000
0000
,  // measure 39
0100
1000
0100
0000
0010
0000
0001
0000
,  // measure 40
0100
0001
0010
0100
,  // measure 41
1000
0100
0010
0001
,  // measure 42
0100
0000
0001
0100
0000
0010
0100
0000
,  // measure 43
0001
0100
0010
0000
1000
0000
0001
0000
,  // measure 44
0100
0001
0010
0100
,  // measure 45
1000
0100
0010
0001
,  // measure 46
1000
0000
0010
1000
0000
0001
1000
0000
,  // measure 47
0010
1000
0010
0000
1000
0000
0001
0000
,  // measure 48
0100
0001
0010
0100
,  // measure 49
1000
0000
0100
0000
0000
0010
0000
0000
,  // measure 50
0001
0000
0000
1000
0000
0000
0010
0000
,  // measure 51
0100
0000
0001
0000
0000
1000
0000
0000
,  // measure 52
0100
0000
0000
1000
0000
0000
0100
0000
,  // measure 53
0010
0000
0011
0000
0000
0101
0000
0000
,  // measure 54
0110
0000
0000
1010
0000
0000
1000
0000
,  // measure 55
0010
0000
0110
0000
0000
0101
0000
0000
,  // measure 56
1001
0000
0000
1100
0000
0000
0010
0000
,  // measure 57
0001
2001
0000
0001
,  // measure 58
0000
0001
0000
0001
,  // measure 59
0000
3001
1000
0100
,  // measure 60
0010
0000
0001
0010
0001
0000
0100
0000
,  // measure 61
0010
0000
1000
0100
1000
0000
0100
0000
,  // measure 62
0010
0000
0001
0010
0000
0001
0010
0000
,  // measure 63
0100
0010
0100
1000
,  // measure 64
0001
0000
0100
0001
0100
0000
0010
1000
,  // measure 65
0010
0000
0100
0001
0100
0000
0001
1000
,  // measure 66
0001
0000
1000
0100
1000
0000
0100
0010
,  // measure 67
0100
0000
0010
0001
0010
0000
0001
0000
,  // measure 68
1000
0000
0001
1000
0001
0000
0100
0000
,  // measure 69
0001
0000
0100
0010
0100
0000
0010
0000
,  // measure 70
1000
0000
0100
1000
0100
0000
1000
0000
,  // measure 71
0001
0000
0100
0001
0100
0000
0001
0000
,  // measure 72
0010
0000
0100
1000
0100
0000
0010
0000
,  // measure 73
0001
0000
0100
0001
0100
0000
0001
0000
,  // measure 74
1000
0000
0100
1000
0100
0000
0010
0000
,  // measure 75
0001
0000
1000
0001
1000
0000
0001
0100
,  // measure 76
0001
0100
0020
0000
0000
0000
0000
0000
,  // measure 77
0030
0000
1010
0000
0000
0000
0100
0010
,  // measure 78
1000
0001
0100
0000
0001
1000
0001
0000
,  // measure 79
0010
0100
1000
0100
,  // measure 80
0000
0000
0010
0100
0010
0000
0001
0000
,  // measure 81
1000
0000
0001
0100
0001
0100
0001
0000
,  // measure 82
0000
0000
1000
0010
1000
0000
0010
0000
,  // measure 83
0100
0001
0100
0001
0100
0000
0001
0000
,  // measure 84
1000
0100
1000
0000
0000
0100
0000
0000
,  // measure 85
0010
0001
0010
0000
0000
0000
0001
0000
,  // measure 86
1000
0000
0001
0100
0001
0100
0001
0000
,  // measure 87
1000
0000
0100
0010
0100
0010
0100
0000
,  // measure 88
1000
0000
0010
1000
0010
1000
0001
0000
,  // measure 89
0000
0000
0100
0001
0100
0001
0100
0001
,  // measure 90
0000
0000
1000
0000
0100
0010
0100
0000
,  // measure 91
1000
0000
0010
0000
0100
0010
0000
1000
,  // measure 92
0010
0000
0100
0001
1000
0000
0001
0000
,  // measure 93
0010
0000
0100
0010
0001
1000
0001
0000
,  // measure 94
0000
0220
0000
0000
,  // measure 95
0330
0000
0010
1000
0000
0001
0100
0000
,  // measure 96
0001
1000
0000
0000
0000
0000
0000
0000
;

//---------------dance-single - ----------------
#NOTES:
     dance-single:
     :
     Hard:
     10:
     0.792701,0.952480,0.459766,0.221956,0.110978,700.000000,642.000000,58.000000,28.000000,0.000000,0.000000,0.792701,0.952480,0.459766,0.221956,0.110978,700.000000,642.000000,58.000000,28.000000,0.000000,0.000000:
// measure 0
0000
0000
0000
0000
,  // measure 1
0000
0000
0000
0000
,  // measure 2
1000
0100
0010
0001
0100
0000
0001
0100
,  // measure 3
0001
1000
0010
0100
0010
1000
0001
0000
,  // measure 4
0100
0001
1000
0001
0010
0100
1000
0100
,  // measure 5
0010
0001
0100
0001
0010
0000
0100
0000
,  // measure 6
0010
0001
1000
0001
0100
0000
0010
1000
,  // measure 7
0010
0100
0001
0000
1000
0000
0001
0010
,  // measure 8
0100
0000
1000
0100
0000
0010
0001
1000
,  // measure 9
0001
0000
0100
0000
0001
0000
1000
0000
0001
0000
1000
0001
1000
0001
1000
0000
,  // measure 10
0100
0010
0001
0100
0001
0010
0001
0100
,  // measure 11
0001
0010
0100
1000
0010
0000
1000
0010
,  // measure 12
0100
0001
1000
0100
1000
0000
0100
0000
,  // measure 13
1000
0100
0010
0001
1000
0001
0000
0000
,  // measure 14
0001
1000
0001
0010
0100
1000
0010
0100
,  // measure 15
0010
1000
0001
0100
0001
0000
0010
0000
,  // measure 16
0100
0010
0100
1000
0001
0000
0100
0001
,  // measure 17
1000
0001
0010
0100
1000
0010
0100
0000
,  // measure 18
0202
0000
0303
0101
,  // measure 19
2002
0000
3003
1100
,  // measure 20
0220
0000
0330
0110
,  // measure 21
0001
0100
0001
1000
0001
0010
0100
1000
,  // measure 22
2020
0000
3030
1010
,  // measure 23
0202
0000
0303
0011
,  // measure 24
0220
0000
0330
1100
,  // measure 25
0010
0001
1000
0001
0100
0010
1000
0100
,  // measure 26
0010
0001
0010
0000
0001
0000
1000
0000
0010
0000
0100
0000
0010
0000
1000
0000
,  // measure 27
0100
1000
0100
0000
0010
0000
0001
0000
1000
0000
0001
0000
0100
0000
0010
0000
,  // measure 28
1000
0010
1000
0000
0010
0000
0100
0000
0001
0000
0010
0000
0100
0000
1000
0000
,  // measure 29
0100
0010
0100
0000
0010
0000
0001
0000
1000
0000
0010
0000
0100
0000
0001
0000
,  // measure 30
1100
1100
0000
1001
1001
0000
0011
0011
,  // measure 31
0000
0000
0101
0101
0000
1010
1010
0000
,  // measure 32
0110
0110
0100
0010
0100
0010
0100
0010
,  // measure 33
0100
0010
0100
0001
1000
0001
0010
0100
,  // measure 34
1000
0100
1100
1100
0000
1100
1100
0000
,  // measure 35
1100
1100
1000
0001
0100
0001
0010
0000
,  // measure 36
0100
1000
0100
0010
0001
1000
0001
0100
,  // measure 37
0000
0000
0001
0100
0001
1000
0100
0010
,  // measure 38
0100
1000
1001
1001
0000
1001
1001
0000
,  // measure 39
1001
1001
0001
0100
0001
0010
0100
0000
,  // measure 40
1000
0010
0100
0010
1000
0001
0100
0001
,  // measure 41
0010
0000
0001
0010
0100
1000
0100
0010
,  // measure 42
0001
1000
0101
0101
0000
0101
0101
0000
,  // measure 43
0101
0101
0001
1000
0100
0010
0100
0000
,  // measure 44
1000
0010
0100
0010
1000
0001
0100
0001
,  // measure 45
0000
0000
1000
0001
0010
0100
1000
0100
,  // measure 46
0010
0001
1001
1001
0000
1100
1100
0000
,  // measure 47
1001
1001
1000
0001
0100
0001
0010
0000
,  // measure 48
0100
1000
0100
0010
0001
1000
0001
0100
,  // measure 49
0000
0000
0001
0002
0000
0100
0203
0000
,  // measure 50
0010
0320
0000
1000
1030
0100
0010
0001
,  // measure 51
1000
0001
0100
0200
0000
0010
0320
0000
,  // measure 52
1000
2030
0000
0100
3100
1000
0100
0010
,  // measure 53
0001
1000
0001
0002
0000
0100
0203
0000
,  // measure 54
0010
0320
0000
1000
1030
0010
1000
0001
,  // measure 55
0100
0001
0010
0020
0000
0100
0230
0000
,  // measure 56
1000
2300
0000
0001
3001
0100
0001
1000
,  // measure 57
0100
0000
0000
0010
0100
0010
0001
1000
0100
1000
0100
0010
,  // measure 58
0001
0010
0100
1000
0001
1000
0010
0100
0001
0100
0010
1000
,  // measure 59
0001
0000
0000
0000
1000
0000
0000
0000
0100
0000
0000
0000
0010
0000
0000
0001
0000
0000
0010
0000
0000
0000
0000
0000
0001
0000
0000
1000
0000
0000
0001
0000
0000
0000
0000
0000
1000
0000
0000
0100
0000
0000
1000
0000
0000
0000
0000
0000
,  // measure 60
0001
0010
0001
0000
1000
0000
0100
0000
0010
0000
0001
0000
0100
0000
0010
0000
,  // measure 61
0100
0001
1000
0010
1000
0001
1000
0100
,  // measure 62
0010
0001
0010
0010
0000
0100
0100
0000
,  // measure 63
1000
0000
0001
0100
0010
1000
0001
1000
,  // measure 64
0100
0010
0010
0100
1000
0001
0010
0100
,  // measure 65
1000
0001
0010
0100
1000
0001
0010
0100
,  // measure 66
1000
0001
0100
0010
1000
0001
1000
0010
,  // measure 67
0100
0001
1000
0010
1000
0100
0010
0001
,  // measure 68
0010
0100
1000
1000
0100
0100
0010
0010
,  // measure 69
0001
0001
0100
0100
0010
0010
1000
1000
,  // measure 70
0001
0001
0010
0010
0001
0001
0100
0100
,  // measure 71
0010
0010
1000
1000
0001
0001
0010
0010
,  // measure 72
0100
0100
1000
0001
1000
0100
0010
0001
,  // measure 73
0100
0010
0100
0001
1000
0100
1000
0001
,  // measure 74
0010
0100
1000
0001
1000
0010
0100
0001
,  // measure 75
0100
0010
1000
0100
1000
0001
0010
0100
,  // measure 76
1000
0001
2002
0000
0000
0000
0000
0000
,  // measure 77
3003
0000
0110
0000
0000
0000
0101
0001
,  // measure 78
1000
0010
1000
0010
1000
0001
1000
0000
,  // measure 79
0100
0010
0001
0010
0100
1000
0001
0000
,  // measure 80
1000
0000
0010
1000
0001
0010
0100
0010
,  // measure 81
0001
0100
0010
1000
0001
1000
0100
0010
,  // measure 82
0001
0000
0010
0100
1000
0010
1000
0000
,  // measure 83
0100
0010
0001
0100
0010
0100
0001
0000
,  // measure 84
1000
0001
1000
0010
1000
0100
0000
0010
,  // measure 85
0100
0000
0010
0000
0001
0000
0000
0000
0010
0000
0000
0000
0001
0000
0010
0001
,  // measure 86
0010
0001
0010
0000
0001
0000
0010
0000
0100
0000
1000
0000
0001
0000
1000
0000
,  // measure 87
0010
1000
0100
0010
0001
0010
0100
0000
,  // measure 88
0010
0100
1000
0001
1000
0010
1000
0000
,  // measure 89
0010
0000
1000
0010
1000
0001
0010
0001
,  // measure 90
0000
0000
0010
0001
0100
0010
1000
0001
,  // measure 91
1000
0100
0010
0001
0010
0100
0000
1000
,  // measure 92
0100
1000
0010
0100
0001
0100
0010
0100
,  // measure 93
0001
1000
0010
1000
0100
0010
0001
0000
,  // measure 94
0000
2002
0000
0000
,  // measure 95
3003
0000
1010
1010
0000
0101
0101
0000
,  // measure 96
1001
1001
0000
0000
0000
0000
0000
0000
;

//---------------dance-single - ----------------
#NOTES:
     dance-single:
     :
     Challenge:
     13:
     1.203773,1.257273,0.451839,0.095124,1.256431,1063.000000,1006.000000,57.000000,12.000000,0.000000,0.000000,1.203773,1.257273,0.451839,0.095124,1.256431,1063.000000,1006.000000,57.000000,12.000000,0.000000,0.000000:
// measure 0
0000
0000
0000
0000
,  // measure 1
0000
0000
0000
0000
,  // measure 2
0100
0001
0100
0001
0100
0001
0100
0001
0100
0000
0010
0000
1000
0000
0100
0000
,  // measure 3
0010
0001
0010
0001
0010
0001
0010
0001
0010
0000
0100
0000
1000
0000
0100
0000
,  // measure 4
0010
0100
0010
0100
0010
0100
0010
0100
0010
0000
0001
0000
0010
0000
0001
0000
,  // measure 5
0010
0001
0010
0001
1000
0001
1000
0001
1000
0100
1000
0100
0010
0001
0010
0000
,  // measure 6
0001
0010
0001
0010
0001
0010
0001
0010
0001
0000
1000
0000
0100
0000
0010
0000
,  // measure 7
0100
1000
0100
1000
0100
1000
0100
1000
0100
0000
1000
0000
0010
0000
0100
0000
,  // measure 8
0001
1000
0001
1000
0001
1000
0001
1000
0001
0000
0100
0000
0001
0000
0010
0000
,  // measure 9
0100
1000
0100
1000
0100
0010
0100
0010
0001
0010
0001
1000
0001
0100
0010
0000
,  // measure 10
1000
0100
1000
0100
1000
0100
1000
0100
1000
0000
0010
0000
0100
0000
0001
0000
,  // measure 11
1000
0001
1000
0001
1000
0001
1000
0001
1000
0000
0001
0000
0010
0000
0100
0000
,  // measure 12
1000
0010
1000
0010
1000
0010
1000
0010
1000
0000
0010
0000
0100
0000
0001
0000
,  // measure 13
0010
0001
0010
0001
0010
0100
0010
0100
1000
0100
1000
0100
1000
0001
1000
0000
,  // measure 14
0001
0100
0001
0100
0001
0100
0001
0100
0010
0000
1000
0000
0010
0000
0100
0000
,  // measure 15
0001
0010
0001
0010
0001
0010
0001
0010
0001
0000
1000
0000
0100
0000
0010
0000
,  // measure 16
0100
1000
0100
1000
0100
1000
0100
1000
0100
0000
1000
0000
0010
0000
0100
0000
,  // measure 17
0001
0010
0001
0010
0001
0100
0010
1000
0100
0010
0001
1000
0010
0000
0000
0000
,  // measure 18
1001
1000
0010
0100
0010
1000
1020
0000
,  // measure 19
0130
0001
1000
0001
0010
0100
1200
0000
,  // measure 20
1300
0100
0010
0001
1000
0010
0120
0000
,  // measure 21
1030
0010
0100
0001
1000
0001
0010
0100
1000
0100
0010
0001
1000
0010
0100
0001
,  // measure 22
0010
0100
1000
0100
0010
0001
1002
0000
,  // measure 23
0103
0010
1000
0010
0100
0001
1002
0000
,  // measure 24
1003
0001
0010
0100
1000
0100
0210
0000
,  // measure 25
0310
0100
1000
0001
0100
0010
0100
0001
0010
0100
1000
0010
0100
0001
1000
0010
,  // measure 26
0100
0001
0100
0001
1000
0001
0010
0100
1000
0100
0010
0001
1000
0000
0000
0000
,  // measure 27
0001
0100
0001
0100
0001
1000
0001
0010
0100
1000
0100
0010
0001
0000
0000
0000
,  // measure 28
0010
0001
0010
0001
1000
0100
0010
0100
1000
0010
0100
0001
1000
0000
0000
0000
,  // measure 29
0001
0010
0001
0010
0100
1000
0100
0010
0001
0000
0010
0000
0100
0000
1000
0000
,  // measure 30
1001
1001
0000
0110
0110
0000
1010
2020
,  // measure 31
0000
3030
0101
0101
0000
0011
0011
0000
,  // measure 32
1001
1001
0001
1000
0001
1000
0001
1000
,  // measure 33
0001
1000
0100
1000
0100
0010
0001
1000
,  // measure 34
0001
0100
0101
0101
0000
1010
1010
0000
,  // measure 35
0110
0110
1000
0010
0100
0001
1000
0001
,  // measure 36
0010
0000
0100
0000
1000
0000
0100
0000
0010
0000
0001
0000
1000
0001
0100
0001
,  // measure 37
0010
0100
1000
0100
0010
0001
1000
0001
,  // measure 38
0100
0010
1010
1010
0000
0101
0101
0000
,  // measure 39
0011
0011
0010
0100
1000
0100
0010
0001
,  // measure 40
1000
0000
0001
0000
0100
0000
0001
0000
1000
0000
0001
0000
0010
0100
1000
0100
,  // measure 41
0020
0000
0031
0010
0100
1000
0100
0010
,  // measure 42
0001
1000
1010
1010
0000
0101
0101
0000
,  // measure 43
0011
0011
0010
0100
1000
0100
0010
0001
,  // measure 44
1000
0000
0010
0000
0100
0000
0010
0000
1000
0000
0100
0000
0010
0001
1000
0001
,  // measure 45
0200
0000
0310
1000
0010
0100
0001
0010
,  // measure 46
0001
1000
1100
1100
0000
0011
0011
0000
,  // measure 47
0101
0101
0100
0010
1000
0001
0100
0001
,  // measure 48
0010
0000
0001
0000
1000
0000
0100
0000
0010
0000
0100
0000
1000
0001
0010
0001
,  // measure 49
1000
0000
0000
0000
0100
1000
0100
0000
0000
0000
0010
0001
0010
0000
0000
0000
,  // measure 50
0001
0100
0001
0000
0000
0000
0100
0010
0100
0000
0010
0000
1000
0000
0100
0000
,  // measure 51
0010
0000
0001
0000
1000
0001
1000
0000
0000
0000
0001
0100
0001
0000
0000
0000
,  // measure 52
0100
0010
0100
0000
0000
0000
0010
1000
0010
0000
1000
0000
0100
0000
0010
0000
,  // measure 53
0001
0000
0010
0000
0100
0010
0100
0000
0000
0000
1000
0100
1000
0000
0000
0000
,  // measure 54
0010
1000
0010
0000
0000
0000
0100
0010
0100
0000
0001
0000
1000
0000
0001
0000
,  // measure 55
0010
0000
0100
0000
1000
0100
1000
0100
1000
0000
0001
0010
0001
0010
0001
0000
,  // measure 56
0010
0100
0010
0100
0010
0000
0100
1000
0100
1000
0100
0000
1000
0000
0010
0000
,  // measure 57
0100
0000
0000
0001
0000
0000
0010
0000
0001
0000
0010
0000
0100
0000
1000
0000
0100
0000
0010
0000
0001
0000
1000
0000
,  // measure 58
0010
0100
0010
1000
0001
0100
0001
0010
0100
1000
0100
0010
,  // measure 59
0001
0000
0000
0000
1000
0000
0000
0000
0010
0000
0000
0000
0100
0000
0000
0001
0000
0000
0100
0000
0000
0001
0000
0000
1000
0000
0000
0010
0000
0000
1000
0000
0000
0010
0000
0000
0100
0000
0000
0001
0000
0000
0100
0000
0000
0001
0000
0000
,  // measure 60
1000
0100
0010
0100
1000
0000
0100
0000
0010
0000
0001
0000
0100
0000
0001
0000
,  // measure 61
0010
0100
1000
0010
0100
0010
1000
0001
,  // measure 62
0100
0001
0010
0100
1000
0100
0010
0001
,  // measure 63
1000
0010
0100
0010
1000
0001
0010
0100
,  // measure 64
1000
0000
0001
0000
0010
0100
1000
0100
0010
0001
1000
0000
0001
0100
0001
0010
,  // measure 65
0001
0010
0100
0000
1000
0100
0010
0100
1000
0001
1000
0000
0010
1000
0010
0100
,  // measure 66
0001
1000
0001
0000
0010
0100
1000
0100
0010
0001
1000
0000
0001
0100
0001
1000
,  // measure 67
0001
1000
0100
0000
0010
0100
1000
0100
0010
0001
0010
0001
1000
0010
0100
0010
,  // measure 68
1000
0001
0100
0001
0010
0100
0010
0100
1000
0001
1000
0001
0100
0001
0100
0001
,  // measure 69
1000
0010
1000
0010
0100
0001
0100
0001
0010
0001
0010
0001
0010
0100
0010
0100
,  // measure 70
1000
0100
1000
0100
1000
0001
1000
0001
0100
0001
0100
0001
0010
0001
0010
0001
,  // measure 71
0010
0100
0010
0100
1000
0001
1000
0001
0100
0010
0100
0010
1000
0010
1000
0010
,  // measure 72
0100
0001
0100
0001
0010
0100
1000
0100
0010
0001
1000
0000
0001
0100
0001
0010
,  // measure 73
0001
0010
0100
0000
1000
0100
0010
0100
1000
0010
0100
0000
0010
1000
0010
0100
,  // measure 74
0001
1000
0001
0000
0010
0001
0010
0001
1000
0100
1000
0000
0100
0010
0100
0010
,  // measure 75
0001
1000
0001
0000
0100
0001
0100
0001
1000
0001
0010
0100
1000
0010
0100
0010
,  // measure 76
1000
0001
0100
0001
2000
0000
0000
0000
0000
0000
0000
0000
0000
0000
0000
0000
,  // measure 77
3000
0000
1001
0000
0000
0000
0110
1010
,  // measure 78
0101
0000
0110
0000
0100
0001
0100
0001
0100
0001
0100
0001
1000
0000
0001
0000
,  // measure 79
0010
0000
0100
0000
1000
0100
1000
0100
1000
0100
1000
0100
0010
0000
0001
0000
,  // measure 80
1000
0000
0010
0000
0100
0010
0100
0010
0100
0010
0100
0010
1000
0000
0001
0000
,  // measure 81
0100
0000
0001
0000
0010
0001
0010
0001
0100
0010
0100
0010
1000
0100
1000
0100
,  // measure 82
0010
0001
0010
0000
0001
1000
0001
1000
0001
1000
0001
1000
0010
0000
0100
0000
,  // measure 83
0010
0000
1000
0000
0010
0100
0010
0100
0010
0100
0010
0100
0001
0000
1000
0000
,  // measure 84
0001
0000
0010
0000
0100
1000
0100
1000
0100
1000
0100
1000
0001
0000
0100
0000
,  // measure 85
0001
0000
1000
0000
0011
0000
0000
0000
1000
0000
0000
0000
0001
0000
0100
0001
,  // measure 86
1000
0001
0010
0100
1000
0100
1000
0100
1000
0100
1000
0100
0010
0000
0001
0000
,  // measure 87
1000
0000
0010
0000
0100
0010
0100
0010
0100
0010
0100
0010
1000
0000
0001
0000
,  // measure 88
0100
0000
0001
0000
0010
0001
0010
0001
0010
0001
0010
0001
1000
0000
0100
0000
,  // measure 89
1000
0000
0100
0000
0010
0100
0010
0100
1000
0001
1000
0001
0100
0001
0100
0001
,  // measure 90
1000
0010
1000
0000
0010
1000
0010
1000
0010
1000
0010
1000
0001
0000
0100
0000
,  // measure 91
0001
0000
0010
0000
0100
1000
0100
1000
0100
1000
0100
1000
0001
0000
0100
0000
,  // measure 92
0001
0000
0010
0000
0001
0100
0001
0100
0001
0100
0001
0100
0010
0000
1000
0000
,  // measure 93
0100
0000
0010
0000
0011
0000
0010
0000
0001
0000
1001
0000
1000
0001
1000
0000
,  // measure 94
0001
1000
0010
0100
0002
0000
0000
0000
0000
0000
0000
0000
0000
0000
0000
0000
,  // measure 95
0003
0000
0101
1010
0000
1100
0011
0000
,  // measure 96
0110
1001
0000
0000
0000
0000
0000
0000
;
