#VERSION:0.83;
#TITLE:Closer to My Heart (jun remix);
#SUBTITLE:;
#ARTIST:NM feat. Heather Elmer;
#TITLETRANSLIT:;
#SUBTITLETRANSLIT:;
#ARTISTTRANSLIT:;
#GENRE:;
#ORIGIN:;
#CREDIT:;
#BANNER:Closer to My Heart (jun remix).png;
#BACKGROUND:Closer to My Heart (jun remix)-bg.png;
#PREVIEWVID:;
#JACKET:;
#CDIMAGE:;
#DISCIMAGE:;
#LYRICSPATH:;
#CDTITLE:;
#MUSIC:Closer to My Heart (jun remix).ogg;
#OFFSET:0.000000;
#SAMPLESTART:41.372;
#SAMPLELENGTH:15.000000;
#SELECTABLE:YES;
#DISPLAYBPM:145.000000;
#BPMS:0.000=145.000;
#STOPS:;
#DELAYS:;
#WARPS:;
#TIMESIGNATURES:0.000=4=4;
#TICKCOUNTS:0.000=4;
#COMBOS:0.000=1;
#SPEEDS:0.000=1.000=0.000=0;
#SCROLLS:0.000=1.000;
#FAKES:;
#LABELS:0.000=Song Start;
#BGCHANGES:;
#KEYSOUNDS:;
#ATTACKS:
;

//---------------dance-single - ----------------
#NOTEDATA:;
#CHARTNAME:;
#STEPSTYPE:dance-single;
#DESCRIPTION:;
#CHARTSTYLE:;
#DIFFICULTY:Hard;
#METER:8;
#RADARVALUES:0.528606,0.542243,0.147616,0.137775,0.068887,376.000000,361.000000,15.000000,14.000000,0.000000,0.000000,0.000000,0.000000,0.000000,0.528606,0.542243,0.147616,0.137775,0.068887,376.000000,361.000000,15.000000,14.000000,0.000000,0.000000,0.000000,0.000000,0.000000;
#CREDIT:hooky;
#DISPLAYBPM:145.000000;
#NOTES:
0000
0000
0000
0000
,
0000
0000
0000
0000
,
0000
0000
0000
0000
,
0000
0000
0000
0000
,
0000
0000
0000
0000
,
0100
0001
0010
0001
0100
0010
1000
1000
,
1000
0010
1000
0100
0001
0100
1000
0010
,
0010
1000
0100
1000
0010
0100
0001
0001
,
0001
0100
0001
0010
1000
0010
0001
0100
,
0202
0000
0300
0103
,
0010
0000
2000
0000
0020
0000
0000
0000
0000
0000
3000
0000
0130
0000
0100
0001
,
0200
0000
0002
0303
,
0010
0000
0001
0000
0100
0000
0010
0000
0010
0000
0000
0100
0010
0000
0010
0000
,
1000
0100
1000
0010
0100
0001
0010
0001
,
0100
0100
0010
0100
0001
1000
0001
0100
,
0010
1000
0100
0001
0100
0010
0001
0100
,
0010
0000
1000
0000
1000
0000
0000
0000
1000
0000
0001
0100
0000
0100
0001
0000
,
0010
0000
0100
1000
1000
0010
1000
0100
,
0010
1000
0010
0001
0100
0010
0010
0000
,
0100
0000
0001
0010
0001
1000
1000
0000
,
0100
0000
1000
0000
0010
0000
0100
0000
0100
0000
0000
0010
0100
0000
0100
0000
,
0001
0010
0001
0100
0010
1000
0100
1000
,
0010
0010
0100
0010
1000
0001
1000
0010
,
0100
0001
0001
1000
0100
1000
1000
0010
,
0100
0001
0001
0010
0100
0000
1001
0000
,
0100
0000
0000
0100
0010
0000
0000
0010
1000
0000
0100
0000
1100
0000
1000
0000
,
0010
0100
0001
0010
0001
0100
0101
0100
,
0010
1000
0100
1000
0001
0100
1000
0100
,
0010
1000
0001
0010
1000
0010
0001
0100
,
0201
0000
0301
0000
0100
0010
1000
0100
,
1200
0000
1300
0000
0010
0100
0001
0010
,
0001
0000
0001
0000
0100
0001
1000
0010
,
0100
0001
1000
0010
0100
0000
0100
0000
,
0010
0000
0000
0010
0100
0000
0000
0100
0001
0000
0010
0000
0011
0000
0001
0000
,
0100
0010
1000
0100
1000
0010
1010
0010
,
0100
0001
0010
0001
1000
0010
0001
0010
,
0100
0001
1000
0100
0001
0100
1000
0010
,
1020
0000
1030
0000
0010
0100
0001
0010
,
0021
0000
0031
0000
0100
0010
1000
0100
,
1000
0000
1000
0000
0010
1000
0001
0100
,
0010
0000
1000
0000
0001
0000
0100
0000
0010
0100
0010
0000
1000
0000
0001
0000
,
0100
0000
0010
0000
0000
1000
0000
0000
0100
0000
0000
1000
0000
0000
0001
0000
,
0200
0000
0310
0000
,
2000
0000
0000
0000
3100
0000
0000
0010
,
0002
0000
0100
0000
0103
0001
0010
0100
,
1000
0000
0010
0000
1000
0001
0100
0001
,
0010
0000
0110
0000
0001
0100
1000
0000
,
0100
0000
0101
0000
1000
0100
1000
0010
,
0200
0000
0010
0000
0010
0000
0310
1000
,
0100
1000
0001
0100
0010
0000
0100
0000
,
0010
1000
0100
1000
0010
0100
0001
0001
,
0001
0100
0001
0010
1000
0010
0001
0100
,
0100
0001
0010
0001
0100
0010
1000
1000
,
1000
0010
1000
0100
0001
0100
1000
0010
,
0110
0000
0000
0010
0100
0000
0000
0000
0100
0000
0100
0000
0001
0000
0000
0000
,
1100
0000
0000
1000
0100
0000
0000
0000
0100
0000
0100
0000
0010
0000
0000
0000
,
0001
0100
0001
0010
0100
1000
0010
0100
,
0001
0001
0010
0100
1000
1000
0010
0100
,
0110
0000
0000
0000
;

//---------------dance-single - ----------------
#NOTEDATA:;
#CHARTNAME:;
#STEPSTYPE:dance-single;
#DESCRIPTION:;
#CHARTSTYLE:;
#DIFFICULTY:Medium;
#METER:7;
#RADARVALUES:0.406295,0.513704,0.246027,0.088570,0.000000,289.000000,264.000000,25.000000,9.000000,0.000000,0.000000,0.000000,0.000000,0.000000,0.406295,0.513704,0.246027,0.088570,0.000000,289.000000,264.000000,25.000000,9.000000,0.000000,0.000000,0.000000,0.000000,0.000000;
#CREDIT:;
#DISPLAYBPM:145.000000;
#NOTES:
0000
0000
0000
0000
,
0000
0000
0000
0000
,
0000
0000
0000
0000
,
0000
0000
0000
0000
,
0000
0000
0000
0000
,
0100
0001
0010
0000
0100
1000
0010
0000
,
1000
0100
0001
0000
0001
0100
1000
0000
,
0010
0100
0001
0000
0010
0001
0100
0000
,
0100
0001
1000
0000
0010
0100
1000
0000
,
0200
0000
0301
0000
,
0020
0002
0033
0000
,
2000
0000
3010
0000
,
1000
0100
0010
0000
0001
0000
0010
0000
,
0100
1000
0001
0100
0001
0000
0001
0000
,
1000
0001
0100
0100
,
0010
1000
0100
0000
1000
0010
0100
0000
,
0001
0010
0001
0000
0100
0000
0001
0000
,
1000
0100
1000
0010
,
0100
0001
0010
0000
0010
0001
1000
0000
,
0010
0000
0100
0000
0001
1000
0100
0000
,
1000
0010
0100
0100
,
0001
0010
0001
0100
0001
0000
0001
0000
,
1000
0100
0010
0100
1000
0000
0001
0000
,
0100
0100
0110
0000
1000
1000
1100
0000
,
0010
0001
0100
0001
0101
0000
0011
0000
,
1001
0000
1001
0000
0100
0010
1000
0000
,
0100
1000
0010
0000
0100
0001
0010
0000
,
0011
0000
0011
0000
0100
0001
0010
0001
,
1000
0000
1010
0000
0010
0100
0010
1000
,
0001
0000
0101
0000
0010
0100
0001
0100
,
1000
0000
1100
0000
0010
0001
0010
1000
,
0020
0000
0100
0130
,
0001
1000
0010
0000
0100
0100
0100
0000
,
0110
0000
0110
0000
0010
0100
0001
0000
,
0010
0001
0100
0000
0010
1000
0100
0000
,
1100
0000
1100
0000
1000
0010
1000
0001
,
0100
0000
0101
0000
0100
0010
0100
0001
,
1000
0000
1010
0000
0100
0001
0010
0001
,
0100
0000
0011
0000
0100
1000
0010
1000
,
0200
0000
0010
0310
,
0001
1000
0010
0000
0100
0000
0101
0000
,
0220
0000
0000
0330
,
1000
0000
1000
0000
,
0001
0000
0000
0000
0100
0000
0000
0010
,
0100
0000
0100
0000
0100
0000
0100
0001
,
0010
0000
0010
0000
0010
0100
1000
0000
,
0010
0000
0110
0000
1000
0100
0001
0000
,
0100
0000
0110
0000
0010
0001
0100
0000
,
0001
0010
0001
0000
0100
0000
0100
0000
,
0020
1000
0100
0031
,
1001
0000
0011
0000
0100
0001
0010
0000
,
0100
0000
0100
0000
1000
0010
1000
0000
,
0010
0000
0010
0000
0100
0001
0010
0000
,
0001
0000
0001
0000
1000
0010
0100
0000
,
0001
0010
0001
0100
0001
0000
0001
0000
,
1000
0010
0100
0010
1000
0000
1000
0000
,
1000
0100
0001
0000
0001
0100
1000
0000
,
0010
0001
0100
1000
,
1100
0000
0000
0000
;

//---------------dance-single - ----------------
#NOTEDATA:;
#CHARTNAME:;
#STEPSTYPE:dance-single;
#DESCRIPTION:;
#CHARTSTYLE:;
#DIFFICULTY:Easy;
#METER:3;
#RADARVALUES:0.213692,0.285391,0.029523,0.118093,0.000000,152.000000,149.000000,3.000000,12.000000,0.000000,0.000000,0.000000,0.000000,0.000000,0.213692,0.285391,0.029523,0.118093,0.000000,152.000000,149.000000,3.000000,12.000000,0.000000,0.000000,0.000000,0.000000,0.000000;
#CREDIT:;
#DISPLAYBPM:145.000000;
#NOTES:
0000
0000
0000
0000
,
0000
0000
0000
0000
,
0000
0000
0000
0000
,
0000
0000
0000
0000
,
0000
0000
0000
0000
,
0100
0001
0010
0010
,
0001
0100
0010
0010
,
1000
0001
0100
0100
,
0010
1000
0001
0010
,
0100
0000
0100
0000
,
0010
0000
0010
0000
,
0001
0000
1000
0000
,
0001
0001
0001
1001
,
0100
0010
1000
1000
,
0100
1000
0010
0010
,
1000
0100
1000
0001
,
0100
0010
1000
1000
,
0001
0010
0001
0100
,
0001
0001
0010
0010
,
0001
0100
0010
1000
,
0001
0001
1000
1000
,
0010
0100
0001
0010
,
0001
0001
0100
0010
,
1000
1000
0001
0001
,
0100
0010
0220
0330
,
0100
0100
0001
0000
,
0001
0001
0010
0000
,
0001
0100
0010
0000
,
0010
1000
0100
0000
,
2000
0000
3001
0000
,
0002
0000
1003
0000
,
1000
0100
1000
1000
,
0020
0000
0200
0330
,
0100
0001
0010
0000
,
0010
0001
0100
0000
,
0100
0010
1000
0100
,
1000
0000
1000
0001
,
0002
0000
1003
0000
,
2000
0000
3100
0000
,
0010
0001
0100
0010
,
2000
0000
0002
3003
,
0020
0000
0200
0330
,
0100
0000
0100
0000
,
0010
0000
0000
0000
,
0001
0000
0001
0000
,
1000
0000
0000
0000
,
1000
0000
0001
0000
,
1000
0000
0010
0000
,
0100
0000
0000
0000
,
0010
0000
0000
0000
,
0010
0000
1000
0000
,
0100
0000
0100
0000
,
1000
0000
0010
0000
,
0100
0000
0100
0000
,
0001
0000
0010
0000
,
0001
0000
0001
0000
,
0100
0000
0010
0000
,
1000
0000
0100
0000
,
0110
0000
0000
0000
;

//---------------dance-single - ----------------
#NOTEDATA:;
#CHARTNAME:;
#STEPSTYPE:dance-single;
#DESCRIPTION:;
#CHARTSTYLE:;
#DIFFICULTY:Beginner;
#METER:2;
#RADARVALUES:0.140587,0.228313,0.059046,0.019682,0.000000,100.000000,94.000000,6.000000,2.000000,0.000000,0.000000,0.000000,0.000000,0.000000,0.140587,0.228313,0.059046,0.019682,0.000000,100.000000,94.000000,6.000000,2.000000,0.000000,0.000000,0.000000,0.000000,0.000000;
#CREDIT:;
#DISPLAYBPM:145.000000;
#NOTES:
// measure 0
0000
0000
0000
0000
,  // measure 1
0000
0000
0000
0000
,  // measure 2
0000
0000
0000
0000
,  // measure 3
0000
0000
0000
0000
,  // measure 4
0000
0000
0000
0000
,  // measure 5
1000
0000
0000
0000
,  // measure 6
1000
0000
0000
0000
,  // measure 7
0001
0000
0000
0000
,  // measure 8
0001
0000
0000
0000
,  // measure 9
0100
0000
0000
0000
,  // measure 10
0100
0000
0000
0000
,  // measure 11
0010
0000
0000
0000
,  // measure 12
0010
0000
0000
0000
,  // measure 13
1000
0000
1000
0000
,  // measure 14
1000
0000
0000
0000
,  // measure 15
0001
0000
0001
0000
,  // measure 16
0001
0000
0000
0000
,  // measure 17
0010
0000
0010
0000
,  // measure 18
0010
0000
0000
0000
,  // measure 19
0100
0000
0100
0000
,  // measure 20
0001
0000
0000
0000
,  // measure 21
1000
0000
0001
0000
,  // measure 22
1000
0000
0000
0000
,  // measure 23
0010
0000
0100
0000
,  // measure 24
0001
0001
0001
0000
,  // measure 25
1000
0000
0010
0000
,  // measure 26
0100
0000
0000
0000
,  // measure 27
0100
0000
0001
0000
,  // measure 28
0010
0000
0001
0001
,  // measure 29
0001
0000
1000
1000
,  // measure 30
1000
0000
0010
0010
,  // measure 31
0010
0000
0000
0000
,  // measure 32
0100
0000
0000
0000
,  // measure 33
0010
0000
1000
0000
,  // measure 34
0100
0000
0100
0000
,  // measure 35
1000
0000
0010
0000
,  // measure 36
0100
0000
0001
0000
,  // measure 37
0010
0010
0010
0000
,  // measure 38
0001
0001
0001
0000
,  // measure 39
1000
0000
0100
0000
,  // measure 40
1000
0000
0010
0000
,  // measure 41
0220
0000
0000
0330
,  // measure 42
0010
0000
0010
0000
,  // measure 43
0010
0000
0000
0000
,  // measure 44
0100
0000
0100
0000
,  // measure 45
0100
0000
0001
0000
,  // measure 46
1001
0000
1000
0000
,  // measure 47
1001
0000
0001
0000
,  // measure 48
1001
0000
0000
0000
,  // measure 49
0001
0000
0100
0000
,  // measure 50
0110
0000
0010
0000
,  // measure 51
1000
0000
0100
0000
,  // measure 52
1000
0000
0010
0000
,  // measure 53
0100
0000
0001
0000
,  // measure 54
0010
0000
0001
0000
,  // measure 55
0100
0000
1000
0000
,  // measure 56
0100
0000
1000
0000
,  // measure 57
0010
0000
0100
0000
,  // measure 58
1001
0000
0000
0000
;
