#VERSION:0.82;
#TITLE:Can't Hold Us (feat. Ray Dalton);
#SUBTITLE:;
#ARTIST:Macklemore & Ryan Lewis;
#TITLETRANSLIT:;
#SUBTITLETRANSLIT:;
#ARTISTTRANSLIT:;
#GENRE:;
#ORIGIN:;
#CREDIT:;
#BANNER:Can't Hold Us-bn.png;
#BACKGROUND:Can't Hold Us-bg.png;
#PREVIEWVID:;
#JACKET:Can't Hold Us-jk.png;
#CDIMAGE:;
#DISCIMAGE:;
#LYRICSPATH:;
#CDTITLE:darkanine.png;
#MUSIC:Can't Hold Us.ogg;
#OFFSET:0.000000;
#SAMPLESTART:78.113075;
#SAMPLELENGTH:26.301369;
#SELECTABLE:YES;
#BPMS:0.000=146.000;
#STOPS:110.000=0.411,
125.000=0.411;
#DELAYS:;
#WARPS:;
#TIMESIGNATURES:0.000=4=4;
#TICKCOUNTS:0.000=4;
#COMBOS:0.000=1;
#SPEEDS:0.000=1.000=0.000=0;
#SCROLLS:0.000=1.000;
#FAKES:;
#LABELS:0.000=Song Start;
#BGCHANGES:;
#KEYSOUNDS:;
#ATTACKS:
;

//---------------dance-single - ----------------
#NOTEDATA:;
#CHARTNAME:;
#STEPSTYPE:dance-single;
#DESCRIPTION:;
#CHARTSTYLE:;
#DIFFICULTY:Hard;
#METER:7;
#RADARVALUES:0.475462,0.443998,0.261038,0.298329,0.051275,297.000000,28.000000,32.000000,0.000000,0.000000,0.000000,0.000000,0.000000,0.475462,0.443998,0.261038,0.298329,0.051275,297.000000,28.000000,32.000000,0.000000,0.000000,0.000000,0.000000,0.000000;
#CREDIT:;
#NOTES:
// measure 0
0000
0000
0000
0000
,  // measure 1
0000
0000
0000
0000
,  // measure 2
0000
0000
0000
0000
,  // measure 3
0000
0000
0000
0000
,  // measure 4
0000
0001
0001
0000
0000
0100
0000
0100
,  // measure 5
0000
1000
1000
0000
0000
0100
0000
0100
,  // measure 6
0020
0001
0100
1030
,  // measure 7
0002
0100
0010
1003
,  // measure 8
0110
1000
0001
1010
,  // measure 9
0200
1000
0001
0310
,  // measure 10
0000
0202
0303
2200
,  // measure 11
3300
0000
0022
0000
0033
0000
1010
1000
,  // measure 12
0001
0000
0100
0010
0100
0000
1001
0000
,  // measure 13
1000
0100
0010
0000
0010
0100
1000
0000
,  // measure 14
0010
0100
0010
0000
1001
0000
0110
0000
,  // measure 15
1000
0000
0010
0000
0100
0001
1000
0000
,  // measure 16
2001
0000
3010
0000
0100
0001
1000
0000
,  // measure 17
1000
0100
0010
0000
0001
0010
0100
0000
,  // measure 18
1000
0010
1000
0000
0001
0000
0100
0000
,  // measure 19
1010
0000
0001
0010
1000
0010
0001
0000
,  // measure 20
1100
0000
1000
0000
0001
0000
1000
0010
,  // measure 21
0100
0000
0100
0010
1000
0000
0100
0000
,  // measure 22
0011
0000
0001
0100
0010
0000
0010
0100
,  // measure 23
0001
0010
1000
0010
0200
0000
1300
0000
,  // measure 24
0001
0100
0001
0000
1000
0000
0100
0010
,  // measure 25
0100
1000
1001
0100
,  // measure 26
0001
0000
1000
0010
0100
0000
0001
1000
,  // measure 27
0100
0010
0100
1001
,  // measure 28
1000
0100
0010
0000
0001
1000
0100
0000
,  // measure 29
1000
0000
0010
0000
0100
0000
0000
0000
0001
0000
0000
0000
0101
0000
0000
0001
,  // measure 30
1000
0000
0000
1000
0100
0000
0000
0100
0010
0000
0000
0000
0011
0000
0000
0000
,  // measure 31
0100
0000
1100
0000
0110
0000
0001
1000
,  // measure 32
0001
0010
0100
1000
0001
0100
0100
1000
,  // measure 33
0100
0100
0010
0000
1001
0000
1000
0000
,  // measure 34
0001
0100
1000
0000
0100
0000
1010
0000
,  // measure 35
0101
1000
0011
1100
,  // measure 36
0010
0000
0100
0000
0001
0010
1000
0000
,  // measure 37
1000
0000
0010
0000
0001
0000
0000
0000
1000
0000
0000
1000
0100
0000
0000
0100
,  // measure 38
0001
0000
0000
0001
0010
0000
0000
0010
1000
0000
0000
0000
0100
0000
0000
0000
,  // measure 39
1000
0100
0010
0000
1001
0000
0001
1000
,  // measure 40
0010
0000
0010
1000
0001
0000
0200
0000
,  // measure 41
0301
0000
1000
0100
0010
0000
0200
0000
,  // measure 42
1300
0000
0010
1000
0002
0000
0023
0000
,  // measure 43
0230
2300
3002
0100
,  // measure 44
0100
0100
0100
0100
,  // measure 45
0100
0000
0000
0000
0000
0000
0103
0000
0000
0000
1000
0000
0020
0000
0000
0000
0000
0000
0000
0000
0000
0130
0000
0000
,  // measure 46
0001
0100
0010
1000
0000
1000
0200
0000
0000
0000
0000
0000
,  // measure 47
2300
3000
2000
3000
0001
0010
0010
0000
,  // measure 48
0001
0010
0000
0010
0100
1000
1000
0000
,  // measure 49
0100
1000
0000
1000
0001
0100
0100
0000
,  // measure 50
0001
0100
0000
0100
0010
1000
1000
0000
,  // measure 51
0010
1000
0000
1000
0001
0100
0100
0000
,  // measure 52
0001
1000
0000
1000
0100
0010
0010
0000
,  // measure 53
0100
1000
0000
1000
0001
0100
0100
0000
,  // measure 54
1000
0100
0000
0100
0010
0000
0000
0000
,  // measure 55
0000
0000
0110
1000
,  // measure 56
0100
0010
0001
0000
1000
0000
0001
0000
,  // measure 57
0010
0100
1000
0000
1001
0000
1000
0000
,  // measure 58
0010
0100
0001
0000
1000
0000
0100
0010
,  // measure 59
0100
1000
2001
3002
,  // measure 60
0023
2030
3020
0032
,  // measure 61
0203
0000
0320
0000
1030
0000
0100
0010
,  // measure 62
0100
1000
0020
0200
,  // measure 63
0000
0000
0330
0000
;

//---------------dance-single - ----------------
#NOTEDATA:;
#CHARTNAME:;
#STEPSTYPE:dance-single;
#DESCRIPTION:;
#CHARTSTYLE:;
#DIFFICULTY:Medium;
#METER:5;
#RADARVALUES:0.435508,0.473598,0.289007,0.335621,0.000000,260.000000,31.000000,36.000000,0.000000,0.000000,0.000000,0.000000,0.000000,0.435508,0.473598,0.289007,0.335621,0.000000,260.000000,31.000000,36.000000,0.000000,0.000000,0.000000,0.000000,0.000000;
#CREDIT:;
#NOTES:
0000
0000
0000
0000
,
0000
0000
0000
0000
,
0000
0000
0000
0000
,
0000
0000
0000
0000
,
1000
0100
1000
0100
,
0001
0100
0001
0100
,
2000
0010
0001
0010
,
0100
0001
0010
3001
,
1001
0000
1000
0010
1000
0000
1001
0000
,
0100
0100
0010
0010
,
0000
2002
3003
2002
,
3003
0000
0220
0000
0330
0000
0220
0300
,
1030
0000
0001
0000
1000
0100
1000
0000
,
0001
0100
1000
0100
,
0001
0000
0010
0000
0100
0010
0100
0000
,
1000
0000
0100
0000
0010
0001
1000
0000
,
0001
0101
1000
1100
,
0010
0000
0010
0000
0001
1000
0001
0000
,
0100
0010
1000
0100
,
0110
0000
0001
0000
0001
1000
0100
0000
,
1000
0000
0010
0000
1000
0000
0001
0100
,
0010
0100
0110
1000
,
0010
1000
0100
0001
,
0100
1000
0001
0100
0020
0000
0000
0000
,
0130
0001
0101
1000
,
0100
0010
0110
1000
,
1000
0000
0001
0000
0010
0100
0010
0000
,
0001
1000
1001
0110
,
1000
0100
1000
0000
0001
0010
0001
0000
,
1000
0010
0100
1010
,
0001
1100
1000
0011
,
0001
0000
0110
0000
1000
0000
0100
0010
,
0100
0000
1000
0000
0010
0100
0010
0000
,
1000
0001
0010
0000
1001
0000
0001
0000
,
1000
0010
1000
0000
0001
0000
0010
0000
,
0010
0001
0100
0100
,
1001
0000
1000
0000
0001
0010
0001
0000
,
1000
0100
1000
0000
0011
0000
1100
0000
,
1010
0101
1001
0100
,
0010
0100
0010
0000
1000
0000
0100
0010
,
0100
0000
0100
0010
0100
0000
1000
0000
,
0001
0000
0100
0010
0100
0000
0001
0000
,
1000
0100
2000
3200
,
0320
0032
0103
0100
,
0100
0100
0100
0100
,
0100
0100
0020
0000
,
0230
0302
2003
0000
,
3200
0300
1000
0010
,
1000
0010
0000
1000
0001
0000
0100
0000
,
0001
0100
0000
0001
1000
0000
0100
0000
,
1000
0100
0000
1000
0001
0000
0100
0000
,
0001
0100
0000
0010
2000
0000
3020
0000
,
0230
0302
2003
0100
,
0001
3010
0100
0002
,
0023
2030
3200
0302
,
1003
0100
0011
0001
,
1000
0010
1000
0000
1100
0000
0001
0000
,
0100
0010
1000
0000
0001
0000
1000
0000
,
1100
0000
0001
0100
0010
0000
1000
0000
,
0001
0100
0001
0000
1010
0000
1000
0100
,
0010
0002
0203
2300
,
3200
0000
0302
0000
1003
0000
0100
0010
,
0100
1000
1001
0220
,
0000
0000
0330
0000
;

//---------------dance-single - ----------------
#NOTEDATA:;
#CHARTNAME:;
#STEPSTYPE:dance-single;
#DESCRIPTION:;
#CHARTSTYLE:;
#DIFFICULTY:Easy;
#METER:3;
#RADARVALUES:0.346275,0.384798,0.298329,0.158487,0.000000,211.000000,32.000000,17.000000,0.000000,0.000000,0.000000,0.000000,0.000000,0.346275,0.384798,0.298329,0.158487,0.000000,211.000000,32.000000,17.000000,0.000000,0.000000,0.000000,0.000000,0.000000;
#CREDIT:;
#NOTES:
0000
0000
0000
0000
,
0000
0000
0000
0000
,
0000
0000
0000
0000
,
0000
0000
0000
0000
,
1000
0100
1000
0100
,
0001
0100
0001
0100
,
1000
0010
0100
0010
,
1000
0001
0010
0001
,
1001
0100
0100
1001
,
0100
0100
0010
0010
,
0000
1001
0000
1001
,
0000
0110
0000
0110
,
1000
0001
1000
0100
,
0010
0001
1000
0010
,
0100
0001
1000
0001
,
0010
0100
1000
0001
,
0100
0101
0100
1100
,
0010
0010
0001
1000
,
0100
1000
0001
0100
,
0110
0001
0010
0100
,
1000
0010
1000
0001
,
0100
0100
0110
1000
,
0010
1000
0100
0001
,
0100
1000
0020
0000
,
0130
0001
0101
1000
,
0100
0010
0110
1000
,
1000
0001
0010
0100
,
1000
0001
1001
0110
,
1000
1000
0001
0001
,
1000
0010
0100
1010
,
0001
1100
1000
0011
,
0001
0110
1000
0100
,
0100
1000
0010
0010
,
0100
0010
1001
0001
,
1000
1000
0001
0010
,
0010
0001
0100
0100
,
1001
1000
0001
1000
,
0100
0010
0011
1100
,
1010
0101
1001
0100
,
0010
0010
1001
0100
,
0010
0100
0010
1000
,
0001
0010
0100
1000
,
0001
1000
0002
0023
,
0230
2300
3100
0100
,
0100
0100
0100
0100
,
0100
0100
0020
0000
,
0230
2300
3002
0000
,
0203
0300
0001
0000
,
0001
0000
1000
0000
,
1000
0000
0010
0000
,
0010
0000
0100
0000
,
0100
0000
1000
0000
,
0010
0000
0100
0000
,
0001
0000
1000
0000
,
0100
0000
0010
0000
,
0000
0000
1001
0001
,
1000
1000
1100
0001
,
0100
0010
1000
0001
,
0101
1000
0010
1000
,
0001
0100
1010
0010
,
1000
0002
0203
2300
,
3200
0302
1003
0100
,
0100
1000
1001
0220
,
0000
0000
0330
0000
;
