#VERSION:0.81;
#TITLE:Zenith;
#SUBTITLE:;
#ARTIST:Sanxion7;
#TITLETRANSLIT:;
#SUBTITLETRANSLIT:;
#ARTISTTRANSLIT:;
#GENRE:;
#ORIGIN:;
#CREDIT:;
#BANNER:zenith-bn.jpg;
#BACKGROUND:zenith-bg.jpg;
#PREVIEWVID:;
#JACKET:zenithja.jpg;
#CDIMAGE:;
#DISCIMAGE:;
#LYRICSPATH:;
#CDTITLE:;
#MUSIC:Sanxion7 - Zenith.mp3;
#OFFSET:0.488000;
#SAMPLESTART:54.500000;
#SAMPLELENGTH:12.000000;
#SELECTABLE:YES;
#DISPLAYBPM:*;
#BPMS:0.000=150.000,
136.000=100.000,
140.000=75.000,
141.000=100.000,
145.000=75.000,
146.000=100.000,
150.000=75.000,
151.000=100.000,
155.000=150.000,
158.000=100.000,
159.000=150.000,
160.000=100.000,
161.000=150.000,
162.000=75.000,
163.000=150.000,
164.000=100.000,
165.000=150.000,
166.000=100.000,
167.000=150.000,
168.000=75.000,
169.000=150.000,
173.000=37.500,
174.000=150.000,
177.250=37.500,
178.000=150.000,
182.000=300.000,
183.000=150.000,
247.000=75.000,
250.500=72.000,
251.500=70.000,
252.500=68.000;
#STOPS:176.750=0.300,
182.000=0.100,
182.500=0.100;
#DELAYS:;
#WARPS:;
#TIMESIGNATURES:0.000=4=4;
#TICKCOUNTS:0.000=4;
#COMBOS:0.000=1;
#SPEEDS:0.000=1.000=0.000=0;
#SCROLLS:0.000=1.000;
#FAKES:;
#LABELS:0.000=Song Start;
#BGCHANGES:;
#KEYSOUNDS:;
#ATTACKS:
;

//---------------dance-single - ----------------
#NOTEDATA:;
#CHARTNAME:;
#STEPSTYPE:dance-single;
#DESCRIPTION:;
#CHARTSTYLE:;
#DIFFICULTY:Challenge;
#METER:10;
#RADARVALUES:0.805196,1.000000,0.475643,0.697610,1.000000,563.000000,60.000000,88.000000,0.000000,0.000000,0.000000,0.000000,0.000000,0.805196,1.000000,0.475643,0.697610,1.000000,563.000000,60.000000,88.000000,0.000000,0.000000,0.000000,0.000000,0.000000;
#CREDIT:;
#DISPLAYBPM:*;
#NOTES:
0000
0000
0000
0000
,
0000
0000
0000
0000
,
0000
0000
0000
0000
,
0000
0000
0000
0000
,
0000
0000
0000
0000
,
0000
0000
0000
0000
,
0000
0001
1000
0000
1000
0100
0000
0100
1000
0000
1000
0010
0000
0010
0100
0000
,
0100
0001
0000
0001
0010
0000
0010
0100
0000
0100
1000
0000
1000
0001
0000
0000
,
0000
1000
0100
0000
0100
0010
0000
0010
0001
0000
0001
1000
0000
1000
0010
0000
,
0010
0100
0000
0100
0001
0000
0001
1000
0000
1000
0100
0000
0100
0010
0000
0000
,
0000
0100
1000
0000
1000
0001
0000
0001
0100
0000
0100
0010
0000
0010
1000
0000
,
1000
0001
0000
0001
0010
0000
0010
0100
0000
0100
1000
0000
1000
0001
0000
0000
,
0000
0100
0001
0000
0001
1000
0000
1000
0100
0000
0100
1000
0000
1000
0010
0000
,
0010
0100
0000
0100
0001
0000
0001
0010
0000
0010
0001
0000
0001
0100
0000
0000
,
0000
0001
0100
0000
0100
0010
0000
0010
1000
0000
1000
0100
0000
0100
0010
0000
,
0010
0001
0000
0001
0100
0000
0100
0010
0000
0010
1000
0000
1000
0001
0000
0000
,
0000
1000
0100
0000
0100
0001
0000
0001
0100
0000
0100
1000
0000
1000
0010
0000
,
0010
0001
0000
0001
0010
0000
0010
1000
0000
1000
0100
0000
0110
0000
0000
0000
,
2002
0000
0000
0000
3003
0000
2000
3200
0320
0000
0000
0000
0000
0000
0000
0000
,
0000
0000
0032
0203
,
0320
0000
2030
0000
,
3002
0000
0023
0000
,
0032
0203
0320
2030
3200
0000
2300
0000
,
3020
0000
0032
2003
,
3200
0000
0000
0000
,
0302
0000
0000
0000
0000
0000
0000
0023
,
0230
0000
2300
0000
,
3200
0000
0302
0000
,
0023
0000
2030
0000
,
3002
0000
0000
0000
2003
3020
0230
0302
,
0023
0000
0000
0000
0000
0000
0032
0203
0320
0000
0000
0000
0000
0000
2030
3200
,
0302
0000
0000
0000
0203
2300
3002
0000
,
2003
3200
0320
0230
2300
3002
0203
0302
0023
0230
2300
3200
0320
0032
0203
0302
,
2003
3200
0320
0032
0203
0320
2030
3200
2300
3020
0230
0302
0023
0230
2300
3020
,
1030
0100
0010
0001
0100
0010
1000
0010
0100
0001
0010
0100
1000
0001
0100
0001
1000
0100
1000
0001
0010
0001
1000
0010
,
1000
0000
0000
0000
0000
0000
0100
0000
0000
0000
0000
0000
0010
0000
0000
0000
0000
0000
0001
0000
0000
0000
0000
0000
1000
0000
0000
0000
0000
0000
0010
0000
0000
0000
0000
0000
0100
0000
0000
0000
0000
0000
0001
0000
0000
0000
0000
0000
1000
0000
0000
0000
0000
0000
0000
0000
0100
0000
0000
0000
0000
0000
0000
0000
1000
0000
0000
0000
0000
0000
0000
0000
0001
0000
0000
0000
0000
0000
0000
0000
0100
0000
0000
0000
0000
0000
0000
0000
0001
0000
0000
0000
0000
0000
0000
0000
1000
0000
0000
0000
0000
0000
0000
0000
0010
0000
0000
0000
0000
0000
0000
0000
1000
0000
0000
0000
0000
0000
0000
0000
0001
0000
0000
0000
0000
0000
0000
0000
0010
0000
0000
0000
0000
0000
0000
0000
0001
0000
0000
0000
0000
0000
0000
0000
0100
0000
0000
0000
0000
0000
0000
0000
0010
0000
0000
0000
0000
0000
0000
0000
0100
0000
0000
0000
0000
0000
0000
0000
0001
0000
0000
0000
0000
0000
0000
0000
1000
0000
0000
0000
0000
0000
0000
0000
0001
0000
0000
0000
0000
0000
0000
0000
,
0010
0000
0000
0000
0000
0000
0000
0000
0100
0000
0000
0000
0000
0000
0000
0000
0010
0000
0000
0000
0000
0000
0000
0000
0001
0000
0000
0000
0000
0000
0000
0000
1000
0000
0000
0000
0000
0000
0000
0000
0100
0000
0000
0000
0000
0000
0000
0000
0010
0000
0000
0000
0000
0000
0001
0000
0000
0000
0000
0000
1000
0000
0000
0000
0000
0000
0010
0000
0000
0000
0000
0000
0100
0000
0000
0000
0000
0000
0001
0000
0000
0000
0000
0000
1000
0000
0000
0000
0000
0000
0100
0000
0000
0000
0000
0000
0010
0000
0000
0000
0000
0000
0000
0000
0001
0000
0000
0000
0000
0000
0000
0000
0100
0000
0000
0000
0000
0000
0000
0000
0010
0000
0000
0000
0000
0000
0000
0000
1000
0000
0000
0000
0000
0000
0000
0000
0100
0000
0000
0000
0000
0000
0000
0000
0010
0000
0000
0000
0000
0000
0000
0000
0001
0000
0000
0000
0000
0000
0000
0000
0100
0000
0000
0000
0000
0000
0000
0000
0010
0000
0000
0000
0000
0000
0000
0000
1000
0000
0000
0000
0000
0000
0000
0000
0100
0000
0000
0000
0000
0000
0000
0000
,
0010
0000
0000
0000
0000
0000
0000
0000
0001
0000
0000
0000
0000
0000
0000
0000
0100
0000
0000
0000
0000
0000
0000
0000
0010
0000
0000
0000
0000
0000
0000
0000
1000
0000
0000
0000
0000
0000
0000
0000
0100
0000
0000
0000
0000
0000
0000
0000
0010
0000
0000
0000
0000
0000
0000
0000
0001
0000
0000
0000
0000
0000
0000
0000
0100
0000
0000
0000
0000
0000
0000
0000
0010
0000
0000
0000
0000
0000
0000
0000
1000
0000
0000
0000
0000
0000
0000
0000
0001
0000
0000
0000
0000
0000
0000
0000
1000
0000
0000
0000
0000
0000
0100
0000
0000
0000
0000
0000
0010
0000
0000
0000
0000
0000
0001
0000
0000
0000
0000
0000
1000
0000
0000
0000
0000
0000
0100
0000
0000
0000
0000
0000
0010
0000
0000
0000
0000
0000
0001
0000
0000
0000
0000
0000
0100
0000
0000
0000
0000
0000
0000
0000
0001
0000
0000
0000
0000
0000
0000
0000
0010
0000
0000
0000
0000
0000
0000
0000
0100
0000
0000
0000
0000
0000
0000
0000
1000
0000
0000
0000
0000
0000
0000
0000
0010
0000
0000
0000
0000
0000
0000
0000
,
0100
0000
0001
0000
0010
0000
0100
0000
1000
0000
0010
0000
0100
0000
0001
0000
0010
0000
0100
0000
1000
0000
0010
0000
0100
0000
0001
0000
0010
0000
0100
0000
1000
0000
0001
0000
1000
0000
0000
0010
0000
0000
0100
0000
0000
0001
0000
0000
,
1000
0000
0000
0010
0000
0000
0100
0000
0000
0001
0000
0000
0010
0000
0000
0001
0000
0000
0010
0000
0000
0001
0000
0000
0010
0000
0001
0000
0010
0000
0001
0000
1000
0000
0010
0000
1000
0000
0000
0010
0000
0000
1000
0000
0000
0010
0000
0000
,
1000
0000
0000
0000
0000
0000
0000
0000
0010
0000
0000
0000
0000
0000
0000
0000
0100
0000
0000
0000
0000
0000
0000
0000
0001
0000
0000
0000
0000
0000
0000
0000
0100
0000
0000
0000
0000
0000
0000
0000
0001
0000
0000
0000
0000
0000
0000
0000
0100
0000
0000
0000
0000
0000
0000
0000
0000
0000
0000
0000
0001
0000
0000
0000
0000
0000
0000
0000
0000
0000
0000
0000
0100
0000
0000
0000
0000
0000
0000
0000
0000
0000
0000
0000
0001
0000
0000
0000
0000
0000
0000
0000
0000
0000
0000
0000
1000
0000
0000
0000
0000
0000
0100
0000
0000
0000
0000
0000
1000
0000
0000
0000
0000
0000
0100
0000
0000
0000
0000
0000
1000
0000
0000
0000
0000
0000
0100
0000
0000
0000
0000
0000
1000
0000
0000
0000
0000
0000
0100
0000
0000
0000
0000
0000
1000
0000
0000
0000
0000
0000
0000
0000
0000
0000
0000
0000
0001
0000
0000
0000
0000
0000
0000
0000
0000
0000
0000
0000
1000
0000
0000
0000
0000
0000
0000
0000
0000
0000
0000
0000
0001
0000
0000
0000
0000
0000
0000
0000
0000
0000
0000
0000
,
0100
0000
0001
0000
0100
0000
0001
0000
0100
0000
0010
0000
0100
0000
0000
0010
0000
0000
1000
0000
0000
0010
0000
0000
1000
0000
0010
0000
1000
0000
0100
0000
0010
0000
0001
0000
1000
0000
0000
0010
0000
0000
0100
0000
0000
0001
0000
0000
,
1000
0100
0010
0001
1000
0010
0100
0001
1000
0000
0100
0000
0010
0000
0100
0000
1000
0000
0001
0000
0100
0000
0001
0000
1000
0000
0010
0000
0100
0000
0010
0000
,
1000
0001
1000
0000
0101
1010
1100
0011
0001
0100
0010
0100
0001
1000
0100
1000
,
0001
0010
0100
0010
0000
1001
1010
1001
0011
0000
0000
0000
1000
0001
0100
0001
,
0010
0100
0010
0001
1000
0010
0100
0001
1001
0000
0110
0000
1100
0000
0000
0000
,
0000
0000
1000
0010
0100
0101
0000
0011
,
0000
1100
0000
1010
0000
1001
0000
0000
,
0000
0000
0001
0010
0100
1000
0000
1001
,
0000
0000
0110
0000
0000
0000
0001
0000
1000
0100
0010
0001
1000
0000
0100
0000
,
1010
1001
0000
0000
0110
0101
0000
0000
,
1001
0110
0000
1100
0000
0011
0000
0000
,
0000
1010
0000
0000
0000
0110
0000
0000
,
0000
1100
1001
0000
0110
0000
1100
1001
,
0000
0110
0000
1001
0101
0110
0000
1001
,
0110
1001
1010
0101
0000
1100
0011
1001
,
0101
0110
0000
1001
0000
1100
0000
1001
,
0000
0000
0101
0000
0000
0000
1100
0000
1000
0000
0001
0000
1000
0100
0010
0100
,
1000
0001
0100
0001
1000
0010
0100
0010
1000
0001
0010
0001
1000
0100
0010
0100
,
1000
0010
0100
0010
1000
0100
0001
0100
1000
0010
0001
0010
1000
0100
0010
0001
,
1000
0100
0010
0001
1000
0010
0100
0001
1000
0010
0100
0001
1000
0100
0010
0001
,
0010
0100
1000
0010
0100
0001
0100
0010
1000
0100
0010
0001
2002
0000
3003
0000
,
0202
0303
0220
0330
2020
0000
0000
0000
3030
0000
0000
0000
0220
0000
0000
0000
,
0330
0202
0303
0000
;

//---------------dance-single - ----------------
#NOTEDATA:;
#CHARTNAME:;
#STEPSTYPE:dance-single;
#DESCRIPTION:;
#CHARTSTYLE:;
#DIFFICULTY:Hard;
#METER:10;
#RADARVALUES:0.661370,1.000000,0.872012,0.388442,0.622300,425.000000,110.000000,49.000000,0.000000,0.000000,0.000000,0.000000,0.000000,0.661370,1.000000,0.872012,0.388442,0.622300,425.000000,110.000000,49.000000,0.000000,0.000000,0.000000,0.000000,0.000000;
#CREDIT:;
#DISPLAYBPM:*;
#NOTES:
0000
0000
0000
0000
,
0000
0000
0000
0000
,
0000
0000
0000
0000
,
0000
0000
0000
0000
,
0000
0000
0000
0000
,
0000
0000
0000
0000
,
0000
0000
1001
0000
0000
1001
0000
0000
1100
0000
0000
1100
0000
0000
1100
0000
,
0000
0011
0000
0000
0011
0000
0000
0011
0000
0000
1001
0000
0000
1001
0000
0000
,
0000
0000
1010
0000
0000
1010
0000
0000
0110
0000
0000
0110
0000
0000
0110
0000
,
0000
1001
0000
0000
1001
0000
0000
1001
0000
0000
1100
0000
0000
1100
0000
0000
,
0000
0000
1001
0000
0000
1001
0000
0000
0101
0000
0000
0101
0000
0000
0101
0000
,
0000
1100
0000
0000
1100
0000
0000
1100
0000
0000
0110
0000
0000
0110
0000
0000
,
0000
0000
1001
0000
0000
1001
0000
0000
1100
0000
0000
1100
0000
0000
1100
0000
,
0000
0011
0000
0000
0011
0000
0000
0011
0000
0000
1001
0000
0000
1001
0000
0000
,
0000
0000
1010
0000
0000
1010
0000
0000
1100
0000
0000
1100
0000
0000
1100
0000
,
0000
0011
0000
0000
0011
0000
0000
0011
0000
0000
0101
0000
0000
0101
0000
0000
,
0000
0000
1010
0000
0000
1010
0000
0000
1001
0000
0000
1001
0000
0000
1001
0000
,
0000
0110
0000
0000
0110
0000
0000
0110
0000
0000
0101
0000
0101
0000
0000
0000
,
0020
0000
0000
0000
0030
0000
0010
1000
0002
0000
0000
0000
0003
0000
0000
0000
,
0000
0000
0101
0110
,
2020
3030
2002
3003
,
2200
3300
0022
0033
,
0001
0010
0100
0010
0001
0000
0100
0000
,
0220
0330
2002
3003
,
2200
0000
3300
0000
,
0202
0000
0000
0000
0303
0000
0000
0002
,
2000
3003
0000
0000
2200
3300
0000
0000
,
2002
3003
0000
0000
0202
0303
0000
0000
,
0220
0330
0000
0000
2020
3030
0000
0000
,
2002
3003
0000
0000
1000
0010
0100
0001
,
0020
0000
0000
0000
0030
0000
0001
1000
0020
0000
0000
0000
0030
0000
1000
0001
,
0020
0000
0030
0000
1001
1010
0101
0000
,
1000
0001
0010
0000
0001
1000
0010
0000
1000
0100
0010
0000
0001
0100
0010
0000
,
1000
0010
0100
0000
0001
0010
0100
0000
1000
0001
0100
0000
0001
1000
0100
0000
,
1000
0100
0010
0100
1000
0000
0001
0100
0010
0100
0001
0000
1000
0100
0010
0100
1000
0000
0001
0100
0010
0100
0001
0000
,
1000
0000
0000
0000
0000
0000
0100
0000
0000
0000
0000
0000
0010
0000
0000
0000
0000
0000
0000
0000
0000
0000
0000
0000
0001
0000
0000
0000
0000
0000
0100
0000
0000
0000
0000
0000
0010
0000
0000
0000
0000
0000
0000
0000
0000
0000
0000
0000
1000
0000
0000
0000
0000
0000
0000
0000
0001
0000
0000
0000
0000
0000
0000
0000
0100
0000
0000
0000
0000
0000
0000
0000
0001
0000
0000
0000
0000
0000
0000
0000
1000
0000
0000
0000
0000
0000
0000
0000
0000
0000
0000
0000
0000
0000
0000
0000
0001
0000
0000
0000
0000
0000
0000
0000
1000
0000
0000
0000
0000
0000
0000
0000
0100
0000
0000
0000
0000
0000
0000
0000
1000
0000
0000
0000
0000
0000
0000
0000
0001
0000
0000
0000
0000
0000
0000
0000
0000
0000
0000
0000
0000
0000
0000
0000
1000
0000
0000
0000
0000
0000
0000
0000
0001
0000
0000
0000
0000
0000
0000
0000
0100
0000
0000
0000
0000
0000
0000
0000
0001
0000
0000
0000
0000
0000
0000
0000
1000
0000
0000
0000
0000
0000
0000
0000
0000
0000
0000
0000
0000
0000
0000
0000
,
0001
0000
0000
0000
0000
0000
0000
0000
1000
0000
0000
0000
0000
0000
0000
0000
0100
0000
0000
0000
0000
0000
0000
0000
1000
0000
0000
0000
0000
0000
0000
0000
0001
0000
0000
0000
0000
0000
0000
0000
0000
0000
0000
0000
0000
0000
0000
0000
1000
0000
0000
0000
0000
0000
0001
0000
0000
0000
0000
0000
0100
0000
0000
0000
0000
0000
0000
0000
0000
0000
0000
0000
0001
0000
0000
0000
0000
0000
1000
0000
0000
0000
0000
0000
0100
0000
0000
0000
0000
0000
0000
0000
0000
0000
0000
0000
1000
0000
0000
0000
0000
0000
0000
0000
0001
0000
0000
0000
0000
0000
0000
0000
1000
0000
0000
0000
0000
0000
0000
0000
0001
0000
0000
0000
0000
0000
0000
0000
1000
0000
0000
0000
0000
0000
0000
0000
0000
0000
0000
0000
0000
0000
0000
0000
0001
0000
0000
0000
0000
0000
0000
0000
0100
0000
0000
0000
0000
0000
0000
0000
0001
0000
0000
0000
0000
0000
0000
0000
0100
0000
0000
0000
0000
0000
0000
0000
0001
0000
0000
0000
0000
0000
0000
0000
0000
0000
0000
0000
0000
0000
0000
0000
,
0100
0000
0000
0000
0000
0000
0000
0000
0010
0000
0000
0000
0000
0000
0000
0000
0100
0000
0000
0000
0000
0000
0000
0000
0010
0000
0000
0000
0000
0000
0000
0000
0100
0000
0000
0000
0000
0000
0000
0000
0000
0000
0000
0000
0000
0000
0000
0000
0010
0000
0000
0000
0000
0000
0000
0000
1000
0000
0000
0000
0000
0000
0000
0000
0010
0000
0000
0000
0000
0000
0000
0000
1000
0000
0000
0000
0000
0000
0000
0000
0010
0000
0000
0000
0000
0000
0000
0000
0000
0000
0000
0000
0000
0000
0000
0000
1000
0000
0000
0000
0000
0000
0001
0000
0000
0000
0000
0000
1000
0000
0000
0000
0000
0000
0000
0000
0000
0000
0000
0000
0001
0000
0000
0000
0000
0000
1000
0000
0000
0000
0000
0000
0001
0000
0000
0000
0000
0000
0000
0000
0000
0000
0000
0000
1000
0000
0000
0000
0000
0000
0000
0000
0100
0000
0000
0000
0000
0000
0000
0000
1000
0000
0000
0000
0000
0000
0000
0000
0100
0000
0000
0000
0000
0000
0000
0000
1000
0000
0000
0000
0000
0000
0000
0000
0000
0000
0000
0000
0000
0000
0000
0000
,
0001
0000
0100
0000
0001
0000
0100
0000
0001
0000
0000
0000
1000
0000
0010
0000
1000
0000
0010
0000
1000
0000
0000
0000
0001
0000
0010
0000
0001
0000
0010
0000
0001
0000
0000
0000
1000
0000
0000
0100
0000
0000
1000
0000
0000
0000
0000
0000
,
0001
0000
0000
0010
0000
0000
0001
0000
0000
0000
0000
0000
1000
0000
0000
0000
0000
0000
1000
0000
0000
0000
0000
0000
1000
0000
0000
0000
1000
0000
0000
0000
0010
0000
0000
0000
0010
0000
0000
0000
0000
0000
0010
0000
0000
0000
0000
0000
,
0010
0000
0000
0000
0001
0000
0000
0000
0001
0000
0000
0000
0001
0000
0000
0000
0000
0000
0001
0000
0000
0000
0000
0000
0100
0000
0000
0100
0000
0000
0100
0000
0000
0100
0000
0000
1000
0000
0000
0000
0000
0000
1000
0000
0000
0000
0000
0000
,
0010
0000
0010
0000
0100
0000
0100
0000
0000
0001
0000
0000
0001
0000
1000
0000
0100
0000
0001
0000
0000
1000
0000
0000
,
0001
0100
1000
0001
1000
0100
1000
0000
0001
0100
0001
0000
1000
0100
1000
0000
,
0001
0100
0001
0000
1100
0101
1010
0011
1000
0010
1000
0000
0001
0010
0001
0000
,
1000
0010
1000
0000
0000
0011
1010
1001
0110
0000
0000
0000
1000
0100
0010
0100
,
1000
0001
0100
0001
1000
0010
0100
0010
1000
0000
0001
0000
0110
0000
0000
0000
,
0000
0000
1000
0100
0001
0010
0000
0110
,
0000
1001
0000
1100
0000
0011
0000
0000
,
0000
0000
0001
0100
1000
0010
0000
0110
,
0000
0000
1001
0000
0000
0000
1000
0000
0001
0100
0010
1000
0001
0000
0100
0000
,
1000
2200
3300
0000
0001
0202
0303
0000
,
0010
0220
0330
2200
3300
0022
0000
0033
,
0000
2002
0000
3003
0000
2200
0000
0000
,
3300
1000
1001
0000
0110
0000
1000
0100
,
0000
0001
0000
0100
1000
0010
0000
0001
,
0010
1000
0100
0001
0000
0100
1000
0001
,
0100
1000
0000
0011
0000
1100
0000
1001
,
0000
0000
0101
0000
0000
0000
1010
0000
1000
0000
0001
0000
1000
0001
0100
0000
,
0001
1000
0100
0000
1000
0100
0010
0000
0001
0100
0010
0000
1000
0001
0010
0000
,
0001
1000
0010
0000
1000
0010
0100
0000
0001
0010
0100
0000
1000
0010
1000
0010
,
0100
0010
0100
0010
0100
0001
0100
0001
1000
0001
1000
0001
1000
0100
1000
0100
,
0010
0100
0010
0100
0010
0001
0010
0001
1000
0001
1000
0001
0100
0000
0000
0000
,
1000
0100
0001
0000
0000
0000
0011
0000
,
0000
1100
0000
0000
;

//---------------dance-single - ----------------
#NOTEDATA:;
#CHARTNAME:;
#STEPSTYPE:dance-single;
#DESCRIPTION:;
#CHARTSTYLE:;
#DIFFICULTY:Medium;
#METER:8;
#RADARVALUES:0.400899,0.501407,0.198185,0.673828,0.158548,244.000000,25.000000,85.000000,0.000000,0.000000,0.000000,0.000000,0.000000,0.400899,0.501407,0.198185,0.673828,0.158548,244.000000,25.000000,85.000000,0.000000,0.000000,0.000000,0.000000,0.000000;
#CREDIT:;
#DISPLAYBPM:*;
#NOTES:
0000
0000
0000
0000
,
0000
0000
0000
0000
,
0000
0000
0000
0000
,
0000
0000
0000
0000
,
0000
0000
0000
0000
,
0000
0000
0000
0000
,
0000
0000
1000
0000
0000
1000
0000
0000
1000
0000
0000
1000
0000
0000
1000
0000
,
0000
0010
0000
0000
0010
0000
0000
0010
0000
0000
0010
0000
0000
0010
0000
0000
,
0000
0000
0001
0000
0000
0001
0000
0000
0001
0000
0000
0001
0000
0000
0001
0000
,
0000
0100
0000
0000
0100
0000
0000
0100
0000
0000
0100
0000
0000
0100
0000
0000
,
0000
0000
1000
0000
0000
1000
0000
0000
1000
0000
0000
1000
0000
0000
1000
0000
,
0000
0001
0000
0000
0001
0000
0000
0001
0000
0000
0001
0000
0000
0001
0000
0000
,
0000
0000
1000
0000
0000
1000
0000
0000
1000
0000
0000
1000
0000
0000
1000
0000
,
0000
0010
0000
0000
0010
0000
0000
0010
0000
0000
0010
0000
0000
0010
0000
0000
,
0000
0000
0001
0000
0000
0001
0000
0000
0001
0000
0000
0001
0000
0000
0001
0000
,
0000
1000
0000
0000
1000
0000
0000
1000
0000
0000
1000
0000
0000
1000
0000
0000
,
0000
0000
0001
0000
0000
0001
0000
0000
0001
0000
0000
0001
0000
0000
0001
0000
,
0000
0100
0000
0000
0100
0000
0000
0100
0000
0000
0100
0000
0100
0000
0000
0000
,
2001
0000
0000
3100
0200
0000
0000
0000
,
0300
0000
0002
0203
,
0320
0000
2030
0000
,
3002
0000
0023
0000
,
0031
0100
0010
0100
0001
0000
1000
0000
,
0020
0000
2030
0000
,
3200
0000
0300
0000
,
0002
0000
0000
0000
0003
0000
0000
2000
,
3200
0300
0002
0003
,
0200
0300
2000
3000
,
0002
0003
0020
0030
,
2000
0000
3000
0000
0001
1000
0100
1000
,
0002
0000
0000
1000
2003
0000
0000
0010
,
3020
0000
0000
0000
1030
0001
1000
0000
,
0002
0203
0320
2030
,
3200
2300
3002
0103
,
1100
1001
0101
1001
,
0220
0330
0011
0000
1001
0000
1100
0000
,
1001
0000
0202
0303
1001
0000
0110
0000
,
1001
0000
0110
0000
2002
3003
1100
0000
,
0011
0101
1010
1000
,
0001
0000
0000
2000
0000
0000
0000
0000
3002
0000
0000
0000
,
0000
0023
0000
0000
0000
0000
0230
0000
0000
2300
0000
0000
,
3002
0000
0000
0000
0023
0000
0000
0000
0000
0230
0000
0000
0000
0000
1300
0000
0001
0000
1000
0000
0000
0001
0000
0000
,
0100
0001
0100
0001
0200
0000
0000
0000
0302
0000
0000
0000
2003
0000
0000
0000
,
3200
0000
0000
0000
1300
1000
0010
0010
0002
0000
0000
0000
0203
0000
0000
0000
,
0320
0000
0000
0030
0000
1000
1000
0001
0001
0000
0000
0000
1000
0000
0100
0000
,
0010
0001
1000
0010
0100
0100
0002
0000
,
0000
0000
1003
0100
1000
0200
0000
0320
,
0000
0032
0000
0203
0000
0320
0000
0030
,
0000
0000
1000
0100
1000
0002
0000
2003
,
0000
3200
0000
0320
0032
2003
3020
0030
,
2000
3100
0000
0000
0002
0103
0000
0000
,
0200
0310
0000
0100
0000
0110
0000
0000
,
0000
1001
0000
0000
0000
0110
0000
0000
,
0000
1000
0002
0000
2003
0000
3010
0100
,
0000
0001
0000
1000
0100
0010
0000
0100
,
1000
0100
0010
0100
0000
1000
0001
0100
,
0001
1000
0000
0100
0000
0001
0000
0100
,
0000
1000
0000
0010
0100
0010
2000
3000
,
2000
3000
0002
0003
0002
0003
0200
0300
,
0200
0300
0020
0030
0020
0030
2000
0000
,
3200
0320
0032
0203
,
0320
2030
3002
0103
,
0100
0001
1000
0000
0000
0000
1001
0000
,
0000
0101
0000
0000
;

//---------------dance-single - ----------------
#NOTEDATA:;
#CHARTNAME:;
#STEPSTYPE:dance-single;
#DESCRIPTION:;
#CHARTSTYLE:;
#DIFFICULTY:Easy;
#METER:5;
#RADARVALUES:0.237822,0.250704,0.031710,0.031710,0.003964,202.000000,4.000000,4.000000,0.000000,0.000000,0.000000,0.000000,0.000000,0.237822,0.250704,0.031710,0.031710,0.003964,202.000000,4.000000,4.000000,0.000000,0.000000,0.000000,0.000000,0.000000;
#CREDIT:;
#DISPLAYBPM:*;
#NOTES:
// measure 0
0000
0000
0000
0000
,  // measure 1
0000
0000
0000
0000
,  // measure 2
0000
0000
0000
0000
,  // measure 3
0000
0000
0000
0000
,  // measure 4
0000
0000
0000
0000
,  // measure 5
0000
0000
0000
0000
,  // measure 6
1000
0001
0100
0001
,  // measure 7
1000
0000
0010
0000
1000
0000
0100
1000
,  // measure 8
0001
1000
0100
1000
,  // measure 9
0001
1000
0010
1000
,  // measure 10
0100
1000
0010
1000
,  // measure 11
0100
0000
1000
0000
0001
0000
0000
1000
,  // measure 12
0001
1000
0100
1000
,  // measure 13
0001
1000
0100
0010
,  // measure 14
0001
0000
1000
0000
0100
0000
0000
1000
,  // measure 15
0001
0100
0010
0100
,  // measure 16
0001
0010
0100
0010
,  // measure 17
0001
1000
0010
1000
,  // measure 18
0001
0000
0000
0001
1000
0000
0000
0000
,  // measure 19
0000
0000
1000
0100
,  // measure 20
1000
0000
0001
0000
,  // measure 21
1000
0000
0010
0000
,  // measure 22
1000
0001
1000
0100
,  // measure 23
0010
0000
0001
0000
,  // measure 24
1001
0000
0000
0000
,  // measure 25
0110
0000
0000
0000
,  // measure 26
1000
0000
0001
0000
,  // measure 27
0100
0000
0001
0000
,  // measure 28
1000
0000
0100
0000
,  // measure 29
1000
0000
0010
0100
,  // measure 30
0010
0000
0000
1000
0010
0000
0000
0001
,  // measure 31
0010
0000
0000
0000
1000
0001
1000
0000
,  // measure 32
0001
0100
0001
0100
,  // measure 33
1000
0100
1000
0100
,  // measure 34
1000
1000
1000
1000
,  // measure 35
0100
0001
0001
0001
,  // measure 36
0001
0100
0010
0010
,  // measure 37
0010
0010
1000
0100
,  // measure 38
0100
0100
0100
1000
,  // measure 39
1000
0001
0001
1000
,  // measure 40
1000
0100
0100
0001
,  // measure 41
0001
1000
1000
0100
,  // measure 42
0100
1000
0100
1000
,  // measure 43
0100
0000
0000
0000
2000
0000
0000
3000
1000
0000
0000
0000
0001
0000
0000
0000
,  // measure 44
1000
0000
0000
0000
0000
0002
0000
0000
0003
0000
0000
0000
1000
0000
0000
0000
,  // measure 45
0100
0000
0001
0000
0200
0300
0110
0000
,  // measure 46
0000
0000
1000
0000
1000
0001
0000
0100
,  // measure 47
0000
0001
0000
0100
0000
0010
0000
0000
,  // measure 48
0000
0000
1000
0000
1000
0001
0000
1000
,  // measure 49
0000
0001
0000
1000
0200
0300
0010
0000
,  // measure 50
1000
0001
0000
0000
0001
1000
0000
0000
,  // measure 51
1000
0001
0000
1000
0000
0100
0000
0000
,  // measure 52
0000
0010
0000
0000
0000
0100
0000
0000
,  // measure 53
0000
1000
0001
0000
0100
0000
0001
1000
,  // measure 54
0000
0100
0000
1000
0001
0100
0000
0000
,  // measure 55
1000
0100
0000
0001
,  // measure 56
1000
0100
0000
0010
0000
0100
0000
0001
,  // measure 57
0000
0100
0000
0001
0010
0000
1000
0000
,  // measure 58
1000
0100
0100
0001
,  // measure 59
0001
0010
0010
1000
,  // measure 60
0100
0010
0001
1001
,  // measure 61
0000
0000
0000
1000
,  // measure 62
0001
0100
0010
0000
0000
0000
1000
0000
,  // measure 63
0000
0001
0000
0000
;
