#TITLE:Zealot;
#SUBTITLE:;
#ARTIST:Alabaster;
#TITLETRANSLIT:;
#SUBTITLETRANSLIT:;
#ARTISTTRANSLIT:;
#GENRE:;
#CREDIT:rikame;
#BANNER:[Zenius -Initial- vanisher] - Zealot.png;
#BACKGROUND:[Zenius -Initial- vanisher] - Zealot - bg.png;
#LYRICSPATH:;
#CDTITLE:cd-rikame.png;
#MUSIC:[Zenius -Initial- vanisher] - Zealot.ogg;
#OFFSET:0.021;
#SAMPLESTART:54.044;
#SAMPLELENGTH:18.646;
#SELECTABLE:YES;
#BPMS:0.000=175.000;
#STOPS:;
#BGCHANGES:0.000=bg4.png=1.000=0=0=1=====,
32.000=-random-=1.000=0=0=1=====,
64.000=-random-=1.000=0=0=1=====,
96.000=-random-=1.000=0=0=1=====,
128.000=flash=1.000=0=0=1====1^0^0^1=,
128.063=bg4.png=1.000=0=0=1=====,
140.000=flash=1.000=0=0=1====1^0^0^1=,
140.063=bg4.png=1.000=0=0=1=====,
141.500=flash=1.000=0=0=1====1^0^0^1=,
144.000=flash=1.000=0=0=1=====,
144.063=bg4.png=1.000=0=0=1=====,
160.000=-random-=1.000=0=0=1=====,
192.000=-random-=1.000=0=0=1=====,
224.000=-random-=1.000=0=0=1=====,
256.000=-random-=1.000=0=0=1=====,
288.000=-random-=1.000=0=0=1=====,
320.000=-random-=1.000=0=0=1=====,
352.000=bg4.png=1.000=0=0=1=====,
99999=-nosongbg-=1.000=0=0=0 // don't automatically add -songbackground-
;
#KEYSOUNDS:;

//---------------dance-single - Rikame----------------
#NOTES:
     dance-single:
     Rikame:
     Challenge:
     13:
     1.000,1.000,0.173,0.008,1.000:
0000
0000
0000
0000
,
0000
0000
0000
0000
,
0000
0000
0000
0000
,
0000
0000
0000
0000
,
0000
0000
0000
0000
,
0000
0000
0000
0000
,
0000
0000
0000
0000
,
4000
0004
0000
0000
0000
0000
0000
0000
0000
0000
0000
3000
0013
0100
0010
0001
,
1000
0001
0100
0010
1000
0001
1000
0100
0010
0001
1000
0001
0100
0010
1000
0001
,
0100
0001
0010
0100
1000
0001
1000
0010
0100
0001
1000
0001
0010
0100
1000
0001
,
0010
0001
0100
0010
1000
0001
1000
0100
0010
0001
1000
0001
0100
0010
1000
0001
,
0100
0001
0010
0100
1000
0001
1000
0010
0100
0001
1000
0001
0010
0100
1000
0001
,
0100
0001
1000
0100
1000
0010
1000
0001
0010
0100
1000
0010
0100
0001
0010
0100
,
1000
0001
0010
0001
0100
0001
1000
0100
0010
0001
0100
0010
1000
0100
0010
0001
,
0100
0001
1000
0010
1000
0100
1000
0001
0100
0010
1000
0100
0010
0001
0100
0010
,
1000
0001
0100
0010
1000
0001
1000
0100
0010
0001
0100
0001
0010
0100
1000
0001
,
1000
0010
0100
0001
1000
0100
0010
0001
1000
0010
0100
0001
1000
0001
0010
0100
,
1000
0100
0010
0001
1000
0001
0100
0010
1000
0100
0010
0001
1000
0010
0100
0001
,
1000
0001
0100
0010
1000
0001
0010
0100
1000
0001
0100
0010
1000
0001
1000
0100
,
0010
0001
0010
0100
1000
0001
1000
0010
0100
0001
0010
0100
1000
0001
0100
0010
,
1000
0001
0100
0001
1000
0100
1000
0001
0010
0100
0010
0001
0100
0010
0100
0001
,
1000
0001
0010
0001
1000
0010
1000
0001
0100
0010
0100
0001
0010
0100
0010
0001
,
1000
0100
1000
0001
0100
0001
0010
0100
1000
0010
0100
0010
1000
0100
0010
0100
,
1000
0010
1000
0001
0010
0001
0100
0010
1000
0100
1000
0010
0100
0001
0010
0001
,
1000
0010
1000
0000
0100
0000
0010
0000
0001
1000
0001
0000
0010
0001
0010
0000
,
0100
0001
0100
0000
M001
0000
M001
0000
1000
0010
1000
0000
0010
0100
0010
0000
,
0100
1000
0100
0000
100M
0000
100M
0000
0100
0010
0100
0000
1000
0001
1000
0000
,
0010
0001
0010
0000
M001
0000
M001
0000
0100
0010
0100
0000
0001
1000
0001
0000
,
0010
1000
0010
0000
100M
0000
100M
0000
0100
0010
0001
0000
0001
0010
0100
0000
,
0100
0010
100M
0000
100M
0000
0001
0000
0100
0010
1000
0000
1000
0010
0100
0000
,
0100
0010
M001
0000
M001
0000
0100
0000
0010
1000
0001
0000
0001
1000
0010
0000
,
0010
0100
100M
0000
100M
0000
0100
0000
0010
0001
0100
0000
0100
0001
0010
0000
,
0010
0100
1000
0000
1100
0000
0100
0000
0010
0001
1000
0000
1000
0100
0010
0000
,
0010
0001
1000
0000
1010
0000
0010
0000
1000
0010
0100
0000
0100
0001
1000
0000
,
1000
0010
0100
0000
0101
0000
0001
0000
0010
0100
1000
0000
1000
0001
0010
0000
,
0010
0100
1000
0000
1001
0000
0001
0000
0100
0010
1000
0000
1000
0001
0100
0000
,
0110
0010
1000
0001
0010
0001
1000
0100
,
1000
0001
0100
0001
1000
0010
0100
0010
,
1000
0001
1000
0001
1000
0001
1000
0001
1000
0001
1000
0001
1000
0001
1000
0001
,
0400
0000
0000
0000
0310
0000
0000
0000
1000
0000
0100
0000
0010
0001
1000
0010
,
0100
0001
0100
0000
1000
0000
0100
0000
0001
1000
0001
0000
0010
0001
0010
0000
,
0100
1000
0100
0000
0001
0000
0100
0000
1000
0010
0100
0010
1000
0001
0010
0100
,
1000
0001
0100
0000
1000
0000
0100
0000
0010
1000
0010
0000
0100
0001
0100
0000
,
0010
0000
0000
0000
1000
0000
0001
0000
0010
0000
0100
0000
0010
0000
0100
0000
1000
0000
0010
0000
1000
0000
0010
0000
0100
0000
0000
0000
0001
1000
0001
0000
,
0010
0100
0010
0000
1000
0000
0010
0000
0100
1000
0100
0000
1000
0001
1000
0000
,
0010
0100
0010
0000
0001
0000
0010
0000
1000
0001
0100
0001
1000
0100
0010
0100
,
1000
0001
0010
0000
1000
0000
0010
0000
0001
1000
0001
0000
0010
0001
0010
0000
,
0100
0000
0000
0000
0010
0000
0100
0000
1000
0000
0010
0000
1000
0000
0010
0000
0100
0000
0001
0000
0100
0000
0001
0000
0010
0000
0000
0000
0001
1000
0001
0000
,
0010
0100
0010
0000
1000
0000
0010
0000
0001
0100
0001
0000
1000
0001
1000
0000
,
0100
1000
0100
0000
0001
0000
0100
0000
1000
0010
1000
0100
0010
0001
0100
0001
,
1000
0010
0100
0000
1000
0000
0100
0000
0010
1000
0010
0000
0100
0010
0100
0000
,
0001
0000
0000
0000
1000
0000
0001
0000
0100
0000
0010
0000
0100
0000
0010
0000
1000
0000
0100
0000
1000
0000
0100
0000
0010
0000
0000
0000
0001
1000
0001
0000
,
0100
0010
0100
0000
1000
0000
0100
0000
0001
0010
0001
0000
1000
0100
1000
0000
,
0010
1000
0010
0000
0001
0000
0010
0000
1000
0100
1000
0001
0100
0010
1000
0001
,
1000
0100
0010
0000
1000
0000
0010
0000
0001
1000
0001
0000
1000
0100
1000
0000
,
0010
0000
0000
0000
0100
0000
0010
0000
1000
0000
0100
0000
1000
0000
0100
0000
0010
0000
0001
0000
0010
0000
0001
0000
0100
0000
0000
0000
0001
1000
0001
0000
,
0100
0010
0110
0001
1000
0010
0110
0001
,
1000
0100
0110
0001
1000
0100
0110
0001
,
1000
0001
0101
0010
1000
0001
0101
1000
,
0100
0010
0011
1000
0100
0010
0011
0100
,
0010
1000
1001
0100
0010
1000
1001
0010
,
0100
0001
1001
0010
0100
0001
1001
0100
,
0001
1000
1100
0010
0001
1000
1100
0010
,
0001
0100
0110
1000
0001
0100
0110
1000
,
0001
1000
0001
0000
0010
0000
0100
0000
1000
0010
1000
0000
0010
0100
0010
0000
,
0100
0001
0100
0000
0010
0000
1000
0000
0001
0010
0001
0000
0010
0100
0010
0000
,
0100
1000
0100
0000
0010
0000
0001
0000
0100
0010
0100
0000
0010
1000
0010
0000
,
1000
0001
1000
0000
0100
0000
0010
0000
0001
0100
0001
0000
0100
0010
0100
0000
,
0010
1000
0010
0000
0100
0000
0001
0000
1000
0100
1000
0000
0100
0010
0100
0000
,
0010
0001
0010
0000
0001
0000
1000
0000
0010
1000
0010
0000
1000
0001
1000
0000
,
0001
0010
0001
0000
0100
0000
0010
0000
1000
0100
1000
0000
0001
1000
0001
0000
,
0100
0001
0100
0000
0010
0000
1000
0000
0001
0100
0001
0000
0100
0010
0100
0000
,
0010
1000
0100
0000
M001
0000
M001
0000
0010
0100
1000
0000
1000
0010
0100
0000
,
0100
0001
0010
0000
100M
0000
100M
0000
0001
0010
0100
0010
0001
1000
0100
1000
,
0001
1000
0010
0000
M001
0000
M001
0000
1000
0010
0100
0000
0100
0001
1000
0000
,
0100
0000
0000
0000
0010
0000
0100
0000
1000
0000
0010
0000
1000
0000
0010
0000
0100
0000
0001
0000
0100
0000
0001
0000
1000
0000
0000
0000
0100
0010
0100
0000
,
1000
0001
0100
0000
100M
0000
100M
0000
0010
0100
0001
0000
0001
0010
0100
0000
,
0100
1000
0010
0000
M001
0000
M001
0000
0100
0010
0100
0001
1000
0010
1000
0001
,
1000
0100
0010
0000
100M
0000
100M
0000
0001
0010
0100
0000
0100
1000
0010
0000
,
0100
0000
0000
0000
0010
0000
1000
0000
0001
0000
0010
0000
0001
0000
0010
0000
0100
0000
1000
0000
0100
0000
1000
0000
0001
0000
0000
0000
0100
0010
0100
0000
,
0001
1000
0100
0010
0001
1000
0001
0100
0010
1000
0001
1000
0100
0010
0001
1000
,
0100
1000
0010
0100
0001
1000
0001
0010
0100
1000
0001
1000
0010
0100
0001
1000
,
0100
1000
0001
0100
0001
0010
0001
1000
0010
0100
0001
0010
0100
1000
0010
0100
,
0001
1000
0010
1000
0100
1000
0001
0100
0010
1000
0100
0010
0001
0100
0010
1000
,
0001
0010
0100
1000
0001
0100
0010
1000
0001
0010
0100
1000
0001
1000
0010
0100
,
0001
0100
0010
1000
0001
1000
0100
0010
0001
0100
0010
1000
0001
0010
0100
1000
,
0001
1000
0100
1000
0001
0100
0001
1000
0010
0100
0010
1000
0100
0010
0100
1000
,
0001
1000
0010
1000
0M01
0010
0001
1000
010M
0010
010M
1000
001M
0100
001M
1000
,
0002
0000
0003
0000
;

//---------------dance-single - Rikame----------------
#NOTES:
     dance-single:
     Rikame:
     Beginner:
     1:
     0.106,0.109,0.016,0.016,0.000:
0000
0000
0000
0000
,
0000
0000
0000
0000
,
0000
0000
0000
0000
,
0000
0000
0000
0000
,
0000
0000
0000
0000
,
0000
0000
0000
0000
,
0000
0000
0000
0000
,
0000
0000
0000
0000
,
0001
0000
0000
0000
,
1000
0000
0000
0000
,
0001
0000
0000
0000
,
1000
0000
0000
0000
,
0001
0000
0000
0000
,
1000
0000
0000
0000
,
0001
0000
0000
0000
,
1000
0000
0000
0000
,
0100
0000
0000
0000
,
0010
0000
0000
0000
,
0100
0000
0000
0000
,
0010
0000
0000
0000
,
0001
0000
0000
0000
,
0100
0000
0000
0000
,
0001
0000
0000
0000
,
0100
0000
0100
0000
,
1001
0000
0000
0000
,
0000
0000
1000
0000
,
0000
0000
0010
0000
,
0000
0000
1000
0000
,
0000
0000
0100
0000
,
0000
0000
0010
0000
,
0000
0000
0001
0000
,
0000
0000
0100
0000
,
0001
0000
0000
0000
,
1000
0000
0000
0000
,
0010
0000
0000
0000
,
0100
0000
0000
0000
,
0001
0000
0000
0000
,
0001
0000
0000
0000
,
2000
0000
0000
0000
,
0000
0000
3000
0000
,
0001
0000
0000
0000
,
0100
0000
0000
0000
,
0001
0000
0000
0000
,
1000
0000
1000
0000
,
1000
0000
0000
0000
,
0100
0000
0000
0000
,
0010
0000
0000
0000
,
0001
0000
0001
0000
,
0001
0000
0000
0000
,
0010
0000
0000
0000
,
0001
0000
0000
0000
,
0100
0000
0100
0000
,
0100
0000
0000
0000
,
0010
0000
0000
0000
,
1000
0000
0000
0000
,
0001
0000
0001
0000
,
0001
0000
0000
0000
,
0010
0000
0000
0000
,
0100
0000
0000
0000
,
1000
0000
0000
0000
,
0001
0000
0000
0000
,
0100
0000
0000
0000
,
0010
0000
0000
0000
,
1000
0000
0000
0000
,
0100
0000
0000
0000
,
0010
0000
0000
0000
,
0001
0000
0000
0000
,
0100
0000
0000
0000
,
0001
0000
0000
0000
,
1000
0000
0000
0000
,
0010
0000
0000
0000
,
0100
0000
0000
0000
,
1001
0000
0000
0000
,
0001
0000
0000
0000
,
0100
0000
0000
0000
,
0010
0000
0010
0000
,
0010
0000
0000
0000
,
1000
0000
0000
0000
,
0100
0000
0000
0000
,
0010
0000
0010
0000
,
0010
0000
0000
0000
,
0001
0000
0000
0000
,
0100
0000
0000
0000
,
0010
0000
0000
0000
,
1000
0000
0000
0000
,
0100
0000
0000
0000
,
0010
0000
0000
0000
,
0002
0000
0000
0000
,
0003
0000
0000
0000
;

//---------------dance-single - Rikame----------------
#NOTES:
     dance-single:
     Rikame:
     Easy:
     3:
     0.219,0.254,0.000,0.025,0.000:
0000
0000
0000
0000
,
0000
0000
0000
0000
,
0000
0000
0000
0000
,
0000
0000
0000
0000
,
0000
0000
0000
0000
,
0000
0000
0000
0000
,
0000
0000
0000
0000
,
0000
0000
0000
0000
,
0001
0000
0000
0000
,
0100
0000
0000
0000
,
0010
0000
0000
0000
,
1000
0000
0000
0000
,
0001
0000
0000
0000
,
1000
0000
0000
0000
,
0100
0000
0000
0000
,
0010
0000
0010
0000
,
0001
0000
0000
0000
,
1000
0000
0000
0000
,
0010
0000
0000
0000
,
0100
0000
0000
0000
,
0001
0000
0000
0000
,
1000
0000
0000
0000
,
0001
0000
0000
0000
,
0010
0000
0010
0000
,
0100
0000
0000
0000
,
0000
0000
1000
0001
,
1000
0000
0001
0100
,
0001
0000
0100
0010
,
0100
0000
0010
1000
,
0010
0000
1000
0001
,
1000
0000
0001
0010
,
0001
0000
0010
0100
,
0010
0000
0001
1000
,
0001
0000
1000
0100
,
1000
0000
0001
0010
,
0001
0000
0000
0001
0000
0000
0000
0000
,
1000
0000
0010
0000
,
0100
0000
0001
0000
,
0020
0000
0000
0000
,
0000
0200
0030
0000
,
1300
0001
0010
0000
,
0001
1000
0100
0000
,
1000
0010
0100
0000
,
0001
0100
0010
1000
,
0001
0000
0100
0001
,
1000
0000
0100
1000
,
0001
0000
0010
0100
,
1000
0100
0010
0001
,
1000
0000
0010
0100
,
0001
0000
0010
0100
,
1000
0000
0001
0100
,
0010
1000
0010
0100
,
0001
0000
0010
0001
,
1000
0000
0010
0100
,
0001
0000
0010
0100
,
1000
0001
0100
0010
,
1000
0000
0001
0000
,
0010
0000
0100
0000
,
0010
0000
0001
0000
,
0100
0000
0010
0000
,
1000
0000
0100
0000
,
0010
0000
0001
0000
,
0100
0000
0001
0000
,
1000
0000
0010
0000
,
0100
0000
0001
1000
,
0001
0000
0010
0001
,
0010
0000
0100
1000
,
0100
0000
1000
0001
,
1000
0000
0010
1000
,
0010
0000
0100
0001
,
0100
0000
0001
1000
,
0001
0000
0010
0100
,
0010
0000
0001
0100
,
0010
0000
1000
0001
,
0010
0000
0001
0100
,
0010
1000
0001
0100
,
0010
0000
0100
0001
,
1000
0000
0100
1000
,
0001
0000
0010
0100
,
1000
0100
0010
0001
,
1000
0000
0000
0000
,
0010
0000
0000
0000
,
0100
0000
0000
0000
,
0010
0000
0000
0000
,
1000
0000
0000
0000
,
0001
0000
0000
0000
,
0010
0000
0000
0000
,
0200
0000
0000
0000
,
1300
0000
0000
0000
;

//---------------dance-single - Rikame----------------
#NOTES:
     dance-single:
     Rikame:
     Medium:
     7:
     0.460,0.580,0.041,0.025,0.000:
0000
0000
0000
0000
,
0000
0000
0000
0000
,
0000
0000
0000
0000
,
0000
0000
0000
0000
,
0000
0000
0000
0000
,
0000
0000
0000
0000
,
0000
0000
0000
0000
,
0000
0000
0000
0000
,
0001
0100
0010
0100
,
0001
1000
0100
1000
,
0010
0100
0001
0100
,
0010
1000
0001
1000
,
0100
0010
0001
0010
,
0100
1000
0001
1000
,
0010
0100
0001
0100
,
0010
1000
0001
0010
,
0100
1000
0100
0010
,
0001
1000
0001
0100
,
0010
1000
0010
0100
,
0001
0010
0001
1000
,
0100
0010
0100
1000
,
0001
0100
0001
1000
,
0010
0100
0010
1000
,
0001
0010
0100
1000
,
0001
0000
0000
0000
0000
0100
0000
0100
,
0000
0100
0010
1000
0000
0001
0000
0001
,
0000
0001
0010
0100
0000
1000
0000
1000
,
0000
1000
0010
0100
0000
0001
0000
0001
,
0000
0001
1000
0100
0000
0010
0000
0010
,
0000
0010
0001
0100
0000
0010
0000
0010
,
0000
0010
1000
0001
0000
0010
0000
0010
,
0000
0010
0100
1000
0000
0001
0000
0001
,
0100
0010
1000
0100
0010
0000
0010
0000
,
0001
0100
0010
1000
0100
0000
0100
0000
,
0010
0001
0010
0100
1000
0000
1000
0000
,
0101
0000
0000
1010
0000
0000
0000
0000
,
1001
1000
0100
0010
,
0001
0100
0010
1000
,
0002
0000
0000
0000
,
0000
0000
2000
0000
0000
0000
0000
3003
,
1001
0000
0000
0000
1000
0100
0010
0100
,
1000
0000
1000
0000
0010
1000
0001
1000
,
0100
0000
0100
0000
0010
0001
1000
0001
,
0010
0000
0010
0000
0100
1000
0010
1000
,
0100
0000
0100
0000
1000
0001
0100
0001
,
1000
0000
1000
0000
0100
0010
0001
1000
,
0010
0000
0010
0000
0100
0001
1000
0001
,
0100
0000
0001
0000
0010
0001
0100
0001
,
0010
0000
0100
0000
1000
0010
0100
0010
,
1000
0000
1000
0000
0100
0010
0001
1000
,
0010
0000
0010
0000
0100
0001
1000
0001
,
0100
0000
0100
0000
0010
1000
0100
1000
,
0010
0000
0010
0000
0100
0010
1000
0010
,
0100
0000
0100
0000
0010
1000
0001
1000
,
0100
0000
0100
0000
0010
0100
1000
0100
,
0010
0000
0001
0000
0100
0001
0010
0001
,
0100
0010
0000
0010
0000
0010
0000
1000
,
0000
0010
0000
0010
0000
0010
0000
0100
,
0000
0001
0000
0001
0000
0001
0000
0010
,
0000
0001
0000
0001
0000
1000
0000
0010
,
0000
0100
0000
0100
0000
0100
0000
0001
,
0000
0100
0000
0100
0000
0100
0000
0010
,
0000
1000
0000
1000
0000
1000
0000
0100
,
0000
0010
0000
0010
0000
0001
1000
0010
,
0100
0001
0000
0001
0000
0001
0000
0010
,
0000
0100
0000
0100
0000
0100
0000
1000
,
0000
0001
0000
0001
0000
0001
0000
0100
,
0000
0010
0000
0010
0000
1000
0000
0100
,
0000
0010
0000
0010
0000
0010
0000
0001
,
0000
0100
0000
0100
0000
0100
0000
0010
,
1000
0001
1000
0001
0010
0100
0010
0100
,
1000
0010
1000
0010
0100
0001
0100
0001
,
1000
0000
0100
0000
0010
0001
0100
0010
,
1000
0000
0100
0000
0010
0001
1000
0010
,
0100
0000
0001
0000
0010
0100
1000
0100
,
0010
0000
0001
0000
0100
0010
1000
0100
,
0010
0000
0001
0000
0100
0001
1000
0010
,
0100
0000
0001
0000
0010
0100
1000
0001
,
0100
0000
0010
0000
1000
0100
0010
0001
,
1000
0000
0010
0000
0100
0001
0010
0001
,
1000
0001
0100
0001
,
1000
0010
1000
0100
,
0010
0001
1000
0010
,
0100
0001
1000
0100
,
0010
0001
0100
0010
,
1000
0001
0010
0100
,
1000
0010
0100
0001
,
2000
0100
0001
3010
,
1001
0000
0000
0000
;

//---------------dance-single - Rikame----------------
#NOTES:
     dance-single:
     Rikame:
     Hard:
     10:
     0.959,0.906,0.140,0.049,0.684:
0000
0000
0000
0000
,
0000
0000
0000
0000
,
0000
0000
0000
0000
,
0000
0000
0000
0000
,
0000
0000
0000
0000
,
0000
0000
0000
0000
,
0000
0000
0000
0000
,
0000
0000
0000
0000
,
0001
0010
0001
0100
0010
0001
0010
0100
,
0001
1000
0100
1000
0010
0001
0010
1000
,
0100
0010
0100
1000
0010
0001
0010
1000
,
0001
0100
0001
1000
0010
0001
0010
1000
,
0001
0100
0001
1000
0100
0001
0100
1000
,
0010
0100
0010
1000
0100
0001
0100
1000
,
0001
0100
0001
0010
0100
0001
0100
0010
,
0001
0100
0001
1000
0100
0001
0100
1000
,
0010
1000
0001
0010
1000
0010
0001
1000
,
0001
1000
0010
0100
1000
0100
0010
1000
,
0001
0100
0001
0010
1000
0010
0001
0100
,
0001
1000
0010
0100
1000
0100
0010
1000
,
0001
0010
0001
0100
1000
0100
0001
1000
,
0100
1000
0001
0010
1000
0010
0001
1000
,
0010
1000
0001
0100
1000
0100
0001
1000
,
0100
0000
0010
0000
1000
0000
0010
0000
0100
0000
1000
0000
0010
0100
0010
0100
,
0001
1000
0001
0000
0010
0000
0100
0000
1000
0001
1000
0000
0100
1000
0100
0000
,
1000
0010
1000
0000
0100
0000
0010
0000
0001
0100
0001
0000
1000
0010
1000
0000
,
0100
1000
0100
0000
0010
0000
0001
0000
0100
0010
0100
0000
0001
0100
0001
0000
,
0010
0100
0010
0000
0001
0000
1000
0000
0100
0010
0100
0000
0010
0001
0010
0000
,
0001
0100
0001
0000
1000
0000
0010
0000
0100
0001
0100
0000
0001
1000
0001
0000
,
0010
0001
0010
0000
0100
0000
1000
0000
0010
1000
0010
0000
0100
0010
0100
0000
,
0001
0010
0001
0000
1000
0000
0100
0000
0010
0001
0010
0000
0001
1000
0001
0000
,
0100
0010
0100
0000
0001
0000
0010
0000
0100
1000
0100
0000
0010
0001
0010
0000
,
0001
1000
0001
0000
0100
0000
0010
0000
1000
0100
1000
0000
0001
0010
0001
0000
,
0010
0100
0010
0000
0001
0000
0100
0000
0010
1000
0010
0000
0100
0001
0100
0000
,
0001
1000
0001
0000
0010
0000
0100
0000
1000
0010
1000
0000
0001
0100
0001
0000
,
0100
0010
0100
0000
0001
0000
1000
0000
0100
1000
0100
0000
1000
0001
1000
0000
,
1010
0010
0100
0001
1000
0100
0010
0001
,
0100
0010
1000
0001
0010
0100
1000
0010
,
0100
0001
0100
0001
0100
0001
0100
0001
1000
0100
1000
0100
1000
0100
1000
0100
,
0040
0000
0000
0000
,
0031
1000
0001
0000
0100
0000
1000
0000
0100
0010
0100
0000
0001
0100
0001
0000
,
1000
0001
1000
0000
0100
0000
0010
0000
0001
0100
0001
1000
0010
0100
0010
1000
,
0100
0010
0001
0000
0100
0000
1000
0000
0100
0001
0100
0000
0001
1000
0001
0000
,
0010
0000
0001
0100
0001
1000
0100
1000
0001
0010
0001
0100
0010
0000
2000
0000
,
3001
0100
0001
0000
0010
0000
1000
0000
0010
0100
0010
0000
0001
0010
0001
0000
,
1000
0001
1000
0000
0010
0000
0100
0000
0001
0010
0001
1000
0100
0010
0100
1000
,
0010
0100
0001
0000
0010
0000
1000
0000
0010
0001
0010
0000
0001
1000
0001
0000
,
0100
0000
0001
0010
0001
1000
0010
1000
0001
0100
0001
0010
0100
0000
2000
0000
,
3001
0100
0001
0000
0010
0000
1000
0000
0010
0100
0010
0000
0100
1000
0100
0000
,
1000
0001
1000
0000
0010
0000
0001
0000
0010
1000
0001
1000
0100
0010
0001
1000
,
0001
0100
0010
0000
0100
0000
1000
0000
0100
0001
0100
0000
0001
1000
0001
0000
,
0010
0000
0100
1000
0001
1000
0010
0100
0001
1000
0001
0010
0100
0000
2000
0000
,
3001
0010
0001
0000
0100
0000
1000
0000
0100
0010
0100
0000
0010
1000
0010
0000
,
1000
0001
1000
0000
0100
0000
0001
0000
0100
0010
0001
1000
0001
0100
0010
1000
,
0001
1000
0100
0000
0010
0000
1000
0000
0010
0001
0010
0000
0100
0010
0100
0000
,
1000
0000
0001
0100
0001
1000
0100
1000
0010
0100
0010
1000
0001
0000
0020
0000
,
0130
1000
1001
0010
0100
1000
1001
0001
,
0100
0010
1001
0001
0100
0010
1001
1000
,
0100
0010
0101
1000
0100
0010
0101
1000
,
0001
0100
1010
1000
0001
0100
1010
1000
,
0001
0010
0110
1000
0001
0010
0110
1000
,
0001
0010
1100
1000
0001
0010
1100
1000
,
0001
0100
0110
1000
0001
0100
0110
1000
,
0100
0010
1100
1000
0100
0010
1001
0100
,
1000
0001
1000
0000
0010
0000
0100
0000
0001
1000
0100
0000
1000
0001
0010
0000
,
0001
1000
0100
0000
0010
0000
0001
0000
1000
0010
0100
0000
0001
0100
0010
0000
,
1000
0010
0100
0000
0001
0000
1000
0000
0100
0010
0001
0000
0010
0100
1000
0000
,
0100
0010
0001
0000
1000
0000
0010
0000
0100
0001
1000
0000
0010
1000
0001
0000
,
0010
0001
1000
0000
0010
0000
0100
0000
0001
0010
0100
0000
1000
0100
0010
0000
,
0001
0010
0100
0000
1000
0000
0001
0000
0100
0010
1000
0000
0010
0100
0001
0000
,
0100
0010
1000
0000
0001
0000
0010
0000
0100
1000
0010
0000
0100
0001
0010
0000
,
0100
1000
0010
0000
0100
0000
0001
0000
1000
0100
1000
0000
0001
0100
0001
0000
,
1000
0001
1000
0000
0100
0000
0001
0000
0100
0010
0100
0000
1000
0100
1000
0000
,
0001
1000
0001
0000
0100
0000
0010
0000
1000
0100
1000
0001
0010
0100
0010
0001
,
0100
0010
1000
0000
0100
0000
0001
0000
0100
1000
0100
0000
1000
0001
1000
0000
,
0010
0000
1000
0100
1000
0001
0100
0001
1000
0010
1000
0100
0010
0000
0002
0000
,
1003
0010
1000
0000
0100
0000
0001
0000
0100
0010
0100
0000
0010
0001
0010
0000
,
0001
1000
0001
0000
0100
0000
1000
0000
0100
0010
1000
0001
1000
0100
0010
0001
,
1000
0001
0100
0000
0010
0000
0001
0000
0010
1000
0010
0000
0100
0010
0100
0000
,
0001
0000
0010
0100
0010
0001
1000
0001
0100
0010
0100
0001
0010
0000
0200
0000
,
1300
0001
0100
0010
0100
1000
0100
0001
,
0010
0100
1000
0100
0010
0100
0001
0100
,
1000
0010
1000
0100
0001
0100
0010
0001
,
1000
0010
0100
1000
0100
0001
1000
0100
,
1000
0010
0001
0010
0100
0001
1000
0100
,
0010
0001
1000
0100
0010
1000
0010
0001
,
0100
0010
0100
0001
0010
1000
0010
0100
,
4000
0000
0000
0000
,
3000
0000
0000
0000
;
