#VERSION:0.81;
#TITLE:Vindicator;
#SUBTITLE:;
#ARTIST:void (Mournfinale);
#TITLETRANSLIT:;
#SUBTITLETRANSLIT:;
#ARTISTTRANSLIT:;
#GENRE:;
#ORIGIN:;
#CREDIT:;
#BANNER:[Zenius -Initial- vanisher] - Vindicator-bn.png;
#BACKGROUND:[Zenius -Initial- vanisher] - Vindicator-bg.png;
#PREVIEWVID:;
#JACKET:[Zenius -Initial- vanisher] - Vindicator-jacket.png;
#CDIMAGE:;
#DISCIMAGE:;
#LYRICSPATH:;
#CDTITLE:;
#MUSIC:[Zenius -Initial- vanisher] - Vindicator.mp3;
#OFFSET:-1.160000;
#SAMPLESTART:45.046001;
#SAMPLELENGTH:12.000000;
#SELECTABLE:YES;
#BPMS:0.000=175.000,
32.000=87.500,
80.000=175.000,
208.000=87.500,
224.000=175.000;
#STOPS:;
#DELAYS:;
#WARPS:;
#TIMESIGNATURES:0.000=4=4;
#TICKCOUNTS:0.000=4;
#COMBOS:0.000=1;
#SPEEDS:0.000=1.000=0.000=0;
#SCROLLS:0.000=1.000;
#FAKES:;
#LABELS:0.000=Song Start;
#BGCHANGES:0.000=[Zenius -Initial- vanisher] - Vindicator.avi=1.000=1=0=1=SongBgWithMovieViz==CrossFade==,
99999=-nosongbg-=1.000=0=0=0 // don't automatically add -songbackground-
;
#KEYSOUNDS:;
#ATTACKS:
;

//---------------dance-single - ----------------
#NOTEDATA:;
#CHARTNAME:;
#STEPSTYPE:dance-single;
#DESCRIPTION:;
#CHARTSTYLE:;
#DIFFICULTY:Beginner;
#METER:2;
#RADARVALUES:0.140948,0.143705,0.094374,0.068635,0.000000,96.000000,11.000000,8.000000,0.000000,0.000000,0.000000,0.000000,0.000000,0.140948,0.143705,0.094374,0.068635,0.000000,96.000000,11.000000,8.000000,0.000000,0.000000,0.000000,0.000000,0.000000;
#CREDIT:;
#NOTES:
// measure 0
0000
0000
0000
0000
,  // measure 1
0000
0000
0000
0000
,  // measure 2
0000
0000
0000
0000
,  // measure 3
0000
0000
0000
0000
,  // measure 4
0001
0000
0000
0000
,  // measure 5
0001
0000
0000
0000
,  // measure 6
1000
0000
0000
0000
,  // measure 7
1000
0000
0000
0000
,  // measure 8
0010
0000
0000
0000
,  // measure 9
1000
0000
0000
0000
,  // measure 10
0010
0000
0000
0000
,  // measure 11
1000
0000
0000
0000
,  // measure 12
0001
0000
0001
0000
,  // measure 13
0001
0000
0001
0000
,  // measure 14
0100
0000
0100
0000
,  // measure 15
0100
0000
0100
0000
,  // measure 16
0010
0000
0010
0000
,  // measure 17
0010
0000
0010
0000
,  // measure 18
1000
0000
1000
0000
,  // measure 19
1000
0000
1000
0000
,  // measure 20
0001
0000
0001
0000
,  // measure 21
0100
0000
0000
0000
,  // measure 22
0001
0000
0001
0000
,  // measure 23
0100
0000
0000
0000
,  // measure 24
0100
0000
0100
0000
,  // measure 25
0001
0000
0000
0000
,  // measure 26
0100
0000
0100
0000
,  // measure 27
0010
0000
0010
0000
,  // measure 28
0000
0000
1000
0000
,  // measure 29
1000
0000
0000
0000
,  // measure 30
0010
0000
0010
0000
,  // measure 31
1000
0000
0000
0000
,  // measure 32
0010
0000
0010
0000
,  // measure 33
0100
0000
0100
0000
,  // measure 34
0010
0000
0010
0000
,  // measure 35
1001
0000
0001
0000
,  // measure 36
2000
0000
3000
0000
,  // measure 37
0002
0000
0003
0000
,  // measure 38
2000
0000
3000
0000
,  // measure 39
0002
0000
0003
0000
,  // measure 40
0000
0000
0101
0000
,  // measure 41
2000
0000
3000
0000
,  // measure 42
0020
0000
0030
0000
,  // measure 43
0200
0000
0300
0000
,  // measure 44
0101
0000
0000
0000
,  // measure 45
1001
0000
0000
0000
,  // measure 46
1010
0000
1000
0000
,  // measure 47
0010
0000
0000
0000
,  // measure 48
0001
0000
0001
0000
,  // measure 49
1000
0000
1000
0000
,  // measure 50
1001
0000
0001
0000
,  // measure 51
1000
0000
1000
0000
,  // measure 52
1001
0000
0010
0000
,  // measure 53
0100
0000
0001
0000
,  // measure 54
1000
0000
0010
0000
,  // measure 55
0100
0100
0100
0000
,  // measure 56
1001
0000
0001
0000
,  // measure 57
0100
0000
0000
0000
,  // measure 58
1001
0000
0001
0000
,  // measure 59
0100
0000
0000
0000
,  // measure 60
1001
0000
1000
0000
,  // measure 61
0010
0000
0010
0000
,  // measure 62
1000
0000
1000
0000
,  // measure 63
0010
0000
0010
0000
,  // measure 64
0110
0000
0000
0000
,  // measure 65
0000
0200
0000
0000
,  // measure 66
0000
0000
0000
0000
,  // measure 67
0300
0000
0000
0000
;

//---------------dance-single - ----------------
#NOTEDATA:;
#CHARTNAME:;
#STEPSTYPE:dance-single;
#DESCRIPTION:;
#CHARTSTYLE:;
#DIFFICULTY:Easy;
#METER:4;
#RADARVALUES:0.235321,0.287411,0.188747,0.223065,0.000000,144.000000,22.000000,26.000000,0.000000,0.000000,0.000000,0.000000,0.000000,0.235321,0.287411,0.188747,0.223065,0.000000,144.000000,22.000000,26.000000,0.000000,0.000000,0.000000,0.000000,0.000000;
#CREDIT:;
#NOTES:
0000
0000
0000
0000
,
0000
0000
0000
0000
,
0000
0000
0000
0000
,
0000
0000
0000
0000
,
0001
0000
0001
0000
,
1000
0000
1000
0000
,
0001
0000
0001
0000
,
1001
0000
1001
0000
,
0010
0100
0020
0030
,
1000
0010
2000
3000
,
0010
1000
0020
0030
,
0100
0001
0200
0300
,
0101
0000
0001
0000
,
1001
0000
0001
0000
,
1001
0000
1000
0000
,
1010
0000
1000
0000
,
1010
0001
0100
0010
,
1010
0100
0010
1000
,
1001
0010
0100
1000
,
1001
0100
0020
0030
,
1000
0001
1000
0000
,
0020
0000
0030
0000
,
0001
1000
0001
0000
,
0200
0000
0300
0000
,
0010
1000
0010
0000
,
0200
0000
0300
0000
,
0001
0100
0001
0000
,
0200
0300
0020
0030
,
0000
1000
0010
0000
,
2000
0000
3000
0000
,
0001
0010
0001
0000
,
0200
0000
0300
0000
,
0010
0100
0010
0000
,
0100
0000
0100
0000
,
0110
0000
0110
0000
,
1001
0000
0001
0000
,
2000
0000
3100
0000
,
0002
0000
0103
0000
,
2000
0000
3100
0000
,
0002
0000
0103
0000
,
0000
1100
0100
0000
,
0020
0000
0130
0000
,
0200
0000
0301
0000
,
0002
0000
1003
1000
,
1001
0000
0010
0000
,
0001
0000
0100
0000
,
1010
0000
0010
0000
,
0100
0000
0001
0000
,
1000
1000
0010
0000
,
1000
0000
0010
0010
,
1010
0000
0100
0000
,
0001
0000
1000
0000
,
1001
1000
0020
0030
,
0100
0001
2000
3000
,
0010
0100
0002
0003
,
1000
0001
0200
0300
,
1001
0000
0001
0000
,
0200
0000
0300
0000
,
1001
0000
1000
0000
,
0020
0000
0030
0000
,
1010
1000
1000
0000
,
0010
0010
0010
0000
,
1000
1000
1000
0000
,
0001
0001
0001
0000
,
0110
0000
0010
0000
,
0000
0200
0000
0000
,
0000
0000
0000
0000
,
0300
0000
0000
0000
;

//---------------dance-single - ----------------
#NOTEDATA:;
#CHARTNAME:;
#STEPSTYPE:dance-single;
#DESCRIPTION:;
#CHARTSTYLE:;
#DIFFICULTY:Medium;
#METER:7;
#RADARVALUES:0.449807,0.517339,0.240224,0.205906,0.072925,315.000000,28.000000,24.000000,0.000000,0.000000,0.000000,0.000000,0.000000,0.449807,0.517339,0.240224,0.205906,0.072925,315.000000,28.000000,24.000000,0.000000,0.000000,0.000000,0.000000,0.000000;
#CREDIT:;
#NOTES:
0000
0000
0000
0000
,
0000
0000
0000
0000
,
0000
0000
0000
0000
,
0000
0000
0000
0000
,
0001
1000
0010
0100
,
0001
1000
0010
0100
,
0001
1000
0001
1000
,
0001
0000
0000
0010
0000
0000
0100
0000
1001
0000
0000
0000
0000
0000
0000
0000
,
0001
0100
0010
0000
0020
0000
0130
0000
,
1000
0010
0100
0000
0200
0000
0310
0000
,
0010
1000
0100
0000
0200
0000
0310
0000
,
0100
0010
0001
0000
0002
0000
1003
0000
,
1001
0100
0100
0000
0001
0100
0100
0000
,
1001
0010
0010
0000
1000
0010
0010
0000
,
1001
0010
0100
0000
1000
0010
1000
0000
,
1010
0001
0100
0000
0010
0100
0001
0000
,
1001
0000
0010
0000
0000
0100
0000
0000
0010
0000
0100
0000
0000
1000
0000
0000
,
1010
0000
0100
0000
0000
0010
0000
0000
0001
0000
1000
0000
0000
0100
0000
0000
,
1001
0000
0010
0000
0000
0001
0000
0000
1000
0000
0010
0000
0000
0100
0000
0000
,
0001
0000
1000
0000
0000
0100
0000
0000
0020
0000
0000
0000
0130
0000
0100
0000
,
1000
0000
0001
1000
0001
0000
0001
0000
,
0020
0100
0100
0130
,
1000
0000
0001
1000
0001
0000
1000
0000
,
0200
0010
0010
0310
,
0001
0000
1000
0010
1000
0000
1000
0000
,
0002
0013
2000
3010
,
0001
0000
0001
0100
0001
0000
0001
0000
,
0200
0000
0320
0000
,
0030
0000
1000
0010
1000
0000
1000
0000
,
2000
0010
0010
3010
,
0100
0000
0010
1000
0010
0000
0100
0000
,
0002
0010
0010
0013
,
0001
0100
0001
0000
1000
0010
1000
0000
,
0010
0100
0001
0000
0100
0010
1000
0000
,
0010
0000
0100
0000
0010
0000
0100
0000
0010
0000
0000
1000
0000
0000
0001
0000
,
1002
0003
2000
3000
,
1000
0100
1000
0100
0010
0000
0001
0010
,
0001
0010
0100
0000
1100
0000
1001
0000
,
0001
0100
0010
1000
0010
0000
0100
0001
,
0100
0010
0100
0000
0110
0000
1010
0000
,
1000
0000
1001
0000
0001
0010
0001
0000
,
1000
0010
1000
0010
0100
0000
0110
0000
,
0001
0010
0100
0010
0001
0000
1000
0100
,
0010
0100
1000
0000
0110
0000
0101
0000
,
1001
0000
0000
0000
0000
0000
0101
0000
0000
0000
0000
1001
0000
0000
0000
0000
,
0000
1010
0000
0000
0100
1000
0100
0000
,
1010
0010
1000
0100
0010
0000
0010
0100
,
1000
0001
0010
0000
0001
1000
0001
0000
,
1000
0010
0001
0000
0001
0100
1000
0000
,
1000
0100
0001
0000
0001
0010
1000
0000
,
1010
0000
0000
0110
0000
0000
0101
0000
,
0001
0010
1000
0001
0100
0000
2000
0000
,
3001
0100
0010
0000
0020
0000
0130
0000
,
0100
0010
1000
0000
0002
0000
0103
0000
,
0010
1000
0100
1000
0001
0010
0001
0100
,
1000
0000
0001
0000
1000
0000
0001
0000
1000
0000
0000
0010
0000
0000
0100
0000
0002
0000
0000
0000
0000
0000
0000
0000
0013
0000
0000
0000
0000
0000
0000
0000
,
1001
0000
0001
0010
1000
0000
0001
0000
,
0200
0001
1000
0301
,
0001
0000
0001
0100
1000
0000
0001
0000
,
0020
0100
0001
0130
,
1000
0000
0100
0000
1000
0000
0010
0000
0000
0010
0000
0000
,
0200
0310
0020
0130
,
1000
0000
0100
0000
0001
0000
0010
0000
1000
0000
0000
1000
0000
0000
1000
0000
,
0001
0001
0101
0100
,
0110
0000
0010
0100
0010
0000
0000
1000
,
0000
0002
0000
0000
,
0000
0000
0000
0000
,
0003
0000
0000
0000
;

//---------------dance-single - ----------------
#NOTEDATA:;
#CHARTNAME:;
#STEPSTYPE:dance-single;
#DESCRIPTION:;
#CHARTSTYLE:;
#DIFFICULTY:Hard;
#METER:9;
#RADARVALUES:0.679000,0.804750,0.334597,0.248803,0.433261,486.000000,39.000000,29.000000,0.000000,0.000000,0.000000,0.000000,0.000000,0.679000,0.804750,0.334597,0.248803,0.433261,486.000000,39.000000,29.000000,0.000000,0.000000,0.000000,0.000000,0.000000;
#CREDIT:;
#NOTES:
0000
0000
0000
0000
,
0000
0000
0000
0000
,
0000
0000
0000
0000
,
0000
0000
0000
0000
,
0100
0000
0001
0100
0000
0100
0010
0000
,
1000
0000
0010
0000
0100
0000
0010
0100
,
0001
0100
0001
0100
0010
1000
0010
1000
,
1010
0000
0000
0110
0000
0000
0101
0000
1001
0000
0000
0000
0000
0000
0000
0000
,
0001
0100
1000
0100
0010
0000
0000
0100
0020
0000
0000
0000
0130
0000
0000
0000
,
1000
0010
0100
0001
1000
0000
0000
0010
2000
0000
0000
0000
3100
0000
0000
0000
,
0010
0001
1000
0100
0010
0000
0000
0100
0020
0000
0000
0000
0130
0000
0000
0000
,
0001
0100
1000
0010
0100
0000
0000
0001
0200
0000
0000
0000
0310
0000
0100
0000
,
1010
0000
0000
0100
0000
0001
0100
0000
0010
1000
0000
0000
0100
0000
0000
0010
0000
0100
0010
0000
0001
1000
0000
0000
,
1001
0000
0000
0010
0000
1000
0100
0000
0010
0001
0000
0000
1000
0000
0000
0001
0000
0010
0100
0000
1000
0001
0000
0000
,
1001
0000
0000
1000
0000
0001
0100
0000
0010
1000
0000
0000
0010
0000
0000
0100
0000
0001
0010
0000
0100
0010
0000
0000
,
1010
0000
0000
1000
0000
0001
0010
0000
0100
0010
0000
0000
0001
0000
0000
1000
0000
0001
0100
0000
0010
1000
0000
0000
,
1010
0000
0010
0100
0010
1000
0010
0000
0100
0000
0001
0010
0100
0010
0001
0000
,
1010
0000
0100
0001
0100
0010
0100
0000
0001
0000
0010
0100
1000
0100
0010
0000
,
1001
0000
0001
1000
0010
1000
0010
0000
0100
0000
0001
0100
1000
0100
0010
0000
,
1000
0000
0010
1000
0010
0100
0001
0000
0020
0000
0000
0000
0031
0010
0100
1000
,
0100
0010
0001
1000
0002
0000
0013
0100
,
0020
0001
1000
0130
,
0010
1000
0100
1000
0002
0000
1003
0001
,
0200
0000
0000
0000
0310
0000
0000
0000
1010
0000
0000
0110
0000
0000
0101
0000
,
0100
0001
1000
0010
2000
0000
3001
0010
,
0200
0000
0310
0100
0010
0001
0100
0010
,
1000
0010
0100
0001
1000
0000
0001
0000
,
0200
0000
0000
0310
2000
0000
0001
0000
,
3000
0000
1001
0001
2000
0000
3010
0100
,
0002
1000
0010
0103
,
0001
1000
0010
1000
0002
0000
1003
0010
,
0200
0001
1000
0310
,
0010
1000
0010
1000
0001
0100
0001
0100
,
0010
0100
0010
0100
0010
1000
0010
1000
,
0010
0000
0001
0000
0010
0000
1000
0000
1001
0000
0000
1010
0000
0000
0101
0000
,
0002
0003
1001
1001
,
1000
0000
0001
0010
0001
0000
1000
0000
0010
0000
0100
0000
0001
0000
1000
0010
,
1000
0000
0100
0000
0010
0000
0100
0000
0001
0100
0010
0100
0001
0000
0100
0000
,
1000
0000
0010
0100
0010
0000
1000
0000
0001
0000
0010
0000
1000
0000
0010
0100
,
0010
0000
0000
0100
0000
0000
1000
0000
0000
0001
0000
0000
0010
0000
1000
0000
0001
0000
0100
0000
1000
0000
0001
0000
,
0010
0000
0001
0010
0001
0000
0010
0000
0100
0000
1000
0000
0001
0000
0100
0010
,
0100
0000
0010
0000
1000
0000
0001
0000
0100
0010
0001
0010
0100
0000
0001
0000
,
0100
0000
0010
1000
0010
0000
0100
0000
0001
0000
0010
0000
0100
0000
0001
0100
,
0001
0000
0000
0100
0000
0000
0010
0000
0000
1000
0000
0000
0100
0000
0010
0000
0001
0000
1000
0000
0010
0000
0100
0000
,
0101
0000
0001
1010
0000
1000
0101
0000
,
0001
0110
0000
1000
1001
0001
1010
1000
,
1001
0000
0010
0100
1000
0000
0100
0000
0010
0000
0100
0000
1000
0000
0001
0010
,
0100
0000
0000
1000
0000
0000
0001
0000
0000
0010
0000
0000
0001
0000
1000
0000
0010
0000
0100
0000
0000
0010
0000
0000
,
1000
0000
0001
0100
0001
0000
0100
0000
0010
0000
0001
0000
0010
0000
1000
0010
,
1000
0000
0001
0000
1000
0000
0010
0000
0001
0010
1000
0010
0100
0000
0010
0000
,
1010
0000
0000
0000
1000
0000
0101
0000
0000
0000
0010
0000
1100
0000
0010
0100
,
1000
0000
0000
0000
0000
0000
0001
0000
0000
0000
0000
0000
0100
0000
0000
0001
0000
0000
1000
0000
0000
0000
0000
0000
0001
0000
0000
0000
0010
0000
0000
0000
0100
0000
0000
0000
2000
0000
0000
0000
0000
0000
0000
0000
0000
0000
0000
0000
,
3001
0010
1000
0001
0100
0000
0000
0100
0020
0000
0000
0000
0130
0000
0000
0000
,
0100
0010
0001
1000
0010
0000
0000
0010
0200
0000
0000
0000
1300
0000
0000
0000
,
1000
0100
0001
0100
0010
0000
1000
0100
0010
0001
0010
0001
1000
0001
1000
0001
,
0100
0000
0001
0000
0100
0000
0001
0000
1001
0000
0000
1010
0000
0000
0101
0000
0200
0000
0000
0000
0000
0000
0000
0000
0310
0000
0000
0000
0000
0000
0000
0000
,
0010
0001
0010
1000
0002
0000
0013
0100
,
0020
1000
0100
0031
,
1000
0010
0001
0010
2000
0000
3001
0010
,
0200
0001
1000
0310
,
1000
0000
0010
0000
1000
0000
0001
0000
0100
0000
0001
0000
1000
0000
0000
0000
0000
0000
0100
0000
0000
0010
0000
0000
,
0002
0000
0103
0010
1000
0010
0001
0010
,
1000
0000
0100
0000
0001
0000
0100
0000
1100
0000
0000
0110
0000
0000
0011
0000
,
0001
1000
1001
0110
,
1000
0001
0100
0010
0100
0000
0000
0001
,
0000
2002
0000
0000
,
0000
0000
0000
0000
,
3003
0000
0000
0000
;
