#TITLE:Prove Them Wrong;
#SUBTITLE:;
#ARTIST:Virtual Riot;
#TITLETRANSLIT:;
#SUBTITLETRANSLIT:;
#ARTISTTRANSLIT:;
#GENRE:;
#CREDIT:;
#BANNER:[Zenius -Initial- vanisher] - Prove Them Wrong.png;
#BACKGROUND:[Zenius -Initial- vanisher] - Prove Them Wrong-bg.png;
#LYRICSPATH:;
#CDTITLE:cdtitle.png;
#MUSIC:[Zenius -Initial- vanisher] - Prove Them Wrong.mp3;
#OFFSET:-0.130000;
#SAMPLESTART:33.219433;
#SAMPLELENGTH:11.034481;
#SELECTABLE:YES;
#BPMS:0.000000=174.000000
,128.000000=87.000000
,160.000000=174.000000
,224.000000=87.000000
,256.000000=174.000000
;
#STOPS:
;
#BGCHANGES:;
#KEYSOUNDS:;
#ATTACKS:;

//---------------dance-single - ----------------
#NOTES:
     dance-single:
     :
     Challenge:
     11:
     0.815186,0.953132,0.585462,0.444951,0.644008,599.000000,75.000000,57.000000,78.000000,0.000000,0.000000,0.815186,0.953132,0.585462,0.444951,0.644008,599.000000,75.000000,57.000000,78.000000,0.000000,0.000000:
0000
0000
0000
0000
,
0000
0000
0000
0000
,
0000
0000
0000
0000
,
0000
0000
0000
0000
,
0001
0000
0100
0000
0010
0000
1000
0000
0000
0000
0001
0000
0010
MM0M
0010
0000
,
1000
0000
0100
0000
0001
0000
0100
0000
1000
0000
0010
0100
0001
0000
0010
0000
,
0001
0000
0100
0000
0010
0000
1000
0000
0000
0000
0001
0000
0100
M0MM
0100
0000
,
1000
1000
1000
1000
1010
0000
0101
0000
,
0001
0000
0010
0000
0100
0000
1000
0000
0000
0000
1000
0000
0010
MM0M
0010
0000
,
0001
0000
0100
0000
1000
0000
0100
0000
0001
0000
0001
1000
0100
0000
0100
0000
,
0010
0000
0001
0000
1000
0000
0001
0000
0000
0000
1000
0000
0100
M0MM
0100
0000
,
0101
0000
0000
0000
1001
0000
0000
0000
0100
1000
0001
1000
0100
0010
0001
1000
,
0001
0000
0100
0000
0010
0000
1000
0000
0000
0000
0001
0000
0010
MM0M
0010
0000
,
1000
0000
0100
0000
0001
0000
0100
0000
1000
0000
0010
0100
0001
0000
0001
0010
,
0100
0000
1000
0000
0001
0000
0100
0000
0000
0000
0001
0000
0010
MM0M
0010
1000
,
0100
0000
0100
0000
0100
0000
0100
0010
0001
0000
0000
0000
1010
0000
0000
0000
,
2100
0000
0000
0000
3001
0000
0100
0000
0000
0000
0100
0000
0001
1000
0100
1000
,
0002
0000
1003
0010
0200
0010
0320
0000
,
2030
0000
3001
0100
1000
0100
0001
0100
,
1002
0000
0000
0000
1003
0000
0100
1000
0001
0000
0100
0000
1000
0000
0100
0000
,
1002
0000
0000
0000
0013
0000
0100
0000
0000
0000
0100
0000
1000
0001
0100
0001
,
2000
0000
3010
0100
0002
0010
0023
0000
,
0230
0000
1300
1000
1000
1000
1010
0000
,
0201
0000
0000
0000
0301
0000
0001
0000
0001
0010
0100
0010
0001
1000
0100
1000
,
0001
0000
0100
0000
0001
0000
0000
0000
0001
0000
0100
0000
0001
1000
0100
0010
,
0001
0100
0001
0010
1000
0010
0001
0000
,
1002
0000
1003
0100
0001
0100
1000
0100
,
2001
0000
0000
0000
3001
0000
0100
0010
1000
0010
0100
0000
0001
0000
0100
0001
,
1000
0000
0100
0000
1000
0000
0000
0000
1000
0000
0100
0000
1000
0001
0100
0010
,
1000
0100
1000
0010
0001
0010
1000
0100
,
0120
0000
0000
0000
0031
0000
0001
0000
0001
0000
0011
0000
1001
0000
1000
0001
,
0200
0000
0000
0310
1000
0000
1200
0000
0000
0310
0001
0000
1001
0000
1000
0000
,
2002
0000
0000
0000
,
0000
0000
0000
3003
0011
2200
3300
1010
,
1002
0000
0M03
0002
0000
00M3
0001
0001
2000
0000
3M00
2000
0000
30M0
1000
1000
,
0020
0000
0M30
0020
0000
003M
0010
0010
0110
0000
2002
0000
3003
0000
1001
0000
,
0002
0000
0000
0000
0M03
00M0
200M
0000
0000
0000
300M
0M00
M010
0000
0100
0000
0002
0000
0000
0000
M003
0M00
002M
0000
0000
0000
M030
000M
01M0
0000
1000
0000
,
0002
0000
0000
0000
00M3
M000
020M
0000
0000
0000
M300
000M
0M10
0000
1000
0000
1001
0000
0000
0000
1010
0000
0000
0000
0110
0000
0000
0000
0101
0000
0000
0000
,
1002
0000
0000
0000
0M03
00M0
200M
0000
0000
0000
30M0
000M
M100
0000
0010
0000
0002
0000
0000
0000
00M3
0M00
200M
0000
0000
0000
3M00
00M0
M001
0000
0010
0000
,
0200
0000
0000
0000
030M
00M0
2M00
0000
0000
0000
30M0
0M00
M001
0000
0100
0000
0101
0000
0000
0000
1100
0000
0000
0000
0101
0000
0000
0000
1100
0000
0000
0000
,
1001
0001
0010
0001
0101
0000
1000
0001
,
1001
1000
0010
1000
1100
0000
0001
1000
,
1001
0001
0010
0001
0101
0000
1000
0001
,
1000
0100
1000
0100
0010
0100
1000
0001
0100
0000
0010
1000
0001
0000
0010
0000
,
0110
0100
1000
0010
0110
0000
1000
0010
,
0110
0100
0001
0010
0110
0000
0001
0010
,
0110
0100
1000
0010
0110
0000
1000
0010
,
0100
0001
0100
0010
1000
0000
0100
0000
0010
0001
1000
0001
0100
0000
0010
0000
,
1000
0000
0100
0010
0001
0010
0100
0000
1000
0100
0001
0100
1000
0000
0010
0000
,
1000
0000
0100
0010
0001
0010
0100
0000
1000
0100
0001
0100
1000
0000
0010
0000
,
1000
0000
0100
0010
0001
0010
0100
0000
1000
0100
0001
0100
1000
0000
0010
0000
,
1000
0100
1000
0100
0010
0100
1000
0001
0010
0000
0001
1000
0010
0000
0100
0000
,
0001
0000
0100
0010
1000
0010
0100
0000
0001
0100
1000
0100
0001
0000
0010
0000
,
0001
0000
0100
0010
1000
0010
0100
0000
0001
0100
1000
0100
0001
0000
0010
0000
,
0001
0000
0100
0010
1000
0010
0100
0000
0001
0100
1000
0100
0001
0000
0010
0000
,
0100
1000
0100
0010
0001
1000
0001
0100
0010
1000
0010
0000
1000
0001
1000
0001
,
2000
0000
0MMM
0000
3001
0010
0100
0010
0001
0010
0100
0010
0011
0000
1010
0000
,
1200
0000
M0MM
0000
0310
0010
0010
0001
1000
0010
0010
0100
0101
0000
1100
0000
,
2001
0000
0MMM
0000
3100
0010
0001
0010
0100
1000
0010
1000
1100
0010
0001
0000
,
0201
0000
0301
0100
1000
0100
1001
0000
1020
0000
1030
0100
0001
0100
1001
0000
,
0021
0000
MM0M
0000
0031
1000
0010
1000
0001
1000
0010
1000
1100
0000
0101
0000
,
0012
0000
MMM0
0000
1003
1000
1000
0010
0100
0001
0001
0010
0011
0000
0101
0000
,
1200
0000
M0MM
0000
0310
0100
1000
0100
0010
0001
0100
0001
1001
0100
1000
0000
,
1020
0000
1030
0100
0001
0100
1001
0000
1000
1000
0010
0010
0100
0100
0001
0001
,
1000
0000
0100
0000
0010
0000
0000
0000
0010
0000
0100
0000
1000
0001
0100
0001
,
0010
0100
1000
0010
0001
0010
1000
0000
,
2001
0000
3001
0100
1000
0100
0001
0100
,
1002
0000
0000
0000
1003
0000
0100
0010
0001
0010
0100
0000
1000
0000
0100
1000
,
0001
0000
0100
0000
0010
0000
0000
0000
0010
0000
0100
0000
0001
1000
0100
1000
,
0010
1000
0001
0010
1000
0010
0001
0100
,
0210
0000
0000
0000
0301
0000
0001
0000
0001
0000
0011
0000
1001
0000
1000
0001
,
0200
0000
0000
0310
1000
0000
1200
0000
0000
0310
0001
0000
1001
0000
1000
0000
,
2002
0000
0000
0000
,
0000
0000
0000
0000
,
3003
0000
0000
0000
;

//---------------dance-single - ----------------
#NOTES:
     dance-single:
     :
     Hard:
     9:
     0.646796,0.866483,0.249797,0.304440,0.277119,509.000000,32.000000,39.000000,9.000000,0.000000,0.000000,0.646796,0.866483,0.249797,0.304440,0.277119,509.000000,32.000000,39.000000,9.000000,0.000000,0.000000:
0000
0000
0000
0000
,
0000
0000
0000
0000
,
0000
0000
0000
0000
,
0000
0000
0000
0000
,
1000
0000
0010
0100
0000
0001
0010
0001
,
1000
0100
0010
0001
1000
0100
0001
0100
,
1000
0000
0010
1000
0000
0001
0010
0001
,
1000
0010
1000
0010
0100
0000
1001
0000
,
0001
0000
0100
0010
0000
1000
0001
1000
,
0100
0010
0100
1000
0001
0100
1000
0100
,
0001
0000
0010
0100
0000
1000
0001
1000
,
0010
0000
0010
0000
0100
0001
1000
0100
,
0010
0000
0001
1000
0000
0001
0010
0001
,
0100
0010
1000
0001
1000
0010
0001
0010
,
1000
0000
0000
0000
0010
0000
0100
0000
0000
0000
0001
0000
0010
0000
0001
1000
,
0001
1000
0001
1000
0010
0000
0110
0000
,
2001
0000
0010
3010
0000
1000
0001
0000
,
0201
0310
1200
0310
,
1002
0000
0013
0001
0010
0001
0010
0001
,
0201
0000
0000
0000
0310
0000
1000
0010
1000
0000
0010
0000
1000
0000
0010
0000
,
0210
0000
0001
0301
0000
1000
0010
0000
,
1020
0130
0021
0130
,
2001
0000
3010
0100
0001
1000
0010
0000
,
1002
0000
1003
0100
0001
0100
1000
0001
,
1000
0100
1000
0000
1000
0100
1000
0000
,
1000
0100
0010
0001
0100
0001
0010
0000
,
2001
0000
3010
1000
0010
1000
0010
1000
,
0201
0000
0000
0000
0301
0000
1000
0001
1000
0000
0001
0000
1000
0000
0001
1000
,
0010
1000
0010
0000
0010
1000
0010
0000
,
0010
1000
0100
0001
0100
1000
0010
0000
,
1002
0000
0013
0100
0010
0100
0010
0100
,
1001
0000
0000
0MM0
0001
0000
1000
0000
0000
0M0M
0010
0000
1000
0000
0100
0000
,
0220
0000
0000
0000
,
0000
0000
0000
0330
2000
0002
3000
0023
,
0031
0000
0000
0001
0000
0000
0100
0001
1000
0000
0000
1000
0000
0000
0100
1000
,
0001
0000
0000
0001
0000
0000
0100
0001
2000
0000
0200
0000
3000
0000
0320
0000
,
0031
0000
0010
0001
0000
0010
0001
0100
0010
0000
1000
0010
0000
1000
0100
0010
,
0001
0000
0010
0001
0000
0010
0100
1000
0010
0000
0100
0000
0010
0000
0100
0000
,
0001
0000
1000
0001
0000
1000
0001
0100
0010
0000
0100
0010
0000
0100
0010
1000
,
0100
0000
0010
0100
0000
0010
0001
1000
0010
0000
0010
0000
0010
0000
0010
0000
,
100M
0100
0010
0100
1000
0000
0100
0010
,
0001
0100
0010
0100
0001
0000
0100
0010
,
1000
0100
0010
0100
1000
0000
0100
0010
,
0001
0100
0010
0100
0010
0001
0010
1000
,
0001
0100
0010
0100
0001
0000
0100
0010
,
1000
0100
0010
0100
1000
0000
0100
0010
,
0001
0100
0010
0100
0001
0000
0100
0010
,
1000
0001
0010
0001
0100
0010
1000
0100
,
1000
0001
1000
0000
1000
0100
0001
0100
,
1000
0001
1000
0000
1000
0100
0001
0100
,
1000
0001
1000
0000
1000
0100
0001
0100
,
1000
0001
0010
1000
0010
0000
0001
0100
,
0001
1000
0001
0000
0001
0100
1000
0100
,
0001
1000
0001
0000
0001
0100
1000
0100
,
0001
1000
0001
0000
0001
0100
1000
0100
,
0001
0000
0010
0000
0001
0000
1000
0000
0010
0000
0100
0000
0001
1000
0001
1000
,
0002
0000
0000
0000
0103
0010
1000
0010
0100
0010
1000
0010
0210
0000
0301
0000
,
1002
0000
0000
0000
0013
0100
1000
0100
0001
0100
1000
0010
0200
0000
0310
0000
,
2001
0000
0000
0000
3010
0100
0001
0100
0010
1000
0100
0010
0001
0100
0010
0000
,
1002
0000
1003
0010
0100
0001
0010
0000
0120
0000
0031
0100
0010
1000
0100
0000
,
2001
0000
0000
0000
3100
0010
0001
0010
0100
0010
0001
0010
0210
0000
1300
0000
,
0102
0000
0000
0000
0103
0010
1000
0010
0001
0010
1000
0100
0020
0000
0031
0000
,
1002
0000
0000
0000
0013
0100
1000
0100
0010
0001
1000
0001
0100
0010
1000
0000
,
2001
0000
3001
0010
0100
1000
0010
0000
0010
1000
0100
1000
0010
1000
0100
0010
,
0001
0100
0010
0000
0010
0100
0001
0000
,
0001
0100
0010
1000
0100
0010
0001
0000
,
1002
0000
0013
0001
0010
0001
0010
0001
,
2100
0000
0000
0000
3001
0000
1000
0001
1000
0000
0001
0000
1000
0000
0001
0000
,
1000
0100
0010
0000
0010
0100
1000
0000
,
1000
0100
0010
0001
0100
1000
0100
0000
,
0102
0000
0103
0010
1000
0100
0010
0100
,
1001
0000
0000
0MM0
1000
0000
0001
0000
0000
M0M0
0001
0000
0100
0000
0010
0000
,
0220
0000
0000
0000
,
0000
0000
0000
0000
,
0330
0000
0000
0000
;

//---------------dance-single - ----------------
#NOTES:
     dance-single:
     :
     Medium:
     7:
     0.494018,0.606538,0.351277,0.273216,0.066352,363.000000,45.000000,35.000000,0.000000,0.000000,0.000000,0.494018,0.606538,0.351277,0.273216,0.066352,363.000000,45.000000,35.000000,0.000000,0.000000,0.000000:
0000
0000
0000
0000
,
0000
0000
0000
0000
,
0000
0000
0000
0000
,
0000
0000
0000
0000
,
1000
0000
0001
0000
0000
0010
0001
0010
,
0001
0000
0100
0000
0010
1000
0001
0000
,
1000
0000
0100
0000
0000
1000
0001
1000
,
0001
0001
0101
1010
,
0001
0000
1000
0000
0000
0100
0010
0100
,
0010
0000
0001
0000
0100
0010
1000
0000
,
0001
0000
1000
0000
0000
0010
0100
0010
,
0100
0000
0100
0000
0001
0010
0100
0000
,
1000
0000
0001
0000
0000
1000
0010
1000
,
0010
0000
0100
0000
0010
1000
0001
0000
,
0010
0000
0001
0000
0000
0100
0001
0100
,
0001
0001
0011
1100
,
1002
0000
0103
0000
0000
0100
0001
0000
,
2001
3100
1002
0013
,
2001
0000
3010
0100
0010
0100
0010
0000
,
1002
0000
0013
0100
0010
0100
0010
0000
,
2001
3100
0000
1000
,
1002
0103
2001
3010
,
1002
0000
0013
0100
1000
0100
0010
0000
,
2001
0000
3010
0100
0001
0100
0010
0000
,
1001
0100
1000
0100
,
0010
0001
1000
0001
,
0102
0000
1003
0010
1000
0010
1000
0000
,
2100
0000
3001
0010
0001
0010
0001
0000
,
1001
0100
0001
0100
,
0010
1000
0001
0010
,
0120
0000
0031
1000
0010
1000
0001
0000
,
1001
0000
0000
0110
0000
0000
1001
0000
,
0220
0000
0000
0000
,
0000
0000
0000
0330
2000
3002
0000
0023
,
0031
0000
0000
0100
0000
0000
0001
0000
1000
0000
0000
0100
0000
0000
1000
0000
,
0001
0000
0000
0100
0000
0000
0001
0000
2000
0000
3200
0000
0000
0000
0320
0000
,
0031
0000
0000
0001
0000
0000
1000
0010
1000
0000
0000
1000
0000
0000
0001
0100
,
0001
0000
0000
0001
0000
0000
1000
0100
1000
0000
1000
0000
1000
0000
1000
0000
,
0010
0000
0000
0010
0000
0000
0100
0001
0100
0000
0000
0100
0000
0000
0001
1000
,
0001
0000
0000
0001
0000
0000
0010
0100
0010
0000
0010
0000
0010
0000
0010
0000
,
0001
0000
0001
0100
0010
0000
1000
0010
,
1000
0000
1000
0100
0010
0000
0001
0010
,
0001
0000
0001
0100
0010
0000
1000
0010
,
1000
0100
0010
0001
,
1000
0000
1000
0001
0100
0000
0001
1000
,
0001
0000
0001
1000
0100
0000
1000
0001
,
1000
0000
1000
0001
0100
0000
0001
1000
,
0010
0100
0001
1000
,
0100
0000
1000
0000
0001
0100
1000
0000
,
0100
0000
0001
0000
1000
0100
0001
0000
,
0100
0000
1000
0000
0001
0100
1000
0000
,
0100
0010
1000
0001
,
0010
0000
0001
0000
1000
0010
0001
0000
,
0010
0000
1000
0000
0001
0010
1000
0000
,
0010
0000
0001
0000
1000
0010
0001
0000
,
0010
0000
1000
0000
0100
0010
0100
0000
,
1002
0000
0103
0100
0100
0100
1010
0011
,
2100
0000
3001
0001
0010
0100
1000
0010
,
0210
0000
0301
0001
1000
0100
1000
0010
,
1002
0103
0100
0100
2001
3010
0010
0010
,
2001
0000
3100
0100
0100
0100
0011
1100
,
0102
0000
1003
1000
0001
0100
0010
1000
,
1200
0000
0310
0010
0001
0100
0001
0010
,
2001
0000
3100
0000
0100
0000
0100
0000
1000
0001
1000
0001
1000
0000
0010
0000
,
1001
0100
0001
0100
,
1000
0100
0001
0010
,
2100
0000
3001
0010
0001
0010
0001
0000
,
0102
0000
1003
0010
1000
0010
1000
0000
,
1001
0100
1000
0100
,
0001
0100
1000
0010
,
0201
0000
0310
1000
0001
1000
0010
0000
,
1001
0000
0000
0110
0000
0000
1001
0000
,
0220
0000
0000
0000
,
0000
0000
0000
0000
,
0330
0000
0000
0000
;

//---------------dance-single - ----------------
#NOTES:
     dance-single:
     :
     Easy:
     5:
     0.378041,0.491007,0.327859,0.343471,0.000000,253.000000,42.000000,44.000000,0.000000,0.000000,0.000000,0.378041,0.491007,0.327859,0.343471,0.000000,253.000000,42.000000,44.000000,0.000000,0.000000,0.000000:
0000
0000
0000
0000
,
0000
0000
0000
0000
,
0000
0000
0000
0000
,
0000
0000
0000
0000
,
0001
0100
0000
1000
,
0100
0001
0010
0100
,
1000
0100
0000
0001
,
0100
1000
1100
0011
,
1001
0010
0000
1000
,
0001
0100
0010
1000
,
0100
0010
0000
0001
,
1000
1000
0010
0100
,
0001
0010
0000
1000
,
0010
0001
0100
0010
,
1000
0010
0000
0001
,
0010
1000
1010
0101
,
2002
3003
0000
0001
,
2200
3300
0022
0033
,
0102
1000
0100
1003
,
2100
0001
0100
3001
,
2002
3003
0000
1000
,
0202
0303
2020
3030
,
2001
0010
0010
3001
,
1002
0010
1000
0103
,
1001
0000
0001
0000
,
0001
0010
0100
1000
,
1200
0010
1000
0310
,
0201
0010
0001
0310
,
1001
0000
1000
0000
,
1000
0100
0010
0001
,
1002
0010
0010
1003
,
0001
0000
0000
1000
0000
0000
0001
0000
,
2002
0000
0000
0000
,
0000
0000
0000
3003
1000
0100
0000
0010
,
0002
0000
0000
0003
0000
0000
0001
0000
0200
0000
0000
0300
0000
0000
0100
0000
,
0020
0000
0000
0030
0000
0000
0010
0000
1000
0000
0100
0000
0000
0000
0010
0000
,
0002
0000
0000
0003
0000
0000
1000
0000
2000
0000
0000
3000
0000
0000
0001
0000
,
0002
0000
0000
0003
0000
0000
1000
0000
0001
0000
1000
0000
0001
0000
1000
0000
,
0200
0000
0000
0300
0000
0000
0010
0000
0020
0000
0000
0030
0000
0000
0100
0000
,
0200
0000
0000
0300
0000
0000
0010
0000
0001
0000
0100
0000
1000
0000
0010
0000
,
0001
0001
0100
0000
,
1000
1000
0100
0000
,
0001
0001
0100
0000
,
0100
0001
0010
0100
,
1000
1000
0100
0000
,
0001
0001
0100
0000
,
1000
1000
0100
0000
,
0010
0001
1000
0001
,
1000
0100
0001
0010
,
1000
0100
0001
0010
,
1000
0100
0001
0010
,
1000
0010
0010
0100
,
0001
0100
1000
0010
,
0001
0100
1000
0010
,
0001
0100
1000
0010
,
0001
0001
0010
0100
,
2100
0000
3001
0000
1000
0000
1010
1000
,
1002
0000
0013
0000
0001
0000
0110
0010
,
2010
0000
3100
0000
0010
0000
0011
0001
,
1002
0000
0103
0000
2001
0000
3100
0010
,
0012
0000
0103
0000
0001
0000
0011
0001
,
2001
0000
3010
0000
1000
0000
1100
0100
,
0120
0000
0031
0000
1000
0000
1001
0001
,
0201
0000
0310
0000
1000
0001
1000
0001
,
1001
0000
1000
0000
,
1000
0010
0100
0001
,
2010
0001
0010
3001
,
0012
1000
0010
1003
,
1001
0000
0001
0000
,
0001
0100
0010
1000
,
2001
0010
0010
3001
,
1000
0000
0000
0001
0000
0000
1000
0000
,
2002
0000
0000
0000
,
0000
0000
0000
0000
,
3003
0000
0000
0000
;

//---------------dance-single - ----------------
#NOTES:
     dance-single:
     :
     Beginner:
     2:
     0.190693,0.252919,0.140511,0.000000,0.000000,153.000000,18.000000,0.000000,0.000000,0.000000,0.000000,0.190693,0.252919,0.140511,0.000000,0.000000,153.000000,18.000000,0.000000,0.000000,0.000000,0.000000:
// measure 0
0000
0000
0000
0000
,  // measure 1
0000
0000
0000
0000
,  // measure 2
0000
0000
0000
0000
,  // measure 3
0000
0000
0000
0000
,  // measure 4
1000
0000
0000
0001
,  // measure 5
0001
0000
0010
0000
,  // measure 6
0001
0000
0000
0100
,  // measure 7
0100
0000
0010
0000
,  // measure 8
0100
0000
0000
0001
,  // measure 9
0001
0000
1000
0000
,  // measure 10
0001
0000
0000
1000
,  // measure 11
1000
0000
0100
0000
,  // measure 12
1000
0000
0000
0010
,  // measure 13
0010
0000
0100
0000
,  // measure 14
0001
0000
0000
0010
,  // measure 15
0010
0000
0100
0000
,  // measure 16
1001
0000
0000
0000
,  // measure 17
0001
0000
1000
0000
,  // measure 18
1001
0000
1000
1000
,  // measure 19
1000
0000
0001
0001
,  // measure 20
0001
0000
0000
0000
,  // measure 21
1000
0000
0001
0000
,  // measure 22
1001
0000
0001
0001
,  // measure 23
0001
0000
1000
1000
,  // measure 24
1000
0000
0100
0000
,  // measure 25
0010
0000
0001
0000
,  // measure 26
1001
0000
1000
1000
,  // measure 27
1000
0000
0001
0001
,  // measure 28
0001
0000
0100
0000
,  // measure 29
0010
0000
1000
0000
,  // measure 30
1001
0000
0100
0100
,  // measure 31
0100
0000
0100
0000
,  // measure 32
1001
0000
0000
0000
,  // measure 33
0000
0000
0010
0000
,  // measure 34
0100
0000
0100
0000
,  // measure 35
0100
0000
0010
0000
,  // measure 36
1000
0000
0001
0000
,  // measure 37
1000
0000
0100
0000
,  // measure 38
0001
0000
1000
0000
,  // measure 39
0001
0000
0010
0000
,  // measure 40
1000
0000
1000
0000
,  // measure 41
0001
0000
0001
0000
,  // measure 42
1000
0000
1000
0000
,  // measure 43
0010
0000
0100
0000
,  // measure 44
0001
0000
0001
0000
,  // measure 45
1000
0000
1000
0000
,  // measure 46
0001
0000
0001
0000
,  // measure 47
0100
0000
0001
0000
,  // measure 48
1000
0000
0100
0100
,  // measure 49
0100
0000
0001
0001
,  // measure 50
0001
0000
0010
0010
,  // measure 51
0010
0000
1000
0000
,  // measure 52
0001
0000
0100
0100
,  // measure 53
0100
0000
1000
1000
,  // measure 54
1000
0000
0010
0010
,  // measure 55
0010
0000
0001
0000
,  // measure 56
1001
0000
0000
0010
,  // measure 57
1001
0000
0000
0100
,  // measure 58
1001
0000
0000
0010
,  // measure 59
1001
0001
1001
1000
,  // measure 60
1001
0000
0000
0100
,  // measure 61
1001
0000
0000
0010
,  // measure 62
1001
0000
0000
0100
,  // measure 63
1001
0001
1000
0001
,  // measure 64
1000
0000
0100
0000
,  // measure 65
0010
0000
0001
0000
,  // measure 66
1001
0000
1000
1000
,  // measure 67
1000
0000
0001
0001
,  // measure 68
0001
0000
0100
0000
,  // measure 69
0010
0000
1000
0000
,  // measure 70
1001
0000
0100
0100
,  // measure 71
0100
0000
0100
0000
,  // measure 72
1001
0000
0000
0000
;
