#TITLE:ZZ;
#SUBTITLE:;
#ARTIST:D.J.Amuro;
#TITLETRANSLIT:;
#SUBTITLETRANSLIT:;
#ARTISTTRANSLIT:;
#GENRE:;
#CREDIT:Silverhawke;
#MENUCOLOR:;
#METERTYPE:DDR;
#BANNER:[Zenius -Initial- Vanisher] - ZZ.png;
#BACKGROUND:[Zenius -Initial- Vanisher] - ZZ-bg.png;
#LYRICSPATH:;
#CDTITLE:cdtitle.png;
#MUSIC:[Zenius -Initial- Vanisher] - ZZ.mp3;
#OFFSET:-0.028;
#SAMPLESTART:63.909;
#SAMPLELENGTH:15.000;
#SELECTABLE:YES;
#LISTSORT:;
#BPMS:0.000=154.000;
#STOPS:;
#BGCHANGES:;
#ATTACKS:;

//---------------dance-single - ----------------
#NOTES:
     dance-single:
     :
     Hard:
     10:
     0.788,0.824,0.064,0.110,0.678:
0000
0000
0000
0000
,
0000
0000
0000
0000
,
0000
0000
0000
0000
,
0000
0000
0000
0000
,
0001
0000
0000
0010
0000
0000
0100
0000
0100
0000
1000
0000
0001
0000
1000
0000
,
0010
0000
0000
0100
0000
0000
0001
0000
0001
0000
0010
0000
0100
0000
0010
0000
,
0001
0000
0000
0100
0000
0000
0010
0000
0010
0000
1000
0000
0100
0000
1000
0000
,
0010
0100
0001
0010
0100
1000
0100
0010
,
0001
0000
0001
0100
0000
0100
0010
0000
1000
0000
0010
0000
0100
0000
0010
0000
,
1000
0000
1000
0100
0000
0100
0010
0000
0001
0000
0100
0000
0010
0000
0100
0000
,
0001
0000
0001
0010
0000
0010
0100
0000
1000
0000
0010
0000
0100
0000
0010
0000
,
1000
0100
0001
0100
1000
0010
0100
0010
,
1000
0000
1000
0001
0000
0001
0100
0000
0010
0000
1000
0000
0010
0000
0001
0000
,
0010
0000
0010
1000
0000
1000
0001
0000
0010
0000
1000
0000
0010
0000
0001
0000
,
0010
0000
0010
0100
0000
0100
1000
0000
0010
0000
0100
0000
1000
0000
0100
0000
,
0020
0000
0000
0000
0100
0100
0130
0100
,
0001
0000
0100
0010
0000
0100
0010
0000
1000
0000
0100
0000
0001
0000
0100
0000
,
1000
0000
0010
0100
0000
0010
0100
0000
0001
0000
0010
0000
1000
0000
0010
0000
,
0001
0000
0100
0010
0000
0100
0010
0000
1000
0000
0100
0000
0001
0000
0100
0000
,
0010
0001
0100
1000
0100
0010
0001
0010
,
1000
0000
0001
0100
0000
0001
0100
0000
0010
0000
1000
0000
0001
0000
0010
0000
,
0001
0000
1000
0100
0000
1000
0100
0000
0010
0000
1000
0000
0010
0000
0001
0000
,
0100
0000
0010
1000
0000
0010
1000
0000
0100
0000
0001
0000
0100
0000
0010
0000
,
0001
0100
0001
0000
0010
0000
0100
0000
1000
0100
1000
0000
0010
0000
0100
0000
,
0001
0100
0001
0100
0001
0000
1000
0100
1000
0100
1000
0000
0010
0000
0100
0010
,
0100
0000
0001
0000
1000
0100
1000
0000
0001
0000
0000
0000
0100
0010
0100
0000
,
0001
0000
1000
0000
0100
0010
0100
0000
1000
0000
0001
0000
0010
0000
0100
0000
,
1000
0001
1000
0000
0010
0000
1000
0001
1000
0000
0100
0000
0010
0001
0010
0000
,
0100
0000
1000
0001
0010
0000
0100
0000
1000
0001
1000
0000
0010
0000
0100
0000
,
0001
0000
1000
0000
0100
0000
0010
0001
0010
0000
0000
0000
0001
1000
0001
0000
,
0010
0000
0000
0100
0000
0000
1000
0000
0000
0010
0000
0000
0000
0000
0000
0100
0001
0100
0001
0000
0000
0010
0000
0000
,
0100
0001
0100
1000
0100
0100
0010
0001
,
1000
0010
0000
0000
0101
0000
0000
0000
0001
0010
0000
0000
1100
0000
0000
0000
,
0001
0100
0001
0000
0100
0000
0010
0000
1000
0010
1000
0000
0100
0000
0010
0000
,
0001
0010
0001
0000
0010
0000
0100
0000
1000
0001
1000
0000
0010
0000
1000
0000
,
0100
0010
0100
0000
0010
0001
0010
0000
0001
1000
0001
0000
1000
0010
1000
0000
,
0001
0010
0001
0010
0100
1000
0100
1000
0001
0100
0001
0100
0010
1000
0001
0100
,
0010
0000
0000
0000
1000
0100
0010
0100
1000
0000
0000
0000
0010
0000
0100
0000
,
0001
1000
0000
0001
1000
0000
0100
0000
0010
0001
0010
0000
0100
0000
1000
0000
,
0001
0000
0000
0000
0100
0010
0100
0010
1000
0001
1000
0001
0010
0100
0010
0100
,
1000
0001
0000
0001
0100
0000
0001
1000
0000
1000
0100
0000
0110
0000
0000
0000
,
0001
0100
0000
0100
0010
0000
1000
0001
1000
0000
0100
0000
0001
0000
0100
0000
,
1000
0010
0000
0010
0100
0000
0001
1000
0001
0000
0100
0000
1000
0000
0100
0000
,
0001
0010
0000
0010
0100
0000
1000
0001
1000
0000
0010
0000
0001
0000
0010
0000
,
1000
0100
1000
0000
0010
0000
0100
0000
0001
0010
0001
0000
0100
0000
0010
0000
,
1000
0100
0000
0100
0010
0000
0001
1000
0100
0000
0001
0000
0100
0000
1000
0000
,
0001
0100
0000
0100
0010
0000
1000
0001
0100
0000
1000
0000
0100
0000
0001
0000
,
1000
0100
0000
0100
0010
0000
0001
1000
0100
0000
0001
0000
0100
0000
0010
0000
,
0001
0100
0001
0000
1000
0000
0100
0000
1000
0010
1000
0000
0001
0000
0010
0000
,
0001
0100
0000
0010
0100
0000
0010
1000
0001
0000
0010
0000
1000
0000
0010
0000
,
0001
0010
0000
0100
0010
0000
0100
1000
0001
0000
0010
0000
1000
0000
0010
0000
,
0001
1000
0000
0100
1000
0000
0100
0010
0001
0000
0100
0000
1000
0000
0100
0000
,
0010
1000
0001
0000
0010
0000
0100
0000
0010
0001
1000
0000
0010
0000
0100
0000
,
0010
1000
0000
0010
0100
0000
0001
0100
0010
0000
0001
0000
0010
0000
1000
0000
,
0001
0010
0000
0100
0010
0000
0100
1000
0001
0000
0100
0000
1000
0000
0100
0000
,
0010
1000
0000
0100
1000
0000
0100
0010
0001
0000
0010
0000
1000
0000
0010
0000
,
0001
0100
0010
0000
1000
0000
0100
0000
0010
0001
1000
0000
0010
0100
0010
0100
,
0002
0000
0000
0023
0000
0000
0230
0000
,
2300
0000
3020
0000
,
0230
0000
0000
0302
0000
0000
2003
0000
,
3100
0000
0000
0100
0010
0000
0000
0010
0001
0000
0100
0000
0010
0000
2000
0000
,
3001
0010
0001
1000
0010
1000
0001
0010
0001
0000
1000
0000
1001
0000
0001
0000
,
1000
0010
1000
0001
0010
0001
1000
0010
1000
0000
0001
0000
1001
0000
1000
0000
,
0001
0100
0001
1000
0100
1000
0001
0100
0001
0000
1000
0000
1001
0000
0001
0000
,
0100
0010
1000
0000
0100
0000
0010
0000
0001
0100
0010
0000
1000
0100
0010
0000
,
0001
0100
0001
0100
0001
0000
1000
0100
1000
0100
1000
0000
0010
0000
0100
0010
,
0100
0000
0001
0010
0100
0000
2002
0000
0000
0000
3003
0000
0000
0000
0000
0000
;

//---------------dance-single - ----------------
#NOTES:
     dance-single:
     :
     Medium:
     8:
     0.554,0.580,0.137,0.073,0.142:
0000
0000
0000
0000
,
0000
0000
0000
0000
,
0000
0000
0000
0000
,
0000
0000
0000
0000
,
1000
0000
0000
0001
0000
0000
0100
0000
0100
0000
0000
0000
1010
0000
0000
0000
,
0011
0000
0000
1000
0000
0000
0100
0000
0100
0000
0000
0000
0011
0000
0000
0000
,
1010
0000
0000
0001
0000
0000
0010
0000
0010
0000
0000
0000
1100
0000
0000
0000
,
0101
0001
1000
0100
0010
0001
0100
0010
,
1000
0000
0000
0001
0000
0000
0100
0000
0100
0000
0000
0000
0110
0000
0000
0000
,
0001
0000
0000
1000
0000
0000
0100
0000
0100
0000
0000
0000
0110
0000
0000
0000
,
1000
0000
0000
0001
0000
0000
0010
0000
0010
0000
0000
0000
0110
0000
0000
0000
,
1000
0100
0010
0001
0010
0100
1000
0001
,
0100
0000
0000
0010
0000
0000
1000
0000
1000
0000
0000
0000
1100
0000
0000
0000
,
0100
0000
0000
0010
0000
0000
0001
0000
0001
0000
0000
0000
0101
0000
0000
0000
,
0100
0000
0000
0010
0000
0000
1000
0000
1000
0000
0001
0000
0100
0000
0010
0000
,
0100
0000
0100
0000
0001
1000
0001
1000
,
0100
0000
0000
0010
0000
0000
0001
0000
0001
0000
1000
0000
0010
0000
0000
0000
,
0100
0000
0000
0001
0000
0000
1000
0000
1000
0000
0001
0000
0010
0000
0000
0000
,
0100
0000
0000
1000
0000
0000
0001
0000
0001
0000
0100
0000
0010
0000
0000
0000
,
0100
0001
1000
0100
0010
0100
1000
0001
,
0100
0000
0000
0010
0000
0000
1000
0000
1000
0000
0001
0000
1000
0000
0000
0000
,
0100
0000
0000
0010
0000
0000
0001
0000
0001
0000
1000
0000
0001
0000
0000
0000
,
0100
0000
0000
0010
0000
0000
1000
0000
1000
0000
0001
0000
0010
0000
0100
0000
,
1000
0000
0001
0000
0100
0010
0100
0010
,
1000
0100
0100
0010
0100
0100
0001
0100
,
0100
0000
1000
0001
0100
0000
0010
0100
,
0010
0100
0001
0000
1000
0100
0010
0000
,
0100
1000
0100
0010
0100
1000
0001
0000
,
0100
0010
1000
0001
0010
0100
1000
0000
,
0001
0000
0100
0010
0100
0000
0001
0010
,
0100
1000
0001
0100
0000
0010
0010
0100
,
0001
1000
0001
1000
0100
0010
0100
0010
,
0001
0101
1000
1100
,
0001
0010
0100
0000
1000
0010
0100
0000
,
0010
1000
0100
0000
0010
0001
0100
0000
,
0010
1000
0010
1000
0001
0010
0100
0000
,
0010
0001
0100
1000
0001
0010
1000
0100
,
0010
0000
0001
0100
0010
0000
0100
0001
,
1000
0100
0010
0000
0001
0100
0010
0100
,
1000
0000
0100
0001
1000
0100
0010
0000
,
0001
0000
0000
0100
0000
0000
0010
0000
0000
1000
0000
0000
1001
0000
0000
0000
,
0100
0000
0000
0010
0000
0000
1000
0000
1000
0000
0001
0000
0010
0000
0000
0000
,
0100
0000
0000
1000
0000
0000
0001
0000
0001
0000
1000
0000
0010
0000
0000
0000
,
0100
0000
0000
0001
0000
0000
1000
0000
1000
0000
0100
0000
0010
0000
0000
0000
,
0100
1000
0001
0100
0010
0100
0001
1000
,
0100
0000
0000
0010
0000
0000
0001
0000
0001
0000
1000
0000
0001
0000
0000
0000
,
0100
0000
0000
0010
0000
0000
1000
0000
1000
0000
0001
0000
1000
0000
0000
0000
,
0100
0000
0000
0010
0000
0000
0001
0000
0001
0000
1000
0000
0010
0000
0100
0000
,
0001
0000
1000
0000
0100
0010
0100
0010
,
0001
0100
0010
0100
0001
0010
0100
0000
,
1000
0100
0010
0100
1000
0010
0100
0000
,
0001
0010
0100
1000
0100
0010
0001
0000
,
1000
0010
1000
0010
0100
0001
0010
0100
,
1000
0001
0100
0010
0100
0001
1000
0000
,
0001
0010
0100
1000
0100
0010
0001
0000
,
0100
0010
1000
0001
1000
0010
0100
0000
,
0001
0010
0100
1000
0010
0100
1000
0100
,
0002
0000
0000
2003
0000
0000
3100
0000
,
0020
0000
0032
0000
,
0203
0000
0000
0320
0000
0000
1030
0000
,
0001
0000
0000
0100
0001
0000
0000
0100
0010
0000
1000
0000
0100
0000
0010
0000
,
0001
0000
1000
0001
0000
1000
0001
0000
0100
0000
0010
0000
0100
0000
0010
0000
,
1000
0000
0001
1000
0000
0001
1000
0000
0100
0000
0010
0000
0100
0000
0010
0000
,
0001
0000
1000
0001
0000
1000
0001
0000
0100
0000
0010
0000
0100
0000
0010
0000
,
1000
0100
0001
0100
1000
0010
0001
0010
,
0100
0100
0001
0100
0100
1000
0100
0100
,
0010
0000
0000
2002
0000
3003
0000
0000
;

//---------------dance-single - ----------------
#NOTES:
     dance-single:
     :
     Easy:
     5:
     0.402,0.397,0.055,0.018,0.000: // measure 1
0000
0000
0000
0000
,  // measure 2
0000
0000
0000
0000
,  // measure 3
0000
0000
0000
0000
,  // measure 4
0000
0000
0000
0000
,  // measure 5
1000
0001
0100
0010
,  // measure 6
1000
0100
0010
0001
,  // measure 7
1000
0001
0100
0010
,  // measure 8
1000
0000
0001
0000
0010
0100
0010
0000
,  // measure 9
0001
0000
0100
0000
0010
1000
0001
0000
,  // measure 10
1000
0000
0100
0000
0010
0001
1000
0000
,  // measure 11
0001
0000
0100
0000
0010
1000
0001
0000
,  // measure 12
0100
1000
0010
0001
,  // measure 13
1000
0000
0100
0000
0010
0001
1000
0000
,  // measure 14
0001
0000
0100
0000
0010
1000
0001
0000
,  // measure 15
1000
0000
0100
0000
0010
0001
1000
0000
,  // measure 16
0100
0100
0100
0100
,  // measure 17
0010
0000
0001
0000
0100
0010
1000
0000
,  // measure 18
0010
0000
1000
0000
0100
0010
0001
0000
,  // measure 19
0010
0000
0001
0000
0100
0010
1000
0000
,  // measure 20
0100
0000
0010
0000
0001
1000
0001
0000
,  // measure 21
0100
0000
0010
0000
1000
0100
0010
0000
,  // measure 22
0100
0000
0010
0000
0001
0100
0010
0000
,  // measure 23
0100
0000
0010
0000
1000
0100
0010
0000
,  // measure 24
0001
0100
0001
0000
1000
0100
1000
0000
,  // measure 25
0001
0000
0000
1000
0000
0000
1001
0000
,  // measure 26
0001
0100
0010
0000
,  // measure 27
0100
0001
1000
0100
,  // measure 28
0010
0010
0100
1000
,  // measure 29
0001
0000
0100
0000
0010
1000
0001
0000
,  // measure 30
0010
0100
1000
0100
,  // measure 31
0010
0000
0001
1000
0000
1000
0001
0000
,  // measure 32
0100
0100
0010
0010
,  // measure 33
1000
0100
0001
0010
,  // measure 34
1000
0000
0001
0000
0100
0010
0100
0000
,  // measure 35
0001
0000
1000
0000
0100
0010
0100
0000
,  // measure 36
1000
0001
0100
0010
,  // measure 37
1000
0100
0010
0000
0001
0010
0100
0000
,  // measure 38
1000
0010
0100
0001
,  // measure 39
1000
0001
1000
0100
,  // measure 40
0010
0000
0001
0100
0010
0000
1000
0000
,  // measure 41
0100
0000
0000
0010
0000
0000
0110
0000
,  // measure 42
1000
0000
0001
0000
0100
0010
0100
0000
,  // measure 43
0001
0000
1000
0000
0100
0010
0100
0000
,  // measure 44
1000
0000
0001
0000
0100
0010
0100
0000
,  // measure 45
0010
1000
0100
0000
0010
0001
0100
0000
,  // measure 46
0010
0000
1000
0000
0001
0100
0001
0000
,  // measure 47
0010
0000
0001
0000
1000
0100
1000
0000
,  // measure 48
0010
0000
1000
0000
0001
0100
0001
0000
,  // measure 49
0100
0001
1000
0000
0100
1000
0001
0000
,  // measure 50
0010
0000
0001
0000
0100
0010
1000
0010
,  // measure 51
0100
0000
0001
0000
0010
0100
1000
0100
,  // measure 52
0010
0000
0001
0000
0100
0010
1000
0010
,  // measure 53
0100
0000
0001
0000
1000
0100
0010
0000
,  // measure 54
0001
0000
1000
0000
0100
0010
0001
0010
,  // measure 55
0100
0000
1000
0000
0001
0100
0010
0100
,  // measure 56
0001
0000
1000
0000
0100
0010
0001
0010
,  // measure 57
0100
0000
1000
0000
0010
0100
0001
0010
,  // measure 58
0100
0000
0000
1000
0000
0000
0001
0000
,  // measure 59
0100
0000
0010
0000
,  // measure 60
1000
0000
0000
0001
0000
0000
0010
0000
,  // measure 61
0100
0110
0010
0110
,  // measure 62
1000
0000
0100
0010
0001
0100
0010
0000
,  // measure 63
0100
0000
0001
0010
0100
1000
0010
0000
,  // measure 64
0100
0000
0001
0010
0001
0100
0010
0000
,  // measure 65
1000
0100
1000
0100
0010
0001
0100
0000
,  // measure 66
0010
0000
0000
0100
0000
0000
0010
0000
,  // measure 67
0110
0000
0000
2002
0000
3003
0000
0000
;
