#TITLE:夕景イエスタデイ;
#SUBTITLE:;
#ARTIST:じん feat. IA;
#TITLETRANSLIT:Yuukei Yesterday;
#SUBTITLETRANSLIT:;
#ARTISTTRANSLIT:Jin feat. IA;
#GENRE:;
#CREDIT:;
#BANNER:[Zenius -Initial- Vanisher] - Yuukei Yesterday.png;
#BACKGROUND:[Zenius -Initial- Vanisher] - Yuukei Yesterday-bg.png;
#LYRICSPATH:;
#CDTITLE:cdtitle.png;
#MUSIC:[Zenius -Initial- Vanisher] - Yuukei Yesterday.mp3;
#OFFSET:-0.723;
#SAMPLESTART:50.915;
#SAMPLELENGTH:14.545;
#SELECTABLE:YES;
#BPMS:0.000=132.000
;
#STOPS:
;
#BGCHANGES:0.000=[Zenius -Initial- Vanisher] - Yuukei Yesterday.avi=1.000=0=0=0=StretchNoLoop==CrossFade_Faster==,
99999=-nosongbg-=1.000=0=0=0 // don't automatically add -songbackground-
;
#KEYSOUNDS:;
#ATTACKS:;

//---------------dance-single - ----------------
#NOTES:
     dance-single:
     :
     Hard:
     9:
     0.647,0.621,0.473,0.111,0.540,534.000,64.000,15.000,0.000,0.000,0.000,0.647,0.621,0.473,0.111,0.540,534.000,64.000,15.000,0.000,0.000,0.000:
0000
0000
0000
0000
,
0000
0000
0000
0000
,
0000
0000
0000
0000
,
0000
0000
0000
0000
0000
0001
0010
0100
,
1000
0000
0010
0100
0010
0000
0100
0001
,
0100
0000
0001
1000
0001
0000
0010
0010
,
0010
0000
0100
0100
0100
0000
1000
1000
,
1000
0002
0203
0320
,
1030
0000
0000
0100
0000
0000
1000
0000
0100
0000
0000
0000
1100
0000
0000
0000
,
0010
0000
0000
0001
0000
0000
0010
0000
0001
0000
0000
0000
0011
0000
0000
0000
,
0001
0000
1000
0001
1000
0000
0010
1000
,
0010
0000
0100
0010
0100
0000
0001
0100
0001
0000
0100
0001
1000
0100
0010
0001
,
1000
0000
0010
1000
0001
0000
1000
0001
,
0010
0000
0001
1000
0010
0000
0100
0100
,
0100
0000
0001
0001
0001
0000
1000
1000
,
1000
0200
0320
0032
,
1003
0000
0000
0010
0000
0000
0001
0000
0010
0000
0000
0000
1010
0000
0000
0000
,
1000
0000
0000
0100
0000
0000
0001
0000
0000
0000
0100
0000
0100
0000
0000
1000
,
0000
0001
0000
1000
0001
0100
0010
1000
,
0010
1000
0000
1010
0000
1001
0000
0001
0010
0000
0100
0000
1000
0000
0001
0000
,
2000
0000
0000
3200
0000
0000
0302
0000
0000
0000
0103
0000
1000
0000
0001
0000
,
2000
0000
0000
3020
0000
0000
0032
0000
0000
0000
0013
0000
1000
0000
0010
1000
,
0000
0000
0010
0000
1000
0000
0001
1000
0000
0000
0001
0000
1000
0000
0001
0000
,
0020
0000
0000
0230
0000
0000
2300
0000
0000
0000
3001
0000
0001
0000
1000
0000
,
0001
0000
0000
0100
0000
0000
0010
0000
1000
0000
1010
0000
1010
0000
0000
0000
,
1000
0000
0000
0100
0000
0000
0010
0000
0001
0000
0011
0000
0011
0000
0000
0000
,
0001
0000
0010
0000
0001
0000
0001
1000
0000
1000
0001
0000
1000
0000
0010
0000
,
0100
0000
0001
0000
1000
0000
0100
1000
0000
0001
0100
0000
0010
0000
1000
0000
,
0001
0000
0001
0000
1000
0001
0000
1001
0000
0000
0001
0000
1000
0000
0100
0000
,
0010
0000
0010
0000
0100
0010
0000
0110
0000
0110
0000
0000
0100
0000
1000
0001
,
1000
0000
1000
0000
0001
1000
0000
1001
0000
0000
1000
0000
0001
0000
0100
0000
,
0010
0000
0010
0000
0100
0000
0010
0100
0000
0110
0000
0000
0010
0000
0100
0010
,
1000
0000
1000
0000
0010
1000
0000
1010
0000
0000
0010
0000
1000
0000
0001
0000
,
0010
0000
0010
0000
0001
0010
0000
0011
0000
0011
0000
0000
0001
0000
1000
0001
,
0000
0000
1000
0000
0010
0000
0100
0010
0000
0000
0100
0000
0001
0000
1000
0000
,
0001
0000
0010
0100
1000
0001
0100
0010
1000
0000
1010
0000
1001
0000
0011
0000
,
0001
0000
0010
0000
0100
1000
0000
1001
0000
0000
0001
0000
0100
0000
0100
0000
,
0010
0000
1000
0000
0001
1000
0000
1001
0000
1100
0000
0100
0010
0000
0001
1000
,
0001
0000
0100
0000
0010
1000
0000
1001
0000
0000
1000
0000
0100
0000
0100
0000
,
0010
0000
0001
0000
1000
0000
0001
0100
0000
0101
0000
0100
0010
0000
0100
0010
,
1000
0000
0001
0000
0010
0001
0000
0011
0000
0000
0010
0000
0100
0000
0100
0000
,
1000
0000
0001
0000
0100
0010
0000
1000
0000
1010
0000
0000
0010
0000
1000
0010
,
0000
0000
1000
0000
0001
0000
1000
0001
0000
0000
1000
0000
0001
0000
0010
0000
,
0100
1000
0000
1100
0000
1001
0000
0001
0100
0000
0010
0000
1000
0000
0001
0000
,
1000
0000
1100
0000
0100
1000
0000
1001
0000
0000
1000
0000
0001
0000
0100
0000
,
0101
0000
0001
0000
1000
0001
0000
1001
0000
1010
0000
0000
0010
0000
1000
0001
,
0010
0000
0011
0000
0001
0000
0010
0100
0000
0000
0110
0000
0100
0000
1000
0000
,
1100
0000
1000
0000
0001
0000
1000
0001
0000
1001
0000
0000
1000
0000
0010
0100
,
0010
0000
0110
0000
0100
0001
0000
0101
0000
0000
0001
0000
1000
0000
0001
0000
,
1001
0000
1000
0000
0100
1000
0000
1100
0000
1100
0000
0000
0100
0000
0010
0100
,
0000
0000
0010
0000
0001
0000
0010
0001
0000
0000
0010
0000
0001
0000
1000
0000
,
0001
0000
0100
0010
1000
0010
1000
0001
0010
0000
0011
0000
0110
0000
1100
0000
,
1000
0000
1100
0000
1000
0001
0000
1001
0000
0000
0001
0000
0100
0000
0001
0000
,
0101
0000
0100
0000
0010
0100
0000
0110
0000
1010
0000
0000
0010
0000
1000
0001
,
1000
0000
1001
0000
0001
0010
0000
0011
0000
0000
0010
0000
0100
0000
1000
0000
,
1100
0000
0100
0000
1000
0000
0001
1000
0000
1001
0000
0000
0001
0000
0100
0010
,
1000
0000
1010
0000
1000
0001
0000
1001
0000
0000
1000
0000
0001
0000
0010
0000
,
0011
0000
0001
0000
1000
0001
0000
1001
0000
1010
0000
0000
0010
0000
0100
0010
,
0000
0000
0100
0000
0001
0100
0000
0001
0000
0000
1000
0000
0001
0000
1000
0001
,
0000
0000
0010
0000
0100
1000
0100
1000
0001
0100
0001
0100
0010
1000
0000
1010
,
0000
0000
0010
0000
1000
0001
0000
1001
0000
0000
1000
0000
0001
0000
0010
0001
,
0010
0001
0000
0011
0000
0110
0000
0100
1000
0000
0001
0000
0100
0000
0010
0000
,
1000
0000
0100
0000
0010
0000
0100
0010
0000
0100
0010
0000
0001
0000
1000
0000
,
0010
0000
0100
0000
0001
0000
0100
0001
0000
1000
0010
0000
1000
0000
0001
0000
,
0010
0000
0100
0000
1000
0000
0100
1000
0000
0001
1000
0000
0001
0000
0100
0000
,
0010
0000
1000
0000
0001
0000
0010
0001
0000
1000
0010
0000
0100
0001
1000
0100
,
0010
0000
0010
0000
0001
0000
0010
0001
0000
1000
0001
0000
1000
0000
1000
0000
,
0001
0000
1000
0000
0010
0000
1000
0010
0000
0100
0010
0000
0100
0000
0100
0000
,
0001
0000
0100
0000
0001
0000
1000
0001
0000
1000
0100
0000
0010
0000
0001
0000
,
1000
0000
0010
0100
0001
1000
0100
0010
0001
0010
0100
1000
0010
0100
0001
1000
,
0010
0000
0000
0000
;

//---------------dance-single - ----------------
#NOTES:
     dance-single:
     :
     Medium:
     7:
     0.429,0.414,0.237,0.044,0.218,368.000,32.000,6.000,0.000,0.000,0.000,0.429,0.414,0.237,0.044,0.218,368.000,32.000,6.000,0.000,0.000,0.000:
0000
0000
0000
0000
,
0000
0000
0000
0000
,
0000
0000
0000
0000
,
0000
0000
0000
0000
0000
1000
0001
0000
,
0100
0000
0000
0010
0100
0000
0000
0010
,
1000
0000
0000
0010
1000
0000
0001
0000
,
0010
0000
0000
0001
0010
0000
0000
0100
,
0010
0200
2300
3002
,
0103
0000
0010
0100
0010
0000
1000
0000
,
0001
0000
0010
0001
0010
0000
0000
0100
,
0010
0000
0000
0100
1000
0000
0000
0100
,
1000
0001
1000
0001
0100
0001
0100
0010
,
1000
0000
0000
0010
1000
0000
0000
0001
,
1000
0000
0000
0001
0010
0000
0100
0000
,
1000
0000
0000
0100
1000
0000
0000
0001
,
0100
0020
0230
0320
,
1030
0000
0010
1000
0010
0000
1000
0000
,
0001
0000
0000
0001
0000
0000
0001
0000
0000
0000
0010
0000
0010
0000
0000
0100
,
0000
1000
0000
0001
0001
0000
0100
0000
,
0010
0000
1000
0001
1000
0000
0000
0000
,
0001
0000
0000
0011
0000
0000
0001
0000
,
1000
0000
0000
1001
0000
0000
0001
0000
,
1000
0000
0010
1000
0010
0000
0100
0010
,
0100
0000
0000
0001
0000
0000
1000
0000
0000
0000
0001
0000
0001
0000
0000
0000
,
0010
0000
0100
0000
1000
1000
1000
0000
,
0001
0000
0100
0000
0010
0010
0010
0000
,
0100
0000
0010
0000
1000
0010
1000
0001
,
1001
0000
0000
0000
0000
0001
0001
0001
,
1000
0000
0000
0000
0001
0000
0000
1001
0000
0000
0001
0000
0001
0000
0000
0000
,
1000
0000
0000
0000
0100
0000
0000
0010
0000
0010
0000
0000
0100
0000
0000
0000
,
1000
0000
0000
0000
0001
0000
0000
0101
0000
0000
0100
0000
0100
0000
0000
0000
,
0001
0000
0000
0000
0100
0000
0000
0010
0000
0010
0000
0000
0100
0000
0000
0000
,
0010
0000
0000
0000
1000
0000
0000
1010
0000
0000
1000
0000
1000
0000
0000
0000
,
0001
0000
0000
0000
1000
0000
0000
0001
0000
0001
0000
0000
1000
0000
0000
1001
,
0000
0000
0001
0000
0010
0000
0000
0011
0000
0000
0010
0000
0100
0000
0000
0000
,
0010
0100
1000
0001
0100
0010
0010
0010
,
1000
0000
0000
0000
0010
0000
0000
1010
0000
0000
0010
0000
0010
0000
0000
0000
,
1000
0000
0000
0000
0001
0000
0000
1000
0000
1000
0000
0000
0001
0000
0000
0000
,
1000
0000
0000
0000
0100
0000
0000
1100
0000
0000
0100
0000
0100
0000
0000
0000
,
0010
0000
0000
0000
0100
0000
0000
0010
0000
0010
0000
0000
0001
0000
0000
0000
,
1000
0000
0001
0000
1000
0000
0000
1001
0000
0000
0001
0000
0001
0000
0000
0000
,
1000
0000
0010
0000
0100
0000
0000
0010
0000
0010
0000
0000
0100
0000
0000
0110
,
0000
0000
0010
0000
1000
0000
0000
1001
0000
0000
0001
0000
0010
0000
0000
0000
,
0100
0000
0000
1000
0000
0001
0000
0000
0100
0000
0010
0000
0010
0000
0010
0000
,
1000
0000
0010
0000
1000
0000
0000
1010
0000
0000
0010
0000
0010
0000
0000
0000
,
1000
0000
0001
0000
1000
0000
0000
0001
0000
0001
0000
0000
1001
0000
0000
0000
,
0001
0000
0010
0000
0001
0000
0000
0011
0000
0000
0010
0000
0010
0000
0000
0000
,
0100
0000
1000
0000
0100
0000
0000
1000
0000
1000
0000
0000
1100
0000
0000
0000
,
1000
0000
0100
0000
1000
0000
0000
1100
0000
0000
0100
0000
0100
0000
0000
0000
,
1000
0000
0001
0000
1000
0000
0000
0001
0000
0001
0000
0000
1000
0000
0000
1001
,
0000
0000
0001
0000
0100
0000
0000
0101
0000
0000
0001
0000
0100
0000
0000
0110
,
0000
0010
1000
0001
1000
0100
0100
0100
,
0010
0000
0001
0000
0010
0000
0000
0011
0000
0000
0001
0000
0001
0000
0000
0000
,
1000
0000
0010
0000
1000
0000
0000
0010
0000
0010
0000
0000
1010
0000
0000
0000
,
1000
0000
0001
0000
1000
0000
0000
1001
0000
0000
0001
0000
0001
0000
0000
0000
,
0010
0000
0100
0000
0010
0000
0000
0100
0000
0100
0000
0000
0110
0000
0000
0000
,
0010
0000
0001
0000
1000
0000
0000
1001
0000
0000
0001
0000
0001
0000
0000
0000
,
1000
0000
0010
0000
0100
0000
0000
0010
0000
0010
0000
0000
0100
0000
0000
0110
,
0000
0000
0010
0000
1000
0000
0000
1010
0000
0000
1000
0000
0001
0000
0000
1001
,
0000
0000
0001
0000
1000
0000
0100
0000
0010
0000
0001
0000
1000
0000
0000
1010
,
0000
0000
0010
0000
1000
0000
0000
1001
0000
0000
1000
0000
0001
0000
0010
0000
,
0100
0000
0000
1000
0000
0001
0000
0000
1001
0000
1000
0000
0100
0000
0010
0000
,
0001
0000
0000
0000
0010
0000
0000
0001
0000
0000
1000
0000
0001
0000
1000
0000
,
0001
0000
0001
0100
0000
0100
0010
1000
,
0001
0000
0010
0000
0100
0000
0000
0010
0000
0000
0100
0000
1000
0000
0001
0000
,
0100
0000
0100
0010
0000
0010
1000
0001
,
1000
0000
0100
0000
0010
0000
0000
0001
0000
0000
0010
0000
0001
0000
1000
0000
,
0001
0000
0001
0100
0000
0100
0010
0100
,
0010
0000
1000
0000
0001
0000
0000
1000
0000
0000
0001
0000
1000
0000
0100
0000
,
0010
0001
1000
0010
0100
0001
1000
0100
,
0010
0000
0000
0000
;

//---------------dance-single - ----------------
#NOTES:
     dance-single:
     :
     Easy:
     4:
     0.228,0.207,0.133,0.015,0.000,196.000,18.000,2.000,0.000,0.000,0.000,0.228,0.207,0.133,0.015,0.000,196.000,18.000,2.000,0.000,0.000,0.000:
0000
0000
0000
0000
,
0000
0000
0000
0000
,
0000
0000
0000
0000
,
0000
0000
0000
0000
,
1000
0000
0001
0000
,
0100
0001
0100
0000
,
0010
0000
0100
0000
,
0010
1000
1000
1000
,
0001
0010
0001
0000
,
1000
0100
1000
0000
,
0001
0000
1000
0000
,
0001
0100
0010
1000
,
0001
0000
0010
0000
,
0100
0010
0100
0000
,
1000
0000
0010
0000
,
0100
0010
0010
0010
,
0100
0001
0100
0000
,
0010
1000
0010
0000
,
1000
0000
0001
0000
,
1001
0000
0000
0000
,
1000
1000
1000
0000
,
0100
0100
0100
0000
,
0010
0000
0001
0000
,
0010
0010
0010
0000
,
0001
0100
0001
0001
,
1000
0010
1000
1000
,
0010
1000
0001
1000
,
1001
0000
0000
0000
,
0001
0001
0001
0000
,
0010
0010
0010
0000
,
0001
0001
0001
0000
,
0100
0100
0100
0000
,
0010
0010
0010
0000
,
1000
1000
1000
0000
,
0001
0000
1000
0000
,
0001
0010
0100
0100
,
1000
0100
1000
0000
,
0001
0100
0001
0000
,
0100
0010
0100
0000
,
0010
1000
0010
0000
,
1000
0001
1000
0000
,
0100
0010
0100
0000
,
1000
0000
0001
0000
,
1001
0000
0000
0000
,
0100
0010
0110
0000
,
0010
1000
1010
0000
,
0010
1000
1001
0000
,
1000
0001
0011
0000
,
0010
0100
0110
0000
,
0100
1000
1100
0000
,
1000
0000
0001
0000
,
1000
0010
0100
0001
,
1000
0100
1100
0000
,
1000
0001
1001
0000
,
0001
0100
0101
0000
,
0001
1000
1001
0000
,
0001
0010
0011
0000
,
0001
1000
1010
0000
,
1000
0000
0001
0000
,
1000
0100
0010
0001
,
0011
0000
1010
0000
,
2002
0000
3003
0000
,
1000
0100
0010
0010
,
0100
0010
0001
0001
,
1000
0010
0100
0100
,
0010
0100
0001
0001
,
1000
0100
1000
1000
,
0001
0100
0001
0001
,
1000
0010
1000
1000
,
0001
0010
0100
1000
,
0001
0000
0000
0000
;

//---------------dance-single - ----------------
#NOTES:
     dance-single:
     :
     Beginner:
     1:
     0.115,0.128,0.000,0.000,0.000,109.000,0.000,0.000,0.000,0.000,0.000,0.115,0.128,0.000,0.000,0.000,109.000,0.000,0.000,0.000,0.000,0.000:
0000
0000
0000
0000
,
0000
0000
0000
0000
,
0000
0000
0000
0000
,
0000
0000
0000
0000
,
1000
0000
1000
0000
,
1000
0000
0000
0000
,
0001
0000
0001
0000
,
0001
0000
0000
0000
,
0010
0000
0000
0000
,
0010
0000
0000
0000
,
0100
0000
0100
0000
,
0100
0000
0000
0000
,
1000
0000
1000
0000
,
1000
0000
0000
0000
,
0001
0000
0001
0000
,
0001
0000
0000
0000
,
0100
0000
0000
0000
,
0100
0000
0000
0000
,
0010
0000
0010
0000
,
0010
0000
0000
0000
,
1000
0000
0000
0000
,
0010
0000
0000
0000
,
1000
0000
1000
0000
,
0001
0000
0000
0000
,
0010
0000
0010
0000
,
0100
0000
0100
0000
,
1000
0000
1000
0000
,
1000
0000
0000
0000
,
0001
0000
0001
0000
,
0001
0000
0000
0000
,
1000
0000
1000
0000
,
1000
0000
0000
0000
,
0010
0000
0010
0000
,
0010
0000
0000
0000
,
0100
0000
0100
0000
,
0100
0000
0000
0000
,
0001
0000
0001
0000
,
0001
0000
0000
0000
,
1000
0000
1000
0000
,
1000
0000
0000
0000
,
0100
0000
0100
0000
,
0100
0000
0000
0000
,
0010
0000
0010
0000
,
0010
0000
0000
0000
,
0001
0001
0001
0000
,
0010
0000
0010
0000
,
0001
0001
0001
0000
,
1000
0000
1000
0000
,
0010
0010
0010
0000
,
1000
0000
1000
0000
,
0010
0000
0100
0000
,
0001
0000
0000
0000
,
1000
1000
1000
0000
,
0100
0000
0100
0000
,
0010
0010
0010
0000
,
0001
0000
0001
0000
,
1000
1000
1000
0000
,
0010
0000
0010
0000
,
0100
0000
0100
0000
,
0001
0000
0000
0000
,
1000
0000
1000
0000
,
0001
0000
0000
0000
,
1000
0000
0010
0000
,
1000
0000
0000
0000
,
0001
0000
0010
0000
,
0001
0000
0000
0000
,
1000
0000
0100
0000
,
1000
0000
0000
0000
,
0001
0000
0100
0000
,
0001
0000
0000
0000
;
