#TITLE:Viva Las Vegas;
#SUBTITLE:;
#ARTIST:Aqua;
#TITLETRANSLIT:;
#SUBTITLETRANSLIT:;
#ARTISTTRANSLIT:;
#CREDIT:Lisek;
#BANNER:[Zenius -Initial- Vanisher] - Viva Las Vegas.png;
#BACKGROUND:[Zenius -Initial- Vanisher] - Viva Las Vegas-bg.png;
#LYRICSPATH:;
#CDTITLE:cdtitle.png;
#MUSIC:[Zenius -Initial- Vanisher] - Viva Las Vegas.ogg;
#OFFSET:-0.189;
#SAMPLESTART:29.724;
#SAMPLELENGTH:15.100;
#SELECTABLE:YES;
#BPMS:0.000=128.000;
#STOPS:;
#BGCHANGES:;

//---------------dance-single - ----------------
#NOTES:
     dance-single:
     Lisek:
     Hard:
     8:
     0.475,0.446,0.325,0.258,0.021: // measure 1
0000
0000
0000
0000
,  // measure 2
0000
0000
0000
0000
,  // measure 3
0000
0000
0000
0000
,  // measure 4
0000
0000
0000
0000
,  // measure 5
1000
0100
0010
0001
0100
0010
0100
0001
,  // measure 6
1000
0100
0010
0100
1000
0001
0100
0010
,  // measure 7
0100
0001
1000
0100
0010
0100
1000
0002
,  // measure 8
0000
0203
0000
0302
0000
0003
0000
0000
,  // measure 9
0001
0100
0010
1000
0100
1000
0010
0100
,  // measure 10
0001
0010
0100
1000
0100
0010
0001
1000
,  // measure 11
0010
0100
0001
0010
0100
0010
0001
0200
,  // measure 12
0000
0320
0000
0230
0000
0300
0000
0000
,  // measure 13
1100
0100
0010
0000
1100
0100
1000
0000
,  // measure 14
0011
0010
0100
0000
0011
0001
0010
0000
,  // measure 15
0001
0100
0010
1000
0100
0010
0001
2000
,  // measure 16
0000
3020
0000
0230
0000
0300
0001
0010
,  // measure 17
0011
0000
0001
0100
0101
0000
0100
0010
,  // measure 18
0110
0010
2000
0000
3100
0000
0110
0000
,  // measure 19
0010
0001
1000
0200
0000
0320
0000
0030
,  // measure 20
0100
1000
0001
0020
0000
0130
1000
0010
,  // measure 21
1010
0000
1000
0000
1001
0000
1000
0010
,  // measure 22
1000
0100
2000
0000
3100
0000
0110
0000
,  // measure 23
0100
1000
0001
0020
0000
0230
0000
0300
,  // measure 24
1000
0100
0010
0002
0000
1003
0010
0100
,  // measure 25
0010
1010
0100
1010
,  // measure 26
1000
0000
0000
0010
0000
0000
1010
0000
0000
0000
0001
0000
0100
0000
0010
0000
,  // measure 27
0100
0101
0010
0101
,  // measure 28
0001
0000
0000
0100
0000
0000
0101
0000
0000
0000
0000
0000
1000
0000
0010
0000
,  // measure 29
1010
0000
0001
0000
0101
0000
1000
0100
,  // measure 30
0110
0010
0001
1000
0010
0000
0110
0000
,  // measure 31
0010
1000
0100
0020
0000
0230
0000
0300
,  // measure 32
0010
0001
0100
2000
0000
3200
0000
0300
,  // measure 33
0001
0010
0001
0100
0001
0010
0001
0000
,  // measure 34
0100
0010
1000
0000
0001
0100
0010
0000
,  // measure 35
1000
0100
1000
0010
1000
0100
1000
0000
,  // measure 36
0000
0001
0010
0100
1000
0001
1000
0000
,  // measure 37
0001
0100
0001
1000
0001
0100
0001
0000
,  // measure 38
1000
0100
1000
0100
0010
0001
0010
0000
,  // measure 39
0100
1000
0100
0010
0001
0100
0010
0000
,  // measure 40
0000
0000
1000
0010
0100
0001
1000
0000
,  // measure 41
0000
0000
0001
0010
0100
1000
0001
0000
,  // measure 42
0000
1000
0001
1000
,  // measure 43
0000
0010
0100
0010
,  // measure 44
1000
0100
0010
0001
,  // measure 45
1000
0000
1000
0000
0001
0000
0001
0001
,  // measure 46
1000
0000
1000
0000
0001
0000
0001
0001
,  // measure 47
1000
0000
0000
0010
0000
0000
1000
0000
0000
0000
0001
0000
1000
0000
0100
0000
,  // measure 48
0010
0010
0010
0010
0010
0000
0000
0000
,  // measure 49
1001
0000
1000
0100
1100
0000
0100
0010
,  // measure 50
0110
0010
0200
0000
1300
0000
0110
0000
,  // measure 51
0010
0001
1000
0200
0000
0320
0000
0030
,  // measure 52
0001
0010
0100
2000
0000
3001
1000
0001
,  // measure 53
0011
0000
0001
0000
1001
0000
1000
0010
,  // measure 54
0110
0010
2000
0000
3100
0000
0110
0000
,  // measure 55
0100
1000
0001
0020
0000
0230
0000
0300
,  // measure 56
1000
0100
0010
0002
0000
1003
0001
0100
,  // measure 57
0001
0011
0100
0011
,  // measure 58
0010
0000
0000
0001
0000
0000
0011
0000
0000
0000
0100
0000
0010
0000
1000
0000
,  // measure 59
0100
1100
0010
1100
,  // measure 60
1000
0000
0000
0100
0000
0000
1100
0000
0000
0000
0000
0000
0001
0000
1000
0000
,  // measure 61
1010
0000
0010
0000
0110
0000
0100
0001
,  // measure 62
0101
0100
0010
1000
0010
0000
0110
0000
,  // measure 63
1000
0001
0100
0020
0000
0230
0000
0000
,  // measure 64
0300
0000
0000
0000
;

//---------------dance-single - ----------------
#NOTES:
     dance-single:
     Lisek:
     Beginner:
     1:
     0.069,0.103,0.050,0.050,0.000:
0000
0000
0000
0000
,
0000
0000
0000
0000
,
0000
0000
0000
0000
,
0000
0000
0000
0000
,
1000
0000
0000
0000
,
0001
0000
0000
0000
,
0100
0000
0000
0000
,
0020
0000
0000
0030
0000
0000
0000
0000
,
1000
0000
0000
0000
,
0001
0000
0000
0000
,
0100
0000
0000
0000
,
0020
0000
0000
0030
0000
0000
0000
0000
,
1000
0000
0000
0000
,
0001
0000
0000
0000
,
1000
0000
0000
0000
,
0001
0000
0000
0000
,
1000
0000
0000
0000
,
0001
0000
0000
0000
,
1001
0000
0000
0000
,
0000
0000
0000
0000
,
0001
0000
0000
0000
,
1000
0000
0000
0000
,
1001
0000
0000
0000
,
0000
0000
0000
0000
,
1000
0000
0000
0000
,
0010
0000
0000
0000
,
0100
0000
0000
0000
,
0001
0000
0000
0000
,
1000
0000
0000
0000
,
0001
0000
0000
0000
,
1001
0000
0000
0000
,
0000
0000
0000
0000
,
2000
0000
0000
0000
,
0000
0000
0000
3000
,
0002
0000
0000
0000
,
0000
0000
0000
0003
,
2000
0000
0000
0000
,
0000
0000
0000
3000
,
0002
0000
0000
0000
,
0000
0000
0000
0003
,
0000
0000
0000
0000
,
0000
0000
0000
0000
,
0000
0000
0000
0000
,
0000
0000
0000
0000
,
1000
0000
0000
0000
,
0001
0000
0000
0000
,
1000
0000
0000
0000
,
0001
0000
0000
0000
,
1000
0000
0000
0000
,
0001
0000
0000
0000
,
1001
0000
0000
0000
,
0000
0000
0000
0000
,
0001
0000
0000
0000
,
1000
0000
0000
0000
,
1001
0000
0000
0000
,
0000
0000
0000
0000
,
1000
0000
0000
0000
,
0010
0000
0000
0000
,
0100
0000
0000
0000
,
0010
0000
0000
0000
,
1000
0000
0000
0000
,
0001
0000
0000
0000
,
1001
0000
0000
0000
;

//---------------dance-single - ----------------
#NOTES:
     dance-single:
     Lisek:
     Easy:
     2:
     0.160,0.236,0.092,0.233,0.000:
0000
0000
0000
0000
,
0000
0000
0000
0000
,
0000
0000
0000
0000
,
0000
0000
0000
0000
,
1000
0000
0010
0000
,
1000
0000
0001
0000
,
0100
0000
0001
0000
,
2000
0000
3000
0000
,
0001
0000
1000
0000
,
0010
0000
0100
0000
,
0001
0000
1000
0000
,
0002
0000
0003
0000
,
1000
0000
1000
0000
,
0001
0000
0001
0000
,
1000
0000
0010
0000
,
0200
0000
0300
0000
,
0001
0000
1000
0000
,
0001
1000
0001
0000
,
2002
0000
0000
3003
,
2002
0000
0000
3003
,
1000
0000
0010
0000
,
1000
0001
1000
0000
,
2002
0000
0000
3003
,
2002
0000
0000
3003
,
0001
0000
0001
0000
,
1000
0000
1000
0000
,
0010
0000
0010
0000
,
0100
0000
0100
0000
,
0001
0000
1000
0000
,
0001
1000
0001
0000
,
2002
0000
0000
3003
,
2002
0000
0000
3003
,
2000
0000
3000
0000
,
0010
0000
0000
0000
,
0100
0000
0000
0000
,
0001
0000
0000
0000
,
0020
0000
0030
0000
,
0001
0000
0000
0000
,
1000
0000
0000
0000
,
0010
0000
0000
0000
,
0000
0000
0000
0000
,
0000
0000
0000
0000
,
1000
0000
0000
0000
,
0001
0000
0000
0000
,
1000
0000
0010
0000
,
1000
0000
0001
0000
,
0100
0000
0010
0000
,
2000
0000
3000
0000
,
0001
0000
1000
0000
,
0001
1000
0001
0000
,
2002
0000
0000
3003
,
2002
0000
0000
3003
,
1000
0000
0010
0000
,
1000
0001
1000
0000
,
2002
0000
0000
3003
,
2002
0000
0000
3003
,
1000
0000
0001
0000
,
0100
0000
0001
0000
,
1000
0000
0010
0000
,
0100
0000
0010
0000
,
1000
0000
0001
0000
,
1000
0001
1000
0000
,
2002
0000
0000
0000
,
3003
0000
0000
0000
;

//---------------dance-single - ----------------
#NOTES:
     dance-single:
     Lisek:
     Medium:
     5:
     0.298,0.368,0.233,0.133,0.017:
0000
0000
0000
0000
,
0000
0000
0000
0000
,
0000
0000
0000
0000
,
0000
0000
0000
0000
,
1000
0010
0100
0010
,
1000
0001
0100
0010
,
0100
0000
0001
0000
1000
0000
0010
0100
,
0000
0010
0000
0100
0000
0000
0000
0000
,
0001
1000
0010
0100
,
0001
0010
0100
1000
,
0010
0000
0100
0000
0001
0000
1000
0010
,
0000
0100
0000
0010
0000
0000
0000
0000
,
1000
1100
0001
0101
,
1000
1100
0001
0101
,
1000
0000
0010
0000
0100
0000
0001
1000
,
0000
0001
0000
1000
0000
0000
0001
0000
,
0101
0000
1000
0010
1000
0000
0001
0100
,
0001
0000
1000
0001
1000
0000
0000
0000
,
2001
0010
0001
3001
,
1002
0100
1000
1003
,
1001
0000
0001
0100
0001
0000
1000
0010
,
1000
0000
0001
1000
0001
0000
0000
0000
,
1002
0100
1000
1003
,
2001
0010
0001
3001
,
1000
1010
0001
0101
,
0001
0000
0000
1000
0000
0000
0001
0000
0000
0000
0000
0000
0000
0000
0000
0000
,
0001
0101
1000
1010
,
1000
0000
0000
0001
0000
0000
1000
0000
0000
0000
0000
0000
0001
0000
0000
0000
,
0101
0000
1000
0010
1000
0000
0001
1000
,
0001
0000
1000
0100
1000
0000
0000
0000
,
2001
0010
0001
3001
,
2002
0000
0000
3003
,
1000
0010
1000
1000
,
0001
0100
0100
0001
,
1000
0001
0100
0010
,
2000
0000
0000
3000
,
0001
0100
0010
0010
,
1000
0100
0100
1000
,
0001
0100
0010
1000
,
0000
0002
0000
0000
,
0003
2000
0000
0000
,
3000
0002
0000
0000
,
1003
0000
0000
0000
,
0010
0000
0000
0000
,
1000
0000
0000
0000
,
0001
0000
0000
0000
,
1000
0000
0000
0000
,
0001
0000
0000
1000
,
1010
0000
0001
0100
0001
0000
1000
0001
,
1000
0000
0001
0010
0001
0000
0000
0000
,
2001
0010
0001
3001
,
1002
0100
1000
1003
,
0101
0000
1000
0010
1000
0000
0001
1000
,
0001
0000
1000
0100
1000
0000
0000
0000
,
1002
0100
1000
1003
,
2001
0010
0001
3001
,
1000
1100
0001
0101
,
0001
0000
0000
1000
0000
0000
0001
0000
0000
0000
0000
0000
0000
0000
0000
0000
,
0001
0011
1000
1010
,
1000
0000
0000
0001
0000
0000
1000
0000
0000
0000
0000
0000
0001
0000
0000
0000
,
1001
1000
0010
1000
,
0001
0100
0010
0000
,
0200
0000
0000
0000
,
0300
0000
0000
0000
;
