#TITLE:Vintage Future;
#SUBTITLE:;
#ARTIST:Nhato;
#TITLETRANSLIT:;
#SUBTITLETRANSLIT:;
#ARTISTTRANSLIT:;
#GENRE:;
#CREDIT:;
#BANNER:[Zenius -Inital- Vanisher] - Vintage Future.png;
#BACKGROUND:[Zenius -Inital- Vanisher] - Vintage Future-bg.png;
#LYRICSPATH:;
#CDTITLE:;
#MUSIC:Vintage Future.ogg;
#OFFSET:-0.001000;
#SAMPLESTART:27.420067;
#SAMPLELENGTH:12.000000;
#SELECTABLE:YES;
#BPMS:0.000000=140.000000
;
#STOPS:110.000000=0.429000
;
#BGCHANGES:;
#KEYSOUNDS:;
#ATTACKS:;

//---------------dance-single - ----------------
#NOTES:
     dance-single:
     :
     Hard:
     9:
     0.543731,0.570123,0.222487,0.341677,0.174811,408.000000,28.000000,43.000000,0.000000,0.000000,0.000000,0.543731,0.570123,0.222487,0.341677,0.174811,408.000000,28.000000,43.000000,0.000000,0.000000,0.000000:
0000
0000
0000
0000
,
0000
0000
0000
0000
,
0000
0000
0000
0000
,
0000
0000
0000
0000
,
0001
0000
1000
0010
1000
0000
0100
0000
,
0010
0000
0100
0000
1000
0001
0010
0000
,
0100
0000
1000
0010
1000
0000
0001
0000
,
1000
0000
0001
0010
0001
1000
0100
0000
,
1000
0000
0010
0100
0010
0000
0100
0000
,
0001
0000
0010
0000
1000
0100
0010
0000
,
0100
0000
1000
0010
0100
0000
0001
0000
,
1000
0010
1000
0100
0010
0100
0010
0001
,
1000
1000
0010
0010
,
0100
0100
0001
0001
,
1000
0100
0010
0001
1000
0100
0010
0001
,
1000
0010
0100
0001
0010
0000
0200
2300
,
3010
0000
1000
0000
0100
0000
1000
0000
0010
0000
0100
0010
0000
0100
0010
0000
,
0100
0000
0001
0000
0010
0000
0001
0000
0100
0000
0010
1000
0000
0010
1000
0000
,
0001
0000
0010
0000
0100
0000
0010
0000
0001
0000
1000
0010
0000
1000
0010
0000
,
1000
0000
0010
0000
0100
0000
0010
0000
1000
0000
0001
0010
0000
0001
0010
0000
,
0100
0000
1000
0000
0010
0000
0100
0000
0001
0000
0010
0100
0000
0100
1000
0000
,
0001
0000
0100
0000
0001
0000
1000
0000
0100
0000
0010
0001
0000
0001
1000
0000
,
0001
0000
0100
0000
0001
0000
0010
0000
0100
0000
1000
0100
0000
0100
0010
0000
,
0001
0000
1000
0000
0001
0000
1000
0000
0000
1010
0000
0011
0000
0001
1000
0001
,
0100
0000
0010
0000
0100
0000
0010
0000
0100
0000
0001
0100
0000
0010
1000
0010
,
1000
0000
0100
0000
1000
0000
0001
0000
0100
0000
0010
1000
0000
1000
0001
1000
,
0010
0000
1000
0000
0001
0000
0010
0000
0001
0000
1000
0001
0000
0001
0010
0001
,
0010
0100
1000
0100
0000
0000
0010
1000
,
0010
0000
0001
0000
0010
0000
0100
1000
0000
1000
0001
1000
0001
0000
0100
0000
,
1000
0000
0100
0000
0001
0000
0010
0100
0000
0100
1000
0100
1000
0000
0010
0000
,
0100
0000
0001
0000
0010
0000
0100
0010
0000
0001
1000
0001
1000
0000
0000
1010
,
0000
0000
0010
0000
0000
0110
0000
0000
0100
0000
0001
0000
0021
0000
0000
0000
,
0031
0010
0100
0000
1100
0000
2010
0000
,
3010
0100
0001
0000
1001
0000
0021
0000
,
0130
0010
0001
0000
0101
0000
2010
0000
,
3001
0000
0100
0001
0100
0000
0000
0000
0110
0000
0000
0000
1020
0000
0000
0000
,
0130
0001
0010
0000
0110
0000
2100
0000
,
3100
1000
0001
0000
0101
0000
0021
0000
,
0130
1000
0010
0000
0110
0000
1002
0000
,
1003
0000
0001
0010
0001
0000
0000
0000
0010
0000
0100
1000
0020
0000
0000
0000
,
0000
2000
0000
0000
0000
0000
0000
0000
,
0000
0000
3030
0020
,
0000
0200
0000
0000
0000
0000
0000
0000
,
0000
0000
0330
0200
,
0000
0002
0000
0000
0000
0000
0000
0000
,
0000
0000
0303
0002
,
0000
2000
0000
0000
0000
0000
0000
0000
,
0000
0000
3003
0102
,
0103
0020
0100
0000
1030
0000
0100
0000
,
0010
0000
0001
0000
1000
0000
0000
0000
0010
0000
0100
0001
0200
0000
0000
0000
,
0310
2000
0001
0000
3100
0010
0002
0000
,
0013
0001
1000
0000
0001
0000
0100
1000
,
0100
0020
1000
0000
0130
0000
0010
0000
,
1000
0001
0010
0000
0100
0010
0002
0000
,
1003
0020
0100
0000
1000
0000
0130
0010
,
1000
0001
0010
1000
0010
0001
2000
0000
,
3001
0020
0100
0000
0130
0000
0010
0000
,
0001
0000
1000
0000
0010
0000
0000
0000
1000
0000
0001
0010
0002
0000
0000
0000
,
0013
0200
0000
1300
0100
2000
0001
0000
,
0001
0000
0010
0000
3010
0000
0100
0010
,
1000
0002
0100
0000
0100
0000
0010
0000
,
0010
0000
1000
0000
1003
0001
0020
0000
,
0130
2000
0001
0000
0001
0000
0100
0000
,
0100
0010
3010
2010
,
3010
0100
0001
0010
0100
1000
2100
0000
,
3100
0010
0001
1000
0010
0100
0201
0000
,
0301
0010
0100
0010
0001
1000
1020
0000
,
1030
0001
0100
0001
1000
0100
0021
0000
,
0031
0100
0010
1000
0001
0100
0120
0000
,
0130
0010
1000
0001
0010
0100
2001
0000
,
3001
0100
0010
1000
0100
0010
0012
0000
,
0013
0000
0001
0000
1000
0000
0010
0000
0100
0000
0001
0020
0030
0000
0000
0000
;

//---------------dance-single - ----------------
#NOTES:
     dance-single:
     :
     Medium:
     6:
     0.347352,0.399086,0.230433,0.230433,0.019865,248.000000,29.000000,29.000000,0.000000,0.000000,0.000000,0.347352,0.399086,0.230433,0.230433,0.019865,248.000000,29.000000,29.000000,0.000000,0.000000,0.000000:
0000
0000
0000
0000
,
0000
0000
0000
0000
,
0000
0000
0000
0000
,
0000
0000
0000
0000
,
1000
0100
0100
1000
,
0010
0100
0100
0001
,
0010
0100
0100
0010
,
0001
0100
1000
0100
,
0001
0010
0100
1100
,
1000
0100
0010
0011
,
0001
0100
0010
1001
,
0100
0010
1000
1001
,
0002
0000
0000
0020
0000
0000
0000
0000
,
0000
0000
0000
0033
,
0020
0000
0000
0200
0000
0000
0000
0000
,
0000
0000
0330
1001
,
0001
0000
0100
0000
0010
1000
0010
1000
,
0100
0000
0010
0000
0001
0010
0001
0010
,
0001
0000
1000
0000
0001
0100
0001
0100
,
0001
0000
0100
0000
0010
0100
0010
0100
,
0010
0000
1000
0000
0100
1000
0100
1000
,
0100
0000
1000
0000
0010
0100
0010
0100
,
0010
0000
1000
0000
0001
0100
0001
0100
,
0001
0000
0000
0000
1000
0000
0000
0000
0000
1001
0000
1001
0000
0000
0000
0000
,
0001
0000
0010
0100
1000
0000
1100
0000
,
1000
0000
0010
0100
0001
0000
1001
0000
,
0001
0000
0010
0100
1000
0000
1010
0000
,
0100
0000
0010
1000
0000
0000
0001
0100
,
0001
0100
0001
0000
0101
0000
1000
0100
,
1000
0100
1000
0000
1100
0000
1000
0010
,
1000
0000
0010
0000
1000
0000
0000
0000
1010
0000
0000
0000
1000
0000
0000
0010
,
0000
0000
0100
0000
0000
0001
0000
0000
0010
0000
0100
0000
1100
0000
0000
0000
,
0100
1000
0100
0000
0010
0000
0011
0000
,
0001
0100
0001
0000
0100
0000
0110
0000
,
0010
1000
0010
0000
1000
0000
1001
0000
,
0001
0100
0001
0000
1000
0000
1100
0000
,
0100
0010
0100
0000
0001
0000
0011
0000
,
0001
0100
0001
0000
0100
0000
0110
0000
,
0010
1000
0010
0000
0100
0000
0110
0000
,
0010
1000
0001
0000
0100
0010
2000
0000
,
0000
0002
0000
0000
0000
0000
0000
0000
,
0000
0000
3003
0002
,
0000
2000
0000
0000
0000
0000
0000
0000
,
0000
0000
3003
0200
,
0000
0020
0000
0000
0000
0000
0000
0000
,
0000
0000
0330
0020
,
0000
0200
0000
0000
0000
0000
0000
0000
,
0000
0000
0330
0020
,
0000
0002
0000
0000
0000
0000
0000
0000
,
0000
0000
0000
0000
0033
0001
2000
0000
,
0000
3002
0000
0000
0103
0002
0000
0000
,
0000
0000
0000
0000
0003
0000
1000
0100
,
0010
0200
0000
0000
0000
0000
0000
0000
,
0000
0000
0000
0000
1300
0010
0200
0000
,
0301
0020
0000
0000
0000
0000
0000
0000
,
0000
0000
0030
0200
,
0000
2000
0000
0000
0000
0000
0000
0000
,
0000
0000
0000
0000
3300
1000
0002
0000
,
1003
0002
0000
0000
0103
0002
0000
0000
,
0000
0000
0000
0000
0000
0003
0100
0001
,
0010
0200
0000
0000
0000
0000
0000
0000
,
0000
0000
0000
0000
0310
0001
2000
0000
,
3010
2000
0000
0000
0000
0000
0000
0000
,
0000
0000
3000
1001
,
0001
0100
0001
0000
0010
0000
0110
0000
,
0100
0010
0100
0000
1000
0000
1100
0000
,
0100
0010
0001
0000
1000
0000
1001
0000
,
0001
1000
0100
0000
1000
0000
1100
0000
,
0100
0010
0001
0000
1000
0000
0101
0000
,
0001
1000
0010
0000
0100
0000
1001
0000
,
0001
0100
0010
0000
1000
0000
0010
0000
,
0100
0000
0001
0000
1000
0000
0000
0000
1001
0000
0000
0020
0030
0000
0000
0000
;

//---------------dance-single - ----------------
#NOTES:
     dance-single:
     :
     Easy:
     4:
     0.265622,0.370257,0.166865,0.230433,0.000000,184.000000,21.000000,29.000000,0.000000,0.000000,0.000000,0.265622,0.370257,0.166865,0.230433,0.000000,184.000000,21.000000,29.000000,0.000000,0.000000,0.000000:
0000
0000
0000
0000
,
0000
0000
0000
0000
,
0000
0000
0000
0000
,
0000
0000
0000
0000
,
0002
0000
0000
0020
0000
0000
0000
0000
,
0000
0000
0000
0033
,
0020
0000
0000
0200
0000
0000
0000
0000
,
0000
0000
0000
0330
,
0200
0000
0000
2000
0000
0000
0000
0000
,
0000
0000
0000
3300
,
2000
0000
0000
0020
0000
0000
0000
0000
,
0000
0000
0000
3030
,
0020
0000
0000
0200
0000
0000
0000
0000
,
0000
0000
0000
0330
,
0002
0000
0000
2000
0000
0000
0000
0000
,
0000
0000
3003
0110
,
0001
0100
0001
0001
,
1000
0100
1000
1000
,
0010
0100
0001
0001
,
1000
0100
0010
0010
,
0100
1000
0001
0001
,
0100
0010
1000
1000
,
0010
0100
0001
0001
,
1000
0001
0000
0000
,
0001
1000
0010
0010
,
1000
0001
0010
0010
,
0100
1000
0001
0001
,
1000
0001
0000
0100
,
0001
0010
0010
0100
,
1000
0010
0010
0100
,
0001
1000
1000
1001
,
0000
0000
0000
0101
,
0001
0100
0010
0110
,
0010
1000
0010
1010
,
1000
0100
1000
1100
,
0100
0010
0001
1001
,
0001
0100
0001
1001
,
1000
0100
0010
0110
,
0010
0100
1000
1001
,
0001
0100
0010
2000
,
0000
0002
0000
0000
0000
0000
0000
0000
,
0000
0000
3003
0002
,
0000
2000
0000
0000
0000
0000
0000
0000
,
0000
0000
3003
2000
,
0000
0002
0000
0000
0000
0000
0000
0000
,
0000
0000
3003
0002
,
0000
2000
0000
0000
0000
0000
0000
0000
,
0000
0000
3003
0001
,
0100
0001
1000
0100
,
1000
1000
0100
1000
,
0010
0010
0100
0001
,
0100
1000
0100
0001
,
0010
0010
0001
1000
,
0100
0100
1000
0010
,
0100
0001
1000
0100
,
1000
0001
0100
0002
,
0000
0020
0000
0000
0000
0000
0000
0000
,
0000
0000
0033
0010
,
0000
0100
0000
0000
1000
0200
0000
0000
,
0000
0000
0300
2000
,
0000
0002
0000
0000
0000
0000
0000
0000
,
0000
0000
3003
0002
,
0000
0020
0000
0000
0000
0000
0000
0000
,
0000
0000
0033
1001
,
0001
1000
0100
1001
,
0001
1000
0010
1001
,
1000
0001
0010
1001
,
1000
0001
0010
0101
,
0001
0100
0010
1100
,
1000
0100
0010
1100
,
0100
0010
0001
0011
,
1100
0000
0000
0000
0011
0000
0000
0000
2002
0000
0000
3003
0000
0000
0000
0000
;

//---------------dance-single - ----------------
#NOTES:
     dance-single:
     :
     Beginner:
     1:
     0.094216,0.113627,0.143027,0.000000,0.000000,65.000000,18.000000,0.000000,0.000000,0.000000,0.000000,0.094216,0.113627,0.143027,0.000000,0.000000,65.000000,18.000000,0.000000,0.000000,0.000000,0.000000:
// measure 0
0000
0000
0000
0000
,  // measure 1
0000
0000
0000
0000
,  // measure 2
0000
0000
0000
0000
,  // measure 3
0000
0000
0000
0000
,  // measure 4
0001
0000
0000
0000
,  // measure 5
0000
0000
0000
0000
,  // measure 6
0010
0000
0000
0000
,  // measure 7
0000
0000
0000
0000
,  // measure 8
0100
0000
0000
0000
,  // measure 9
0000
0000
0000
0000
,  // measure 10
0001
0000
0000
0000
,  // measure 11
0000
0000
0000
0000
,  // measure 12
1000
0000
0000
0000
,  // measure 13
0000
0000
0000
0000
,  // measure 14
0010
0000
0000
0000
,  // measure 15
0000
0000
0100
1001
,  // measure 16
0110
0000
0000
0000
,  // measure 17
0010
0000
0000
0000
,  // measure 18
1000
0000
0000
0000
,  // measure 19
1000
0000
0000
0000
,  // measure 20
0100
0000
0000
0000
,  // measure 21
0010
0000
0000
0000
,  // measure 22
0001
0000
0000
0000
,  // measure 23
0001
0000
1000
0000
,  // measure 24
0010
0000
0000
0000
,  // measure 25
0010
0000
0000
0000
,  // measure 26
0100
0000
0000
0000
,  // measure 27
0001
0000
0000
1000
,  // measure 28
0000
0000
0000
0001
,  // measure 29
0000
0000
0000
0100
,  // measure 30
0000
0000
0000
0010
,  // measure 31
0000
0100
0000
1001
,  // measure 32
0000
0000
0000
1001
,  // measure 33
0000
0000
0000
0110
,  // measure 34
0000
0000
0000
0110
,  // measure 35
0000
0000
0000
1001
,  // measure 36
0000
0000
0000
0110
,  // measure 37
0000
0000
0000
1001
,  // measure 38
0000
0000
0000
0110
,  // measure 39
0000
0000
0000
0010
,  // measure 40
0000
0000
0000
0000
,  // measure 41
0000
0000
0000
0100
,  // measure 42
0000
0000
0000
0000
,  // measure 43
0000
0000
0000
0001
,  // measure 44
0000
0000
0000
0000
,  // measure 45
0000
0000
0000
1000
,  // measure 46
0000
0000
0000
0000
,  // measure 47
0000
0000
0000
1000
,  // measure 48
0000
0001
0000
0000
,  // measure 49
0000
0000
0000
0100
,  // measure 50
0000
0010
0000
0100
,  // measure 51
0000
0000
0000
0001
,  // measure 52
0000
0000
0000
0000
,  // measure 53
0000
0000
1000
1000
,  // measure 54
0000
0001
0000
0000
,  // measure 55
0000
0000
0000
0100
,  // measure 56
0000
0100
0000
0000
,  // measure 57
0000
0000
0000
0010
,  // measure 58
0000
1000
0000
0001
,  // measure 59
0000
0000
0000
1000
,  // measure 60
0000
1000
0000
0000
,  // measure 61
0000
0000
0000
0010
,  // measure 62
0000
0100
0000
0000
,  // measure 63
0000
0000
0000
1001
,  // measure 64
0000
0000
0000
1001
,  // measure 65
0000
0000
0000
1001
,  // measure 66
0000
0000
0000
1001
,  // measure 67
0000
0000
0000
0110
,  // measure 68
0000
0000
0000
0110
,  // measure 69
0000
0000
0000
0110
,  // measure 70
0000
0000
0000
1001
,  // measure 71
0000
0000
0010
0000
;
