#VERSION:0.81;
#TITLE:Vanilla Twilight;
#SUBTITLE:;
#ARTIST:Owl City;
#TITLETRANSLIT:;
#SUBTITLETRANSLIT:;
#ARTISTTRANSLIT:;
#GENRE:;
#ORIGIN:;
#CREDIT:;
#BANNER:Vanilla Twilight - Owl Citybn.png;
#BACKGROUND:Vanilla Twilight - Owl Citybg.png;
#PREVIEWVID:;
#JACKET:;
#CDIMAGE:;
#DISCIMAGE:;
#LYRICSPATH:Vanilla Twilight - Owl City.lrc;
#CDTITLE:encorerebirth.png;
#MUSIC:Vanilla Twilight - Owl City.ogg;
#OFFSET:0.017;
#SAMPLESTART:69.298;
#SAMPLELENGTH:11.546;
#SELECTABLE:YES;
#BPMS:0.000=83.000;
#STOPS:;
#DELAYS:;
#WARPS:;
#TIMESIGNATURES:0.000=4=4;
#TICKCOUNTS:0.000=4;
#COMBOS:0.000=1;
#SPEEDS:0.000=1.000=0.000=0;
#SCROLLS:0.000=1.000;
#FAKES:;
#LABELS:0.000=Song Start;
#BGCHANGES:;
#KEYSOUNDS:;
#ATTACKS:
;

//---------------dance-single - Spork!----------------
#NOTEDATA:;
#CHARTNAME:;
#STEPSTYPE:dance-single;
#DESCRIPTION:Spork!;
#CHARTSTYLE:;
#DIFFICULTY:Beginner;
#METER:1;
#RADARVALUES:0.054,0.061,0.040,0.016,0.000,40.000,5.000,2.000,0.000,0.000,0.000,0.000,0.000,0.054,0.061,0.040,0.016,0.000,40.000,5.000,2.000,0.000,0.000,0.000,0.000,0.000;
#CREDIT:Spork!;
#NOTES:
0000
0000
0000
0000
,
0000
0000
0000
0000
,
0000
0000
0000
0000
,
0000
0000
0000
0000
,
0001
0000
0000
0000
,
0001
0000
0000
0000
,
1000
0000
0000
0000
,
1000
0000
0000
0000
,
1001
0000
0000
0000
,
0000
0000
0000
0000
,
0110
0000
0000
0000
,
0000
0000
0000
0000
,
1000
0000
0000
0000
,
0100
0000
0000
0000
,
0010
0000
0000
0000
,
0001
0000
1000
0000
,
0001
0000
0000
0000
,
0100
0000
0000
0000
,
0010
0000
1000
0000
,
0001
0000
0000
0000
,
1000
0000
1000
0000
,
0001
0000
0001
0000
,
1000
0000
0000
0000
,
0001
0000
0000
0000
,
0100
0000
0100
0000
,
0010
0000
0010
0000
,
0100
0000
0000
0000
,
0010
0000
0000
0000
,
2002
0000
0000
0000
,
3003
0000
0000
0000
,
1000
0000
0000
0000
,
0001
0000
0000
0000
,
0100
0000
0100
0000
,
0010
0000
0010
0000
,
1001
0000
0000
0000
,
0100
0000
0000
0000
,
0110
0000
0000
0000
,
1000
0000
0000
0000
,
0001
0000
0000
0000
;

//---------------dance-single - Spork!----------------
#NOTEDATA:;
#CHARTNAME:;
#STEPSTYPE:dance-single;
#DESCRIPTION:Spork!;
#CHARTSTYLE:;
#DIFFICULTY:Easy;
#METER:1;
#RADARVALUES:0.080,0.078,0.040,0.080,0.000,55.000,5.000,10.000,0.000,0.000,0.000,0.000,0.000,0.080,0.078,0.040,0.080,0.000,55.000,5.000,10.000,0.000,0.000,0.000,0.000,0.000;
#CREDIT:Spork!;
#NOTES:
0000
0000
0000
0000
,
0000
0000
0000
0000
,
0000
0000
0000
0000
,
0000
0000
0000
0000
,
1000
0000
0001
0000
,
0001
0000
0010
0000
,
0010
0000
0001
0000
,
1000
0000
0010
0000
,
2001
0000
0000
3000
,
0010
0000
1000
0000
,
1002
0000
0000
0003
,
0010
0000
0001
0000
,
0001
0000
0000
0000
,
0010
0000
0000
0000
,
0100
0000
0000
0000
,
1000
0000
0001
0000
,
2000
0000
0000
0000
,
3020
0000
0000
0000
,
0230
0000
0000
0000
,
0301
0000
1000
0000
,
0001
0000
0010
0000
,
0001
0000
0100
0000
,
0001
0000
0001
0000
,
1000
0000
0000
0000
,
1000
0000
0100
0000
,
1000
0000
0010
0000
,
1000
0000
1000
0000
,
0001
0000
1000
0000
,
2002
0000
0000
0000
,
3003
0000
0000
0000
,
0001
0000
0100
0000
,
0010
0000
1000
0000
,
0001
0000
0001
0000
,
1000
0000
1000
0000
,
2001
0000
0000
3000
,
0010
0000
0100
0000
,
1002
0000
0000
0003
,
0010
0000
0100
0000
,
0200
0000
0000
0000
,
0300
0000
0000
0000
;

//---------------dance-single - Spork!----------------
#NOTEDATA:;
#CHARTNAME:;
#STEPSTYPE:dance-single;
#DESCRIPTION:Spork!;
#CHARTSTYLE:;
#DIFFICULTY:Medium;
#METER:4;
#RADARVALUES:0.183,0.173,0.024,0.185,0.000,133.000,3.000,23.000,0.000,0.000,0.000,0.000,0.000,0.183,0.173,0.024,0.185,0.000,133.000,3.000,23.000,0.000,0.000,0.000,0.000,0.000;
#CREDIT:Spork!;
#NOTES:
0000
0000
0000
0000
,
0000
0000
0000
0000
,
0000
0000
0000
0000
,
0000
0000
0000
0000
,
0001
0100
0010
0000
,
1000
0100
0010
0000
,
0001
0010
0100
0000
,
1000
0010
0100
0000
,
0001
1000
0001
1001
,
1000
0000
0001
0000
1000
0001
1000
0001
,
0010
0100
0010
0110
,
0100
0000
0010
0000
0100
0010
0100
0000
,
2000
0000
3100
1000
,
0020
0000
1030
0001
,
0200
0000
0310
1000
,
0002
1000
2003
0001
,
3002
0000
0013
0001
,
0200
0000
0301
1000
,
0020
0000
0130
0001
,
2000
0001
3002
1000
,
1003
0200
1000
0310
,
0001
0200
0001
0310
,
1000
0020
1000
0130
,
0001
0000
0020
0000
0001
0000
0130
0100
,
1000
0002
0010
1003
,
0001
2000
0100
3001
,
1000
0002
0100
1003
,
0001
2000
0010
3001
,
1000
0000
0100
0000
1000
0001
1000
0000
,
0010
0000
0100
0000
0001
1000
0001
0000
,
1000
0000
0010
0000
1000
1000
0001
0000
,
0001
0000
0100
0000
0001
0001
1000
0000
,
1000
0000
1000
0000
,
0001
0000
0001
0110
,
2000
0010
3100
1000
,
0002
0000
1000
0000
0013
0000
0001
1000
,
0002
0010
0103
0001
,
2000
0001
3010
0100
,
0200
0000
0000
0000
,
0300
0000
0000
0000
;

//---------------dance-single - Spork!----------------
#NOTEDATA:;
#CHARTNAME:;
#STEPSTYPE:dance-single;
#DESCRIPTION:Spork!;
#CHARTSTYLE:;
#DIFFICULTY:Hard;
#METER:5;
#RADARVALUES:0.210,0.204,0.040,0.113,0.004,164.000,5.000,14.000,0.000,0.000,0.000,0.000,0.000,0.210,0.204,0.040,0.113,0.004,164.000,5.000,14.000,0.000,0.000,0.000,0.000,0.000;
#CREDIT:Spork!;
#NOTES:
0000
0000
0000
0000
,
0000
0000
0000
0000
,
0000
0000
0000
0000
,
0000
0000
0000
0000
,
0010
0000
1000
0000
0100
0010
0001
0000
,
0100
0000
0001
0000
0010
0100
1000
0000
,
0001
0001
1000
1000
,
0010
0100
0110
1001
,
0001
0100
0001
0100
0000
0000
0100
0010
,
0000
0010
0000
0100
0001
1000
0001
0001
,
1000
0100
1000
0100
0000
0000
0100
0010
,
0000
0000
0000
0010
0001
0000
1000
0000
0000
0000
0000
0000
1000
0000
1000
0000
,
0002
0000
0100
0000
0000
0000
0100
0003
,
2000
0000
0010
0000
0000
0000
0001
3000
,
1000
0100
1000
0010
,
0200
0000
0320
0000
,
2030
0000
0001
0000
0100
0000
0100
3000
,
0002
0000
1000
0000
0010
0000
0010
0003
,
1000
0010
1000
0100
,
0020
0100
0230
0010
,
1300
0001
0100
0000
0010
0000
0100
0000
,
0001
1000
0010
0000
1000
0000
0001
0000
,
1000
0100
0010
0000
0100
0010
0001
0000
,
1000
0000
0001
0000
1000
0001
1000
1000
,
0001
1000
0100
0000
0010
0000
0110
0000
,
1000
0001
0010
0000
0100
0000
0110
0000
,
0001
0100
0010
0000
0100
0010
1000
0000
,
0001
0000
1000
0000
0001
1000
0001
1000
,
0200
1000
0320
0001
,
0230
0000
0010
0000
0310
0001
1000
0000
,
0001
0000
0100
0000
0001
0001
1000
0000
,
1000
0000
0100
0000
1000
1000
0001
0000
,
0200
0000
0010
0300
0100
0010
1000
0000
,
0200
0000
0010
0300
0100
0010
1001
0000
,
1000
0010
1000
0010
0000
0000
0010
0100
,
0000
0100
0000
0010
1000
0001
1000
1000
,
0001
0010
0001
0010
0000
0000
0010
0100
,
0000
1000
0000
0001
0000
0000
0100
0000
,
0200
0000
0000
0000
,
0300
0000
0000
0000
;

//---------------dance-single - Spork!----------------
#NOTEDATA:;
#CHARTNAME:;
#STEPSTYPE:dance-single;
#DESCRIPTION:Spork!;
#CHARTSTYLE:;
#DIFFICULTY:Challenge;
#METER:8;
#RADARVALUES:0.377,0.502,0.145,0.233,0.241,281.000,18.000,29.000,32.000,0.000,13.000,0.000,0.000,0.377,0.502,0.145,0.233,0.241,281.000,18.000,29.000,32.000,0.000,13.000,0.000,0.000;
#CREDIT:Spork!;
#NOTES:
// measure 0
M000
M000
M000
M000
,  // measure 1
000M
000M
000M
000M
,  // measure 2
0M00
0M00
0M00
0M00
,  // measure 3
00M0
00M0
00M0
00M0
,  // measure 4
M100
0001
M010
0100
M010
0001
M100
0100
,  // measure 5
001M
1000
010M
0010
010M
1000
001M
0010
,  // measure 6
1M00
0000
0001
0000
0M10
0000
1000
0000
0M10
0000
0001
0000
1M00
0001
1000
0000
,  // measure 7
00M1
1000
01M0
0001
01M0
1000
10M1
0000
,  // measure 8
1000
0010
1000
0010
1000
0000
0004
0000
0000
0000
0000
0003
0010
0100
0040
0000
,  // measure 9
0000
0030
0400
0000
0000
0300
0010
0001
1000
0000
0010
0000
0100
0000
0100
0000
,  // measure 10
0001
0010
0001
0010
0001
0000
4000
0000
0000
0000
0000
3000
0010
0000
0400
0000
,  // measure 11
0000
0000
0300
0010
1000
0001
0040
0000
0000
0000
0000
0030
0001
0000
1000
0000
,  // measure 12
1002
0000
0000
0000
0100
0000
0000
0000
0100
0000
0010
0000
0013
0000
0000
0010
,  // measure 13
0200
0000
1000
0000
1000
0010
0310
0001
,  // measure 14
2000
0001
3020
1000
,  // measure 15
0230
0010
0302
1000
,  // measure 16
1003
0000
0100
1000
0000
0010
0000
0000
0100
0010
0000
0110
0000
0000
1001
0000
,  // measure 17
0000
0001
0010
0001
0000
0001
0100
0000
0010
0000
1000
0000
1001
0000
0110
0000
,  // measure 18
0002
1000
0023
0001
,  // measure 19
0230
0000
0000
0000
0010
0000
0000
0000
2300
0000
0001
0000
0100
0001
0000
0000
,  // measure 20
3001
0000
0010
0001
0100
0000
0010
1000
0100
0000
1000
0001
0010
0000
0100
0000
,  // measure 21
1000
0000
0010
1000
0100
0000
0010
0000
0001
0000
1000
0100
0010
0100
1000
0010
,  // measure 22
0100
0000
0001
0010
0100
0000
1000
0000
0010
0000
0001
0010
1000
0000
0100
0000
,  // measure 23
0010
0000
0001
0010
1000
0000
0010
0000
0100
0000
1000
0010
0100
0001
0100
0010
,  // measure 24
2000
0000
3100
1000
0020
0000
0230
0000
0302
0000
1003
0100
0020
0000
0031
1000
,  // measure 25
0002
0000
0103
0001
2000
0000
3020
0000
0230
0000
0301
0010
0100
0010
0001
0100
,  // measure 26
0020
0000
1030
0100
0010
0001
0020
0000
0230
0000
1300
0010
0100
0001
0200
0000
,  // measure 27
0320
0000
0000
0000
1030
0000
0100
0000
0001
0000
0000
0100
0000
0000
0010
0000
0001
0000
0000
0100
0000
0000
0010
0000
1000
0000
0010
0000
0100
0000
0001
0000
,  // measure 28
1000
0000
0100
0000
1100
0000
0100
0000
0010
0000
0001
0000
0101
0000
0010
1000
,  // measure 29
0001
0000
0010
0000
0011
0000
0010
0000
0100
0000
1000
0000
1010
0000
0010
0100
,  // measure 30
0001
1000
0110
0100
0001
0010
1001
0010
,  // measure 31
1000
0000
0100
0010
0110
0000
0100
0000
1000
0000
0010
0000
1001
0000
0100
0000
,  // measure 32
0002
0000
0010
0003
0011
0000
0001
0000
2000
0000
0010
3000
0110
0000
0000
0001
,  // measure 33
2000
0000
0100
3000
1100
0000
1000
0000
0001
1000
0010
0000
0210
0000
0000
0000
,  // measure 34
0301
0010
0001
0010
0001
0000
4000
0000
0000
0000
0000
3000
0010
0100
0040
0000
,  // measure 35
0000
0030
0400
0000
0000
0300
0010
1000
0001
0000
0010
0000
0100
0000
0100
0000
,  // measure 36
1000
0010
1000
0010
1000
0000
0004
0000
0000
0000
0000
0003
0010
0000
0400
0000
,  // measure 37
0000
0300
0040
0000
0000
0030
0400
0000
0000
0300
0000
0000
1000
0000
0000
0000
,  // measure 38
0002
0000
0000
0000
,  // measure 39
0003
0000
0000
0000
;
