#VERSION:0.81;
#TITLE:Spectrum (Assertive Remix);
#SUBTITLE:;
#ARTIST:Zedd ft. Matthew Koma;
#TITLETRANSLIT:;
#SUBTITLETRANSLIT:;
#ARTISTTRANSLIT:;
#GENRE:;
#ORIGIN:;
#CREDIT:;
#BANNER:spectrum-bn.png;
#BACKGROUND:spectrum-bg.png;
#PREVIEWVID:;
#JACKET:spectrum-jkt.png;
#CDIMAGE:;
#DISCIMAGE:;
#LYRICSPATH:;
#CDTITLE:;
#MUSIC:Spectrum (Assertive Remix) [short].mp3;
#OFFSET:-10.698000;
#SAMPLESTART:42.352001;
#SAMPLELENGTH:12.000000;
#SELECTABLE:YES;
#BPMS:0.000=180.000;
#STOPS:92.000=1.000;
#DELAYS:;
#WARPS:;
#TIMESIGNATURES:0.000=4=4,
92.000=1=4,
93.000=4=4;
#TICKCOUNTS:0.000=4;
#COMBOS:0.000=1;
#SPEEDS:0.000=1.000=0.000=0;
#SCROLLS:0.000=1.000;
#FAKES:;
#LABELS:0.000=Song Start;
#BGCHANGES:;
#KEYSOUNDS:;
#ATTACKS:
;

//---------------dance-single - ----------------
#NOTEDATA:;
#CHARTNAME:;
#STEPSTYPE:dance-single;
#DESCRIPTION:;
#CHARTSTYLE:;
#DIFFICULTY:Beginner;
#METER:1;
#RADARVALUES:0.106595,0.154775,0.043256,0.108140,0.000000,55.000000,4.000000,10.000000,0.000000,0.000000,0.000000,0.000000,0.000000,0.106595,0.154775,0.043256,0.108140,0.000000,55.000000,4.000000,10.000000,0.000000,0.000000,0.000000,0.000000,0.000000;
#CREDIT:;
#NOTES:
1000
0000
0000
0000
,
0010
0000
0000
0000
,
0100
0000
0000
0000
,
0001
0000
0000
0000
,
0010
0000
0000
0000
,
0100
0000
0000
0000
,
1000
0000
0000
0000
,
0001
0000
0000
0000
,
2002
0000
0000
0000
,
3003
0000
0000
0000
,
0220
0000
0000
0000
,
0330
0000
0000
0000
,
2002
0000
0000
0000
,
3003
0000
0000
0000
,
0100
0000
0000
0000
,
0010
0000
0000
0000
,
0100
0000
0000
0000
,
0100
0000
0000
0000
,
1000
0000
0000
0000
,
1000
0000
0000
0000
,
0001
0000
0001
0000
,
0001
0000
0001
0000
,
0100
0000
0100
0000
,
0100
0010
0000
0000
,
0000
0010
0000
0000
,
0000
1000
0000
0000
,
0000
1000
0000
0000
,
0000
0100
0000
0000
,
0000
0100
0000
0000
,
0000
0020
0000
0000
,
0000
0030
0000
0000
,
0000
0001
0000
0000
,
0000
0001
0000
0000
,
0000
0100
0000
0000
,
0000
0100
0000
0000
,
0000
0010
0000
0000
,
0000
0010
0000
0000
,
0000
2000
0000
0000
,
0000
3000
0000
0000
,
0000
0001
0000
0000
,
0000
0001
0000
0000
,
0000
0010
0000
0000
,
0000
0010
0000
0000
,
0000
0100
0000
0000
,
0000
0100
0000
0000
,
0000
1000
0000
0000
,
0000
1000
0000
0000
,
0000
0001
0000
0000
,
0000
0100
0000
0000
,
0000
0010
0000
0000
,
0000
1000
0000
0000
,
0000
0100
0000
0000
,
0000
0010
0000
0000
,
0000
0001
0000
0000
,
0000
1000
0000
0000
,
0000
2002
0000
0000
,
0000
0000
0000
0000
,
0000
3003
0000
0000
;

//---------------dance-single - ----------------
#NOTEDATA:;
#CHARTNAME:;
#STEPSTYPE:dance-single;
#DESCRIPTION:;
#CHARTSTYLE:;
#DIFFICULTY:Easy;
#METER:4;
#RADARVALUES:0.279618,0.278595,0.118954,0.291977,0.000000,143.000000,11.000000,27.000000,0.000000,0.000000,0.000000,0.000000,0.000000,0.279618,0.278595,0.118954,0.291977,0.000000,143.000000,11.000000,27.000000,0.000000,0.000000,0.000000,0.000000,0.000000;
#CREDIT:;
#NOTES:
1000
0000
1000
0000
,
0001
0000
0001
0000
,
0100
0000
0100
0000
,
0010
0000
0010
0000
,
0100
0000
0001
0000
,
1000
0000
0100
0000
,
0010
0000
0001
0000
,
1000
0000
0010
0000
,
0210
0000
0000
0000
,
0320
0000
0230
0000
,
0302
0000
0000
0000
,
2003
0000
3200
0000
,
0320
0000
0000
0000
,
0230
0000
2300
0000
,
0001
0000
0001
0000
,
0002
0000
3003
0000
,
1002
0000
0000
0000
,
0203
0000
0320
0000
,
2030
0000
0000
0000
,
3002
0000
0023
0000
,
0230
0000
0000
0000
,
2300
0000
3002
0000
,
0203
0000
0000
0000
,
0310
0010
1000
0100
,
1000
0001
0100
0010
,
0100
0001
0010
0100
,
1000
0010
0100
0001
,
1000
0001
0010
1000
,
0010
0001
0100
0010
,
1000
0200
0010
0010
,
0310
0002
1000
1000
,
1003
0010
0100
0001
,
0100
0010
1000
0100
,
1000
0010
0100
0001
,
1000
0100
0010
0001
,
1000
0010
0100
0001
,
0100
0010
0001
0100
,
1000
0020
0100
0100
,
0130
0002
0000
2000
,
3003
0001
1000
0000
,
0001
1000
0010
0000
,
0010
0100
0001
0000
,
0001
1000
0100
0000
,
0100
0010
0100
0000
,
0100
1000
0010
0000
,
0010
0100
0001
0000
,
0001
1000
0100
0000
,
0010
0001
0000
1001
,
0000
1000
0000
1100
,
0000
0001
0000
0011
,
0000
0100
0000
0110
,
0000
1000
0000
1001
,
0000
0010
0000
0101
,
0000
0010
0000
1100
,
0000
0001
0100
0110
,
0000
2002
0000
0000
,
0000
0000
0000
0000
,
0000
3003
0000
0000
;

//---------------dance-single - ----------------
#NOTEDATA:;
#CHARTNAME:;
#STEPSTYPE:dance-single;
#DESCRIPTION:;
#CHARTSTYLE:;
#DIFFICULTY:Medium;
#METER:5;
#RADARVALUES:0.359951,0.340505,0.054070,0.356861,0.000000,195.000000,5.000000,33.000000,0.000000,0.000000,0.000000,0.000000,0.000000,0.359951,0.340505,0.054070,0.356861,0.000000,195.000000,5.000000,33.000000,0.000000,0.000000,0.000000,0.000000,0.000000;
#CREDIT:;
#NOTES:
// measure 0
1000
1000
0001
0010
,  // measure 1
1000
0010
0001
0100
,  // measure 2
0020
0000
1030
0010
,  // measure 3
0001
0010
1000
0100
,  // measure 4
0002
0000
0103
1000
,  // measure 5
0001
0000
0100
0000
0010
0000
1000
0001
,  // measure 6
0000
0001
0000
0010
0000
0100
0000
2000
,  // measure 7
0000
0000
3002
0000
,  // measure 8
2003
0000
0000
0000
0000
0000
0000
0100
,  // measure 9
0000
0001
0000
0100
0000
0001
0000
0000
,  // measure 10
3002
0000
0000
0000
0000
0000
0000
0010
,  // measure 11
0000
1000
0000
0010
0000
1000
0000
0000
,  // measure 12
0023
0000
0000
0000
0000
0000
0000
1000
,  // measure 13
0000
0001
0000
1000
0000
0100
0000
0002
,  // measure 14
0030
0000
0000
0000
0000
0000
0000
2000
,  // measure 15
0003
3000
0000
0002
0000
0000
1003
0000
,  // measure 16
0010
0010
0010
0010
,  // measure 17
0100
0100
0100
0100
,  // measure 18
0001
0001
0001
0001
,  // measure 19
1000
1000
1000
1000
,  // measure 20
0001
0010
0100
1000
,  // measure 21
0001
0100
0010
1000
,  // measure 22
0001
0010
0001
0000
1000
0010
1000
0000
,  // measure 23
1001
0001
0010
0100
,  // measure 24
0000
0010
0000
0001
0000
1000
0000
0020
,  // measure 25
0000
0130
0001
1000
,  // measure 26
0000
0100
0000
0001
0000
0100
0000
0020
,  // measure 27
0000
0031
1000
0010
,  // measure 28
0000
0100
0000
1000
0000
0010
0000
0001
,  // measure 29
0000
0200
0000
0000
1000
0000
0001
0000
,  // measure 30
1000
0320
0001
1000
,  // measure 31
0100
1030
0100
0010
,  // measure 32
0000
0001
0000
0100
0000
0010
0000
2000
,  // measure 33
0000
3001
0010
0001
,  // measure 34
0000
0100
0000
0010
0000
0100
0000
0002
,  // measure 35
0000
1003
0100
0010
,  // measure 36
0000
0100
0000
1000
0000
0010
0000
0001
,  // measure 37
0000
0200
0000
0000
0010
0000
0001
0000
,  // measure 38
1000
0000
0320
0000
0000
1000
0000
0000
,  // measure 39
0000
0000
0032
0000
0013
0000
0000
0100
,  // measure 40
1000
0000
0002
0000
0103
0000
0000
0010
,  // measure 41
1000
0000
0200
0000
0310
0000
0000
0001
,  // measure 42
1000
0000
0020
0000
0130
0001
0000
0001
,  // measure 43
1000
0000
0200
0000
0310
0000
0000
0100
,  // measure 44
1000
0000
0020
0000
0130
0001
0000
0001
,  // measure 45
0010
0000
0200
0000
1300
0000
0000
0100
,  // measure 46
1000
0000
0002
0000
0103
0010
0000
0100
,  // measure 47
0001
1000
0100
1100
,  // measure 48
1000
0002
0000
0103
,  // measure 49
0000
0010
0100
0101
,  // measure 50
0001
0020
0000
0130
,  // measure 51
0000
1000
0100
0011
,  // measure 52
0100
2000
0000
3010
,  // measure 53
0000
0100
0001
0100
,  // measure 54
0010
2000
0001
0002
,  // measure 55
3003
0220
0000
0000
,  // measure 56
0000
0000
0000
0000
,  // measure 57
0000
0330
0000
0000
;

//---------------dance-single - ----------------
#NOTEDATA:;
#CHARTNAME:;
#STEPSTYPE:dance-single;
#DESCRIPTION:;
#CHARTSTYLE:;
#DIFFICULTY:Hard;
#METER:7;
#RADARVALUES:0.519070,0.495280,0.562326,0.475815,0.000000,240.000000,52.000000,44.000000,0.000000,0.000000,0.000000,0.000000,0.000000,0.519070,0.495280,0.562326,0.475815,0.000000,240.000000,52.000000,44.000000,0.000000,0.000000,0.000000,0.000000,0.000000;
#CREDIT:;
#NOTES:
0001
0000
0010
0000
0100
1000
0100
0000
,
0010
0000
0001
1000
0001
0000
0100
0000
,
0210
0000
0000
0000
0310
1000
0010
0000
,
0100
0000
0001
1000
0001
0000
0010
0000
,
0120
0000
0000
0000
0130
1000
0100
0000
,
0010
0000
0001
0000
1000
0000
0010
0100
,
0000
0002
0000
0010
0000
1000
0000
0203
,
0000
0000
0000
0010
0000
0000
0310
0000
,
2000
0000
0000
0000
0000
0000
3010
0100
,
0000
0101
0000
1001
0000
1100
0000
0000
,
0200
0000
0000
0000
0000
0000
0310
0001
,
0000
0011
0000
1100
0000
1001
0000
0000
,
0020
0000
0000
0000
0000
0000
0130
0001
,
0000
0101
0000
1010
0000
0101
0000
2001
,
0000
0000
0000
0000
0000
0000
0000
3002
,
0000
0203
0000
0320
0000
0000
1030
0000
,
1010
0000
1010
0000
1010
0000
1000
0001
,
0000
0011
0000
1100
0000
0011
0000
0000
,
0101
0000
0101
0000
0101
0000
0100
0010
,
0000
1010
0000
0101
0000
1001
0000
0000
,
0001
0010
0001
0010
0100
1000
0100
1000
,
0001
0100
0001
0100
0010
1000
0010
1000
,
0010
1000
0001
0100
0010
0100
0001
1000
,
0100
0021
1000
0100
,
0031
0100
0000
0110
0000
1010
0000
0101
,
0000
1020
0100
0001
,
0130
0010
0000
1010
0000
0101
0000
1001
,
0000
0000
1200
0000
0001
0000
0010
0300
,
1000
0100
0000
0110
0000
0011
0000
1100
,
0000
2001
0000
0000
0010
0000
0100
0000
,
0001
3020
0100
1000
,
0130
0000
0102
0000
0010
0000
1000
0003
,
0100
0001
0000
0011
0000
1100
0000
1001
,
0000
0201
0010
1000
,
0310
1000
0000
1010
0000
0101
0000
0011
,
0000
2100
0010
0001
,
3100
0001
0000
0101
0000
0110
0000
0011
,
0000
2001
0000
0000
0010
0000
0100
0000
,
0001
0000
3020
0000
0000
0200
0000
0000
,
0330
0000
0002
0000
0103
0000
0010
1000
,
0200
0000
2300
0000
3010
0000
0100
0001
,
0200
0000
0320
0000
1030
0000
0001
0010
,
0002
0000
2003
0000
3100
0010
0000
0010
,
0100
0000
2000
0000
3010
0000
0100
0001
,
0200
0000
0320
0000
1030
0100
0000
0100
,
2000
0000
3020
0000
0130
0000
0001
1000
,
0200
0000
0320
0000
0130
1000
0000
1000
,
0001
0020
0001
0130
,
1000
0100
1000
0001
0100
0000
0010
0000
,
0100
0000
0002
0000
1000
0000
0100
0003
,
0010
0001
0100
0001
1000
0000
0100
0000
,
0010
0200
1000
0310
,
0001
0010
0100
1000
0001
0000
0100
0000
,
0010
0000
2000
0000
0001
0000
0010
3000
,
0100
0010
0100
1000
0001
0000
2002
0000
,
3003
0220
0000
0000
,
0000
0000
0000
0000
,
0000
0330
0000
0000
;
