#TITLE:Insecure Containment Protocol;
#SUBTITLE:;
#ARTIST:S.P.F.Y.;
#TITLETRANSLIT:;
#SUBTITLETRANSLIT:;
#ARTISTTRANSLIT:;
#GENRE:;
#CREDIT:;
#BANNER:[Zenius -Initial- Vanisher] - Insecure Containment Protocol.png;
#BACKGROUND:[Zenius -Initial- Vanisher] - Insecure Containment Protocol-bg.png;
#LYRICSPATH:;
#CDTITLE:cdtitle.png;
#MUSIC:[Zenius -Initial- Vanisher] - Insecure Containment Protocol.ogg;
#OFFSET:0.000000;
#SAMPLESTART:15.565000;
#SAMPLELENGTH:20.756756;
#SELECTABLE:YES;
#DISPLAYBPM:*;
#BPMS:0.000000=370.000000
,16.000000=92.500000
,24.000000=185.000000
,36.000000=370.000000
,52.000000=185.000000
,133.000000=61.666996
,133.500000=185.000000
,164.000000=61.666996
,164.500000=185.000000
,182.000000=92.500000
,198.000000=185.000000
,230.000000=370.000000
,246.000000=185.000000
,318.000000=370.000000
,326.000000=92.500000
;
#STOPS:
;
#BGCHANGES:;
#KEYSOUNDS:;
#ATTACKS:;

//---------------dance-single - S-EXPERT----------------
#NOTES:
     dance-single:
     xRGTMx-ESP:
     Hard:
     11:
     0.865937,1.000000,0.315341,0.148911,0.937265,639.000000,36.000000,17.000000,0.000000,0.000000,0.000000,0.865937,1.000000,0.315341,0.148911,0.937265,639.000000,36.000000,17.000000,0.000000,0.000000,0.000000:
0000
0000
0000
0000
,
0000
0000
0000
0000
,
0000
0000
0000
0000
,
0000
0000
0000
0000
,
0220
0000
0300
2030
,
0002
0000
3000
0023
,
0130
0000
0100
0000
0100
0000
0010
0001
,
1000
0000
0000
0000
0010
0000
0000
1001
0000
0000
1000
0000
0001
0010
0100
0000
,
1000
0000
0001
0100
0001
0000
1000
0100
1000
0000
0010
0000
1000
0001
0100
0001
,
0020
0000
0000
0000
,
0000
0000
0000
0000
,
0000
0000
0000
0000
,
0000
0000
0000
0000
,
0130
0000
0000
0000
0010
0000
0100
0000
1000
0100
1000
0001
0100
0001
1000
0100
,
0010
0000
0000
0010
0001
0000
0000
0001
0100
0000
0010
0000
1000
0100
1000
0001
,
1000
0000
0000
0001
0100
0000
0000
0010
1000
0000
0001
0000
1000
0000
0100
0000
,
0010
0000
0000
0010
0001
0000
0000
0001
1000
0000
0010
0000
0100
0010
0100
0001
,
1000
0000
0000
0100
0010
0000
0000
0001
1000
0000
0100
0000
0010
0100
1000
0001
,
0100
0000
0000
0010
1000
0000
0001
0000
0010
0001
0010
0000
0001
0100
0001
0000
,
0100
0000
0010
1000
0010
0000
0000
0100
0001
0000
1000
0000
0100
0000
0010
0000
,
0001
0000
0010
0100
1000
0000
0001
0000
0100
0000
0010
1000
0010
0000
0100
0000
,
0001
0010
0001
0000
0010
0100
0010
0000
0100
1000
0100
1000
0001
0100
0001
0100
,
0010
0000
0000
0010
1000
0000
0000
1000
0100
0000
0010
0000
0001
0100
0001
1000
,
0001
0000
0000
1000
0100
0000
0000
0010
0001
0000
1000
0000
0001
0000
0100
0000
,
0010
0000
0000
0010
1000
0000
0000
1000
0001
0000
0010
0000
0100
0010
0100
1000
,
0001
0000
0000
0100
0010
0000
0000
1000
0001
0000
0100
0000
0010
0100
0001
1000
,
0100
0000
0000
0010
0001
0000
1000
0000
0010
1000
0010
0000
1000
0100
1000
0000
,
0100
0000
0010
0001
0010
0000
0000
0100
1000
0000
0001
0000
0100
0000
0010
0000
,
1000
0000
0010
0100
0001
0000
1000
0000
0100
0000
0010
0001
0010
0000
0100
0000
,
1000
0000
0010
1000
0010
0000
0100
0010
0100
0001
0100
0001
1000
0100
1000
0100
,
0010
0000
0001
0000
1001
0000
0000
1000
0010
0000
0010
0000
0100
0000
0100
0000
,
0010
0000
1000
0000
1001
0000
0001
0100
0000
0100
0010
0000
1000
0000
0100
0000
,
0010
0000
0010
0000
0000
0001
0000
0000
1000
0000
0001
0000
0000
0001
0100
0000
,
0010
0000
0010
0000
2001
0000
3100
0000
0010
0001
1000
0000
1010
0000
0010
0000
,
0000
0101
0000
0000
0001
0000
0000
0001
0010
0000
0001
0000
1000
0000
0010
0100
,
0010
0000
0000
0000
1010
0000
0100
0010
0001
0000
0000
1000
0001
0000
0000
0001
,
0010
0000
0100
0000
0000
1001
0000
0010
1000
0000
1000
0001
0100
0000
0001
0100
,
0001
0000
1000
0100
1000
0000
0010
1000
0100
0010
0100
0010
0001
0000
1000
0000
,
1100
0000
0000
0101
0000
0001
0000
0000
1000
0000
0100
0000
0010
0100
0010
0000
,
0001
0000
0000
1000
0000
0010
1000
0000
0100
0000
0100
0000
0010
0000
0001
0000
,
0000
0101
0000
0000
0100
0000
0010
1000
0000
0001
0010
0000
0100
0000
1000
0000
,
1002
0000
0103
0000
0010
1000
0001
0000
0011
0000
0000
0000
0001
0000
1000
0000
,
1010
0000
0000
0000
1000
0001
0100
0000
0101
0000
0000
0000
0001
0000
1000
0000
,
1100
0000
0000
0000
1000
0001
1000
0000
0001
0000
0010
0100
1000
0000
0100
1000
,
0001
0000
1000
0001
0100
0000
0010
1000
0001
0010
0001
0010
0100
1000
0100
1000
,
0001
0100
0010
1000
0001
0010
0100
1000
0020
0000
0000
0000
0100
0000
0001
0000
,
1030
0000
1100
0000
0001
0101
0000
0000
2001
0000
0001
3000
0010
1000
0000
0000
,
0100
0000
0000
0010
0001
0010
0100
1000
1002
0000
1000
0003
0100
0001
0000
0000
,
1000
0000
1010
0000
0000
0011
0000
0000
0220
0000
0000
0330
0000
0000
0000
0000
,
0000
0000
0000
0000
0000
0000
0000
0000
1001
0000
0000
0000
1000
0001
1000
0001
,
0100
0000
0000
0000
0001
1000
0001
1000
0100
0000
0000
0000
1000
0001
1000
0001
,
0010
0000
0000
0000
0001
1000
0001
1000
0010
0000
1000
0000
0010
0100
0010
1000
,
0001
0000
0010
0000
0100
0010
0001
1000
0001
0000
0100
0000
0010
1000
0100
1000
,
0001
0000
0100
0000
0010
0100
0001
1000
0100
0000
0000
1100
0000
0000
1010
0000
,
0000
0110
0000
0000
0101
0000
0000
0011
0000
0000
0110
0000
0000
1100
0000
0000
,
1001
0000
0000
0000
0000
0000
0000
0000
0000
0101
0000
0000
0000
0000
0000
0000
0000
0000
0110
0000
0000
0000
0000
0000
0010
0000
0000
0000
1000
0000
0000
0000
0010
0000
0000
0000
1000
0000
0000
0000
0100
0000
0000
0000
1000
0000
0000
0000
,
0100
0000
0000
0000
0010
0000
0000
0000
0100
0000
0000
0000
0010
0000
0000
0000
0001
0000
0000
0000
0100
0000
0000
0000
0001
0000
0000
0100
0000
0000
0010
0000
0000
0100
0000
0000
0010
0000
0000
1000
0000
0000
0010
0000
0000
1000
0000
0000
,
0100
1000
0100
1000
0100
1000
0001
0100
0001
0100
0001
0100
0020
0000
0000
0000
0000
0000
0000
0000
0000
0000
0000
0000
,
0000
0000
0000
0000
,
0000
0000
0000
0000
,
0000
0000
0000
0000
,
0000
0000
0230
0000
,
0000
0000
0000
0000
0310
0000
0100
0000
0001
0100
0001
0000
1000
0100
1000
0000
,
0010
0100
0001
1000
0100
0010
0100
0010
0001
0000
0000
0100
1000
0000
0000
0100
,
0001
0000
1000
0000
0100
0010
0001
1000
0001
0000
0000
1000
0010
0000
0000
0001
,
0010
0000
1000
0000
0001
0000
0010
0000
0100
0000
0010
0100
1000
0000
0000
1000
,
0001
0000
0100
0000
0010
0100
0001
0000
1000
0000
0000
0100
0001
0000
0000
1000
,
0010
0000
0001
0000
0100
1000
0100
0001
0100
0000
0000
0001
1000
0000
0100
0000
,
0010
0001
0100
0000
0001
1000
0010
0000
1000
0000
0100
0010
0001
0000
0000
1000
,
0010
0000
1000
0000
0100
0000
0010
0000
0001
0000
0010
0100
1000
0000
0010
0000
,
0100
0000
0001
1000
0100
0000
0010
0000
0001
0010
0100
0000
0010
0100
1000
0000
,
0001
0100
0010
1000
0010
0100
0001
1000
0100
0000
0000
1000
0010
0000
0000
0001
,
0010
0000
1000
0000
0100
0010
0001
0000
1000
0000
0000
0001
0100
0000
0000
1000
,
0100
0000
0001
0000
0010
0000
0100
0000
1000
0000
0010
0100
0001
0000
0000
1000
,
0100
0000
0001
0000
0100
0010
0100
0000
1000
0000
0010
0000
0100
0000
0000
0001
,
0100
0000
0010
0000
1000
0100
1000
0000
0010
0000
0000
0100
0001
0000
0100
0000
,
0010
1000
0100
0000
1000
0100
0010
0000
0100
0000
0010
0001
1000
0000
0000
0001
,
0100
0000
0010
0000
1000
0000
0001
0000
0010
0000
0001
0100
0010
0000
0100
0010
,
1000
0000
0010
1000
0001
0000
1000
0001
0010
0001
0010
0100
1000
0100
1000
0010
,
0100
0001
1000
0100
0010
0001
0100
0010
0000
0000
0000
0000
0000
0000
0000
0000
,
0000
0000
0000
0000
,
0000
0000
2002
0000
,
0000
0000
3003
0000
;

//---------------dance-single - S-CHALLENGE----------------
#NOTES:
     dance-single:
     xRGTMx-CSP:
     Challenge:
     13:
     0.984816,1.000000,0.586885,0.105114,1.000000,708.000000,67.000000,12.000000,0.000000,0.000000,0.000000,0.984816,1.000000,0.586885,0.105114,1.000000,708.000000,67.000000,12.000000,0.000000,0.000000,0.000000:
0000
0000
0000
0000
,
0000
0000
0000
0000
,
0000
0000
0000
0000
,
0000
0000
0000
0000
,
1000
0000
0100
0010
0001
0000
0000
0000
0010
0000
0100
0000
1000
0000
0010
0000
0000
0000
1010
0000
0000
0000
0011
0000
0000
0000
0001
0000
0010
0000
0100
0000
,
1000
0000
0001
0100
0010
0000
0000
0000
1000
0000
0010
0000
0100
0000
0001
0000
0000
0000
0011
0000
0000
0000
1010
0000
0000
0000
1000
0000
0100
0000
0010
0000
,
0011
0000
0101
0000
1010
0000
1100
1001
,
0011
0000
0000
0000
0110
0000
0000
1001
0000
0000
1010
0000
0010
0100
0001
0000
,
1000
0000
0000
0000
0000
0000
0001
0000
0100
0000
0001
0000
0100
0000
0000
0000
0000
0000
0001
0000
1000
0000
0001
0000
1000
0000
0000
0000
0000
0000
0100
0000
1000
0000
0100
0000
1000
0000
0000
0001
0000
0000
1000
0000
0000
0001
0000
0000
,
0200
0000
0000
0000
,
0000
0000
0000
0000
,
0000
0000
0000
0000
,
0000
0000
0000
0000
,
0310
0000
0000
0000
1000
0000
0001
0000
0010
0001
0010
0100
1000
0100
0010
0001
,
1000
0000
0010
1000
0100
0000
0100
1000
0010
0000
0100
0000
0001
0010
0100
0010
,
0001
0000
1000
0001
0010
0000
0010
0001
1000
0000
0010
0000
0100
0000
0100
0000
,
0001
0000
0010
0100
1000
0000
0000
0001
0100
0000
1000
0000
0001
0010
1000
0100
,
0010
0000
0001
0010
0100
0000
0000
1000
0010
0000
1000
0000
0001
0010
1000
0010
,
0100
0000
0010
0100
1000
0000
0000
0010
0100
0010
1000
0000
0010
0100
0001
0000
,
1000
0000
1000
0100
0010
0000
0000
0001
0100
0000
0001
0000
1000
0000
0010
0000
,
1000
0000
0100
0001
0100
0010
0100
0000
1000
0000
0010
0001
0010
0100
0010
0000
,
1000
0100
1000
0100
0010
0001
0010
0001
1000
0010
0100
0001
0100
0010
1000
0001
,
0010
0000
0001
0100
0010
0000
0010
0100
0001
0000
0010
0000
0100
1000
0100
1000
,
0010
0000
0010
1000
0100
0000
0100
1000
0010
0000
1000
0000
0010
0000
0001
0000
,
0010
0000
1000
0100
0010
0000
0000
0010
0001
0000
1000
0000
0010
0100
0010
1000
,
0001
0000
0010
0100
1000
0000
0000
0001
0100
0000
1000
0000
0100
0001
0100
0001
,
1000
0000
0100
0010
0001
0000
0000
1000
0010
1000
0010
0000
0100
0001
0100
0000
,
0010
0000
1000
0001
0010
0000
0000
0001
0100
0000
0010
0000
1000
0000
0001
0000
,
0010
0000
0001
0010
0100
1000
0100
0000
1000
0000
0010
0100
0001
0100
0010
0000
,
1000
0000
1000
0001
0010
0000
0001
1000
0010
0000
1000
0010
0100
0001
0100
0001
,
1000
0000
0100
0000
0101
0000
0000
0001
1000
0000
1100
0000
0100
0000
0010
0000
,
0011
0000
0001
0000
1001
0000
1000
0010
0000
0001
0010
0000
0101
0000
1100
0000
,
0010
0000
0001
0000
0000
0110
0000
0000
1001
0000
1000
0000
0000
0001
0010
0000
,
0100
0000
1000
0000
1020
0000
0130
0000
0010
1000
0001
0000
0011
0000
0010
0000
,
0000
0110
0000
0000
1100
0000
0000
1000
0001
0000
0100
0000
0110
0000
0010
1000
,
0010
0000
0000
0000
1100
0000
1000
0100
0010
0000
0001
1000
0001
0000
0000
0001
,
1000
0000
1100
0000
0000
0101
0000
0100
0010
0000
0010
1000
0001
0000
0010
0001
,
0010
0000
0010
1000
0010
0000
0010
0100
0010
0001
1000
0010
0100
0000
0001
0000
,
1001
0000
0000
1100
0000
0100
0000
0000
0011
0000
0010
0001
1000
0000
0010
0000
,
1001
0000
0000
1000
0100
0000
0010
0000
0011
0000
1100
0000
1001
0000
0001
0000
,
0000
0100
0000
0000
1010
0000
1000
0100
0000
0001
0100
0000
1010
0000
1001
0000
,
0102
0000
0013
0000
0001
0010
0100
0000
1100
0000
0000
0000
1001
0000
1001
0000
,
0101
0000
0000
0000
0001
1000
0001
0000
1010
0000
0000
0000
1001
0000
1001
0000
,
0011
0000
0000
0000
0001
1000
0001
0000
1000
0000
1000
0100
0001
0000
0001
0100
,
1000
0000
1000
0010
0001
0000
0001
0010
1000
0100
0010
0001
0010
0100
1000
0010
,
0100
0001
0100
0010
1000
0100
0001
0100
2000
0000
0000
0000
0010
0000
0000
0000
,
3001
0000
0011
0000
1000
1010
0010
0000
0210
0000
0001
0300
0100
0010
0000
0000
,
1000
0000
0001
0010
1000
0100
1000
0010
1002
0000
0100
0003
0001
0010
0000
0000
,
0100
0000
1010
0000
0000
0011
0000
0000
0220
0000
0000
0330
0000
0000
0000
0000
,
0000
0000
0000
0000
0000
0000
0000
0000
1001
0000
0000
0000
1000
0100
0001
0100
,
1000
0000
0000
0000
1000
0010
0001
0010
1000
0000
0000
0000
0001
0010
1000
0010
,
0001
0000
0000
0000
0001
0100
1000
0100
0001
0000
1000
0000
0001
0010
0100
0010
,
0001
0000
1000
0000
0010
0100
0001
0100
0010
0000
1000
0000
0100
0010
0001
0010
,
0100
0000
1000
0000
0010
1000
0100
1000
0010
0000
0000
1010
0000
0000
1100
0000
,
0000
0101
0000
0000
0011
0000
0000
0101
0000
0000
1100
0000
0000
1010
0000
0000
,
0110
0000
0000
0000
0000
0000
0000
0000
0000
0101
0000
0000
0000
0000
0000
0000
0000
0000
1001
0000
0000
0000
0000
0000
1000
0000
0000
0000
0100
0000
0000
0000
0010
0000
0000
0000
0001
0000
0000
0000
1000
0000
0000
0000
0010
0000
0000
0000
,
0100
0000
0000
0000
0010
0000
0000
0000
1000
0000
0000
0000
0001
0000
0000
0000
0010
0000
0000
0000
0100
0000
0000
0000
1000
0000
0000
0010
0000
0000
0100
0000
0000
0001
0000
0000
0010
0000
0000
0001
0000
0000
0100
0000
0000
0010
0000
0000
,
1000
0010
1000
0010
0100
0010
0100
0001
0100
0001
1000
0001
0020
0000
0000
0000
0000
0000
0000
0000
0000
0000
0000
0000
,
0000
0000
0000
0000
,
0000
0000
0000
0000
,
0000
0000
0000
0000
,
0000
0000
0230
0000
,
0000
0000
0000
0000
0310
0000
0001
0000
1000
0010
0100
0010
0100
0001
0010
0100
,
0010
0100
1000
0010
0001
1000
0100
0001
1000
0000
0100
1000
0010
0000
0010
1000
,
0100
0000
0001
0000
0100
1000
0001
0100
1000
0000
0100
0001
0010
0000
0010
0001
,
0100
0000
0010
0000
1000
0000
0001
0000
0010
0000
0100
1000
0010
0000
0000
0001
,
0010
0000
1000
0000
0100
0010
0001
0100
1000
0000
0100
0001
1000
0000
0000
0100
,
0001
0000
0100
0000
0010
1000
0010
0001
1000
0000
0010
0100
0001
0000
0000
0001
,
0100
1000
0100
0000
0001
0010
1000
0000
0010
0000
0001
1000
0010
0000
0000
0001
,
0010
0000
1000
0000
0100
0000
0010
0000
0001
0000
0010
0100
1000
0010
0100
0000
,
1000
0000
0100
0001
0010
0100
1000
0000
0001
0010
1000
0010
0001
0100
1000
0100
,
0001
1000
0100
0001
0100
1000
0010
0001
0010
0000
1000
0100
0001
0000
0001
0100
,
1000
0000
0010
0000
0100
0001
0100
0010
1000
0000
0001
0010
1000
0000
1000
0010
,
0001
0000
1000
0000
0010
0000
0100
0000
0001
0000
0010
0100
1000
0000
0000
0001
,
0100
0000
1000
0000
0100
0001
1000
0100
0010
0000
0001
0010
1000
0000
0000
0010
,
0001
0000
1000
0000
0010
0100
0010
1000
0001
0000
0010
0100
1000
0000
0000
0001
,
0100
0010
1000
0000
0010
0100
0001
0000
1000
0000
0100
0010
0001
0000
0000
0010
,
0100
0000
1000
0000
0010
0000
1000
0000
0001
0000
0010
0100
0001
0100
0010
0000
,
0001
0000
0100
1000
0001
1000
0100
0000
0001
0010
1000
0001
0100
1000
0001
0100
,
1000
0001
0010
1000
0001
0010
0100
1000
0000
0000
0000
0000
0000
0000
0000
0000
,
0000
0000
0000
0000
,
0000
0000
0220
0000
,
0000
0000
0330
0000
;

//---------------dance-single - S-DIFFICULT----------------
#NOTES:
     dance-single:
     xRGTMx-DSP:
     Medium:
     9:
     0.641945,0.650392,0.245265,0.245265,0.346000,457.000000,28.000000,28.000000,0.000000,0.000000,0.000000,0.641945,0.650392,0.245265,0.245265,0.346000,457.000000,28.000000,28.000000,0.000000,0.000000,0.000000:
0000
0000
0000
0000
,
0000
0000
0000
0000
,
0000
0000
0000
0000
,
0000
0000
0000
0000
,
2002
0000
0000
0000
,
0000
0000
0000
3003
,
1000
0000
1000
0000
1000
0000
1000
1000
,
0001
0000
0000
0000
0001
0000
0000
0001
0000
0000
0001
0000
1000
0001
1000
0000
,
0001
0020
1030
0020
0031
0020
0130
1000
,
0020
0000
0000
0000
,
0000
0000
0000
0000
,
0000
0000
0000
0000
,
0000
0000
0000
0000
,
0130
0000
0010
0000
1000
0001
0010
0100
,
0010
0000
0000
0010
0001
0000
0000
0001
1000
0000
0010
0000
0100
0000
0001
0000
,
0100
0000
0000
0100
0010
0000
0000
0010
1000
0000
0100
0000
0010
0000
0001
0000
,
1000
0000
0000
1000
0010
0000
0000
1000
0001
0000
0010
0000
0001
0000
0100
0000
,
0010
0000
0000
0100
0001
0000
0000
1000
0100
0000
0010
0000
0001
0000
1000
0000
,
0001
0000
0000
0100
0010
0000
0000
1000
0010
0000
0100
0000
0001
0000
1000
0000
,
0100
0000
0000
0010
0001
0000
0000
0010
0100
0000
1000
0000
0001
0000
0100
0000
,
0010
1000
0100
0001
1000
0010
0001
0100
,
0001
0000
0010
0000
1000
0000
0010
0000
0001
0000
0100
0000
0010
0100
0010
0000
,
1000
0000
0000
1000
0100
0000
0000
1000
0001
0000
0100
0000
1000
0000
0100
0000
,
0001
0000
0000
0001
0010
0000
0000
0001
1000
0000
0001
0000
0010
0000
1000
0000
,
0010
0000
0000
0010
0001
0000
0000
0001
0100
0000
0010
0000
1000
0000
0100
0000
,
1000
0000
0000
1000
0010
0000
0000
0010
0100
0000
0001
0000
1000
0000
0100
0000
,
0010
0000
0000
0010
0001
0000
0000
0000
0100
0000
0001
0000
1000
0000
0100
0000
,
1000
0000
0000
1000
0010
0000
0000
0000
0100
0000
0001
0000
1000
0000
0100
0000
,
0110
0000
0001
0100
0110
0000
1000
0001
,
1000
0000
0100
0000
0100
0000
0010
0000
0010
0000
0001
0000
0001
0100
0001
0100
,
0010
0000
1010
0000
1000
0001
0010
0000
,
0001
0000
1000
0000
0100
0000
0000
0100
0010
0000
0001
0000
1000
0000
1000
0000
,
0001
0100
0010
0000
0100
0001
1000
0100
,
0010
0000
0000
0000
1002
0000
0000
0000
0103
0010
0100
0000
0001
0000
0000
0000
,
1000
0000
0100
0000
0010
0000
0000
0010
0100
0000
1000
0000
0001
0000
0000
0001
,
0100
0000
0000
0000
0010
0000
0100
0000
0001
0000
1000
0000
0100
0000
0000
0100
,
1000
0000
0100
0000
0000
1000
0000
0000
0001
0000
0000
0100
0010
0000
0000
1000
,
0100
0000
0000
0010
0001
0000
0000
1000
0001
1000
0001
0000
0010
0000
0000
0000
,
0011
0000
0001
1000
0010
0000
1000
0001
,
0100
0000
0000
0100
0010
0000
1000
0000
0001
0000
0001
0000
1000
0000
0100
0000
,
0010
0000
0100
1000
0001
0100
0010
0000
,
2001
0000
0000
0000
3100
0010
0100
0000
1100
0000
0000
0000
1000
0000
0001
0000
,
0100
0000
0010
0010
1000
0000
0001
0010
,
0100
0000
0010
0010
0001
0200
0310
0200
,
1300
0200
0310
0200
0301
0010
0100
1000
,
0001
0100
0001
0000
1000
0100
1000
0000
0020
0000
0000
0000
0000
0000
0000
0000
,
0030
0000
1010
0000
0000
0011
0000
0000
1200
0000
0000
0300
0000
0000
0000
0000
,
0000
0000
0000
1000
0001
1000
0001
1000
0002
0000
0000
0003
0000
0000
0000
0000
,
0000
0000
0011
0000
0000
1010
0000
0000
0201
0000
0000
0300
0000
0000
0000
0000
,
0000
0000
1001
0000
,
1100
0000
1001
0000
,
0101
0000
1001
1100
,
1001
0101
1001
1010
,
1001
0000
0000
0000
0011
0000
0000
0000
0110
0000
0000
0100
0000
0000
1000
0000
,
0000
0100
0000
0000
1000
0000
0000
0001
0000
0000
1000
0000
0000
0001
0000
0000
,
0100
0000
0000
0001
0000
0000
0100
0000
0020
0000
0000
0000
2030
0000
0000
0000
,
3002
0000
0023
0000
0130
1000
0001
0100
,
0010
1000
0100
0100
0020
0000
0000
0000
,
0000
0000
0000
0000
,
0000
0000
0000
0000
,
0000
0000
0000
0000
,
0000
0000
0230
0000
,
0000
0000
1300
0001
1000
0010
0001
0010
,
1000
0000
0100
0000
0010
0001
0010
0000
0100
0000
0000
0100
1000
0000
0000
1000
,
0001
0000
0100
0000
0010
0000
1000
0000
0010
0000
0000
0010
0100
0000
0000
0100
,
0001
0000
0010
0000
0100
0000
1000
0000
0001
0000
0000
0001
0100
0000
0000
0001
,
1000
0000
0100
0000
1000
0000
0010
0000
0100
0000
0000
0010
1000
0000
0000
0001
,
0010
0000
0100
0000
1000
0000
0001
0000
1000
0000
0000
0010
0100
0000
0000
0001
,
0100
0000
0010
0000
1000
0000
0001
0000
0010
0000
0000
0100
1000
0000
0000
0100
,
0010
0001
1000
0010
0100
0001
0010
1000
,
0001
0100
1000
0010
1000
0100
0001
0100
,
1000
0000
0010
0000
0100
0010
0100
0000
0001
0000
0000
0001
0010
0000
0000
0001
,
1000
0000
0010
0000
0001
0000
0010
0000
1000
0000
0000
1000
0100
0000
0000
1000
,
0001
0000
1000
0000
0100
0000
0001
0000
0100
0000
0000
0100
1000
0000
0000
1000
,
0010
0000
0100
0000
0001
0000
0010
0000
0001
0000
0000
0001
0100
0000
0000
0100
,
0010
0000
1000
0000
0001
0000
0010
0000
0100
0000
0000
0100
1000
0000
0000
0000
,
0010
0000
1000
0000
0001
0000
0010
0000
0001
0000
0000
0001
0100
0000
0000
0000
,
0010
1000
0001
0010
0001
0200
1300
0200
,
0301
0020
1030
0020
0031
0010
0100
1000
,
0001
0000
0010
0001
0100
0010
1000
0100
0000
0000
0000
0000
0000
0000
0000
0000
,
0000
0000
0000
0000
,
0000
0000
2002
0000
,
0000
0000
3003
0000
;

//---------------dance-single - S-BASIC----------------
#NOTES:
     dance-single:
     xRGTMx-BSP:
     Easy:
     7:
     0.494285,0.578126,0.893467,0.096354,0.013139,282.000000,102.000000,11.000000,0.000000,0.000000,0.000000,0.494285,0.578126,0.893467,0.096354,0.013139,282.000000,102.000000,11.000000,0.000000,0.000000,0.000000:
0000
0000
0000
0000
,
0000
0000
0000
0000
,
0000
0000
0000
0000
,
0000
0000
0000
0000
,
0200
0000
0000
0000
,
0300
0000
0000
0000
,
0010
0000
0010
0000
0010
0000
0010
0010
,
0100
0000
0000
0000
0100
0000
0000
0100
0000
0000
0100
0000
0100
0000
0000
0000
,
1001
1100
0101
1001
,
0020
0000
0000
0000
,
0000
0000
0000
0000
,
0000
0000
0000
0000
,
0000
0000
0000
0000
,
0130
0000
0000
0000
1000
0001
1000
0000
,
0011
0101
0010
1000
,
1010
1100
0100
0010
,
1001
0101
0010
1000
,
1001
1100
0010
0001
,
0101
1100
1000
0001
,
0011
1010
1000
0001
,
0011
0100
1010
0100
,
0110
0000
1000
0001
0100
0000
0010
1000
,
0001
0011
0110
1100
,
1000
1010
0110
0101
,
0001
1100
0101
1010
,
1000
0000
0011
0000
1010
0000
0001
0100
,
0001
0000
1100
0000
0110
0000
0010
0001
,
1000
0000
1010
0000
0101
0000
0001
0010
,
0001
0000
0010
0100
0010
0000
0100
1000
,
0100
1000
0000
1000
0000
0001
0000
0001
,
0100
0000
0100
0000
0010
0100
0010
0000
,
1000
0000
1001
0000
0001
0000
1001
1000
,
0001
0000
0100
0000
0010
0100
0010
0000
,
1000
2001
3100
0010
,
0010
0000
0100
0010
0100
0000
1000
0000
,
1010
0000
0100
0000
0011
0001
1000
0000
,
0001
0100
0100
0010
,
0110
1010
1001
0001
,
0010
0000
0100
0010
0100
0000
1000
0000
,
1001
0000
0001
0000
1001
1000
0001
0000
,
0010
0000
0100
0010
0100
0000
1000
0000
,
1002
0000
0013
0000
0100
0000
1000
0100
,
1000
0000
1000
0001
1000
0000
0001
0100
,
0001
0000
0001
1000
0001
0000
0101
0000
,
1100
1001
0110
1010
,
0011
0110
2002
0000
,
3003
0000
0010
0000
0000
0010
0000
0000
0020
0000
0000
0030
0000
0000
0000
0000
,
0000
0000
1001
0000
,
0000
0000
0100
0000
0000
0100
0000
0000
0200
0000
0000
0300
0000
0000
0000
0000
,
0000
0000
1001
0000
,
1001
0000
0110
0000
,
0110
0000
1001
1001
,
0110
0110
1001
1001
,
0110
0000
0110
0000
1001
0000
0000
1000
,
0000
0000
0100
0000
0000
0100
0000
0000
,
0010
0000
0000
0010
0001
0000
0001
0000
,
0100
0100
0010
0010
,
1000
0001
1000
0001
0020
0000
0000
0000
,
0000
0000
0000
0000
,
0000
0000
0000
0000
,
0000
0000
0000
0000
,
0000
0000
0130
0000
,
0000
0100
1000
1000
,
0001
1000
0001
0000
1100
0000
1010
0000
,
0100
0001
0101
0011
,
0010
0100
1001
1010
,
0100
0001
1001
0011
,
0100
1000
1010
0011
,
0001
1000
1100
0101
,
0001
1000
1100
0010
,
0101
0000
0010
0000
0110
0000
0001
1000
,
0010
0000
0100
0001
1000
0000
1100
0000
,
0110
0011
0001
0101
,
0110
1010
1000
0011
,
1010
0101
0001
1100
,
0101
0000
1000
0010
1000
0000
0011
0000
,
0110
0000
0100
1000
0001
0000
0101
0000
,
1010
0000
1000
0100
1000
0000
0101
0000
,
1100
0011
1010
1000
,
0100
0010
0100
0010
0000
0000
0000
0000
,
0000
0000
0000
0000
,
0000
0000
2002
0000
,
0000
0000
3003
0000
;

//---------------dance-single - BEGINNER----------------
#NOTES:
     dance-single:
     xRGTMx-BEG:
     Beginner:
     4:
     0.213982,0.289063,0.008759,0.052557,0.000000,164.000000,1.000000,6.000000,0.000000,0.000000,0.000000,0.213982,0.289063,0.008759,0.052557,0.000000,164.000000,1.000000,6.000000,0.000000,0.000000,0.000000:
// measure 0
0000
0000
0000
0000
,  // measure 1
0000
0000
0000
0000
,  // measure 2
0000
0000
0000
0000
,  // measure 3
0000
0000
0000
0000
,  // measure 4
0010
0000
0000
0000
,  // measure 5
0000
0000
0000
0000
,  // measure 6
1000
0000
1000
0000
,  // measure 7
0001
0000
0001
0000
,  // measure 8
0100
0100
0100
0100
,  // measure 9
0100
0000
0000
0000
,  // measure 10
0000
0000
0000
0000
,  // measure 11
0000
0000
0000
0000
,  // measure 12
0000
0000
0000
0000
,  // measure 13
0000
0000
0000
0000
,  // measure 14
1000
1000
1000
0000
,  // measure 15
1000
1000
1000
0000
,  // measure 16
0001
0001
0001
0000
,  // measure 17
0001
0001
0001
0000
,  // measure 18
0010
0010
0010
0000
,  // measure 19
0010
0010
0010
0000
,  // measure 20
0100
0100
0100
0000
,  // measure 21
0100
0100
0100
0000
,  // measure 22
1000
1000
0001
0000
,  // measure 23
0001
0001
1000
0000
,  // measure 24
0001
1000
1000
0000
,  // measure 25
1000
0001
0001
0000
,  // measure 26
0010
0010
0100
0000
,  // measure 27
0100
0100
0010
0000
,  // measure 28
0100
0010
0010
0000
,  // measure 29
0010
0100
0100
0000
,  // measure 30
1000
0000
1000
0000
,  // measure 31
0001
0000
0001
0000
,  // measure 32
0100
0100
0100
0000
,  // measure 33
0010
0020
0030
0100
,  // measure 34
0000
0100
0000
0010
,  // measure 35
0000
0010
0000
1000
,  // measure 36
0001
1000
0000
0001
,  // measure 37
1000
0001
0000
1000
,  // measure 38
0000
1000
0000
0001
,  // measure 39
0000
0001
0000
0010
,  // measure 40
0010
0010
0000
0100
,  // measure 41
0200
0300
0010
0000
,  // measure 42
0010
0000
0100
0000
,  // measure 43
0100
0000
1000
1000
,  // measure 44
1000
1000
0001
0001
,  // measure 45
0001
0001
0200
0000
,  // measure 46
0300
0000
0000
0000
,  // measure 47
0000
0000
0010
0000
,  // measure 48
0000
0000
0000
0000
,  // measure 49
0000
0000
1000
0000
,  // measure 50
1000
0000
0001
0000
,  // measure 51
0001
0000
1000
1000
,  // measure 52
1000
0000
0001
0001
,  // measure 53
0001
0000
0100
0000
,  // measure 54
0000
0100
0000
0000
,  // measure 55
0100
0000
0020
0000
,  // measure 56
0000
0000
0000
0000
,  // measure 57
0000
0000
0130
0000
,  // measure 58
0000
0000
0000
0000
,  // measure 59
0000
0000
0000
0000
,  // measure 60
0000
0000
0000
0000
,  // measure 61
0000
0000
0000
0000
,  // measure 62
0000
0000
0000
0000
,  // measure 63
0000
0000
0001
0001
,  // measure 64
0001
0000
0001
0001
,  // measure 65
0001
0000
1000
1000
,  // measure 66
1000
0000
1000
1000
,  // measure 67
1000
0000
0100
0100
,  // measure 68
0100
0000
0100
0100
,  // measure 69
0100
0000
0010
0010
,  // measure 70
0010
0000
0010
0010
,  // measure 71
0010
0000
0001
0001
,  // measure 72
1000
0000
1000
1000
,  // measure 73
0001
0000
1000
0001
,  // measure 74
0001
0000
0001
1000
,  // measure 75
1000
0000
0100
0100
,  // measure 76
0010
0000
0010
0010
,  // measure 77
0100
0000
1000
0000
,  // measure 78
0001
0000
0100
0010
,  // measure 79
0100
0010
0000
0000
,  // measure 80
0000
0000
0000
0000
,  // measure 81
0000
0000
2002
0000
,  // measure 82
0000
0000
3003
0000
;
